#TITLE:BOYS&GIRLS;
#SUBTITLE:家庭教師ヒットマンREBORN!;
#ARTIST:LM.C;
#TITLETRANSLIT:Boys & Girls;
#SUBTITLETRANSLIT:Katekyo Hitman Reborn!;
#ARTISTTRANSLIT:LM.C;
#GENRE:Otaku's Dream 2nd Mix (Pad);
#CREDIT:Grc-009 and Itsugo;
#BANNER:BOYS&GIRLS-bn.png;
#BACKGROUND:BOYS&GIRLS-bg.png;
#LYRICSPATH:BOYS&GIRLS.lrc;
#CDTITLE:Collab.png;
#MUSIC:BOYS&GIRLS.ogg;
#OFFSET:-1.964;
#SAMPLESTART:52.945;
#SAMPLELENGTH:24.420;
#SELECTABLE:YES;
#LISTSORT:;
#BPMS:0.000=93.970,8.000=187.940;
#STOPS:152.000=1.100
,213.000=0.160
,213.500=0.160
,214.000=0.160
;
#TICKCOUNT:0.000=6;
#BGCHANGES:-2.846=B G.avi=1.000=1=0=0,
256.500=B G.avi=0.000=0=1=0,
99999=-nosongbg-=1.000=0=0=0 // don't automatically add -songbackground-
;
#KEYSOUNDS:;
#ATTACKS:;

//---------------dance-single - GRC-009----------------
#NOTES:
     dance-single:
     GRC-009:
     Easy:
     4:
     0.318,0.397,0.011,0.366,0.000:
0000
0000
0000
0000
0010
0001
0020
0000
,
0000
0000
0000
0000
0000
0030
0000
0000
0100
0000
1000
0000
0200
0000
0000
0000
,
0000
0300
1000
0000
0001
0000
0001
0000
,
0001
1000
0001
1000
,
0010
1000
0100
0000
,
1000
1000
0010
0010
,
1000
0000
0000
0100
0000
0000
0000
0000
,
0010
0010
0100
1000
,
0100
0010
0001
0000
,
1000
1000
0100
0010
,
0001
0000
0000
1000
0000
1000
0000
2000
,
0000
0000
0000
0000
0000
3000
0200
0000
,
0000
0300
0020
0000
0000
0000
0000
0000
,
0000
0030
0002
0000
0000
0003
0020
0000
,
0000
0030
0200
0300
0010
0000
0001
0000
,
0010
0000
0000
0000
0000
0000
0000
0001
,
0001
0000
0010
0100
,
1000
0000
0000
0000
0000
0000
0000
0001
,
0001
0000
0100
0100
,
0002
0000
0000
0000
0000
0003
1000
0000
,
2000
0000
0000
0000
0000
0000
0000
3000
,
0002
0003
2000
3000
0200
0300
0002
0003
,
0200
0300
0020
0030
0002
0003
0100
0000
,
0010
0000
0000
0000
0000
0000
0000
1000
,
1000
0000
0000
0001
0000
0001
0000
0000
,
1000
0000
0000
0000
0000
0000
0000
0100
,
0100
0000
0000
1000
,
0100
0010
0001
0010
,
0200
0000
0000
0000
0000
0000
0000
0300
,
0100
0010
0001
0010
,
0001
0000
2000
0000
3002
0000
0000
0003
,
0010
0000
0000
0001
,
0001
0100
0100
0010
,
0010
0000
1000
0000
0010
0000
0100
0001
,
0000
0000
0000
1000
0200
0000
0300
0000
,
0010
0000
0000
0010
,
0010
0001
0001
1000
,
0010
0000
0000
2000
0000
0000
0000
0000
,
3001
1001
0000
0100
0000
0001
0000
0100
,
0000
0001
0000
0100
0000
1000
0000
0100
,
0000
0010
0000
0000
0000
0000
0000
0010
,
0000
0100
0000
0001
0000
0100
0000
0010
,
0000
2000
0000
3000
0200
0000
0000
0000
,
0300
1000
0000
0100
0000
0010
0000
0001
,
0000
2000
0000
3000
0001
0000
0000
1000
,
0000
0100
0000
1000
0000
0001
0000
0100
,
0000
0002
0000
0000
0000
0000
0003
0010
,
0000
0100
0000
0100
0000
0010
0000
0001
,
0000
2000
0000
0000
0000
0000
3000
0001
,
0000
0010
0000
0100
0000
1000
0000
1000
,
0000
0100
0000
0000
0000
0100
0000
0010
,
0000
0100
0000
1000
0000
0100
0000
0010
,
0000
0002
0000
0000
0003
0001
0000
1000
,
0000
0001
1000
0001
1000
0000
2000
0000
,
0000
0000
0000
0000
,
0000
3000
0000
0000
0000
0000
0200
0000
,
0000
0000
0000
0000
,
0000
0300
0000
0000
0000
0000
0002
0000
,
0000
0000
0000
0000
,
0000
0003
0000
0020
,
0000
0000
0000
0030
,
0000
0000
0100
0200
0000
0000
0000
0000
,
0000
0000
0000
0000
,
0000
0000
0000
0000
,
0000
0000
0000
0000
,
0000
0300
0000
0000
0000
0000
0000
0000
;

//---------------dance-single - CRC-009----------------
#NOTES:
     dance-single:
     CRC-009:
     Medium:
     6:
     0.459,0.604,0.078,0.466,0.022:
0000
0000
0000
0000
0000
0000
0000
0000
0010
0000
0100
0000
0010
0000
0000
1000
,
0000
0001
0000
1000
0000
0001
0000
0000
0010
0000
0100
0000
0020
0000
0000
0000
,
0000
0030
0001
1000
0001
1000
0001
1000
,
0001
0100
0010
1000
,
0010
0000
1000
0002
0000
0000
0003
0000
,
0010
0001
1000
0001
,
0010
0000
0100
0020
0000
0000
0030
0000
,
0001
1000
0100
0010
,
0100
0000
1000
0002
0000
0000
0003
0000
,
1000
0010
0100
0001
,
1000
0000
1000
0100
0000
0100
0000
0200
,
0000
0300
0020
0000
0000
0030
0002
0000
,
0000
0003
2000
0000
0000
0000
0000
0000
,
0000
3000
0002
0000
0000
0003
2000
0000
,
0000
3000
0020
0030
1000
0000
0001
0000
,
1000
0000
0000
0000
1000
0000
0100
0010
,
0000
0000
0001
0010
,
0010
0000
0000
0000
0001
0000
0000
1000
,
2000
3000
0001
0000
0010
0000
0010
0001
,
2000
0000
0001
0000
0010
3000
0001
0010
,
0200
0000
0000
0000
0000
0000
0000
0300
,
0020
0030
0002
0003
0200
0300
0020
0030
,
2000
3000
0200
0300
0002
0003
0100
0000
,
1000
0000
0100
0000
0010
0000
0100
1000
,
0000
0000
0000
1000
0001
1000
0001
1000
,
0001
0000
1000
0000
0010
0000
0100
0001
,
0000
0000
0000
0100
0010
0100
0010
0000
,
0100
0000
0002
0003
2000
3000
0002
0003
,
0020
0030
0200
0300
0020
0030
0200
0300
,
0020
0030
0002
0003
2000
3000
0002
0003
,
1000
0100
1000
0100
2000
0000
0000
3000
,
0001
0000
0000
0000
0000
1000
0100
1000
,
0000
0100
0010
0100
0000
1000
0001
1000
,
0001
0100
0001
0100
0001
0000
0001
0000
,
0100
0000
0100
0010
0000
0100
0010
0100
,
0010
0000
0000
0000
0000
0100
0001
0100
,
0000
0001
1000
0001
0000
0010
0100
0010
,
0001
0000
0000
2000
0000
0000
3000
0000
,
1001
0011
0000
0001
0000
1000
0000
0100
,
0000
0010
0000
0100
0000
1000
0000
0001
,
0000
0200
0000
0000
0300
0000
0000
0010
,
0000
0100
0000
0001
0000
1000
0000
0100
,
0000
2000
0000
3000
0002
0000
0000
0000
,
0000
1003
0000
1000
0000
0001
0000
1000
,
0000
0200
0000
0300
0010
0000
0000
0001
,
0001
0001
0000
0010
0010
0010
0000
0001
,
0000
0020
0000
0100
0000
0100
0030
0100
,
0000
1000
0000
1000
0000
0100
0000
0010
,
0000
0200
0000
0000
0000
0300
0000
0010
,
0000
0001
0000
0100
0000
0010
0000
0010
,
0000
0110
0000
0000
0000
0100
0000
0001
,
0000
0010
0000
0001
0010
0000
0000
0001
,
0000
1001
0000
0000
0000
0001
0000
1000
,
0000
0100
1100
1001
1100
0000
2000
0000
,
0100
0010
0100
0010
,
3010
0100
0000
0000
0000
0000
0001
0000
,
0010
0100
0010
0001
,
1000
0001
0000
0000
0000
0000
0010
0000
,
0001
1000
0001
1000
,
1000
0100
0000
0000
0000
0000
0010
0000
,
0001
0000
1000
0000
0010
1000
0010
0000
,
0100
0001
0100
0020
0000
0000
0000
0000
,
0000
0000
0000
0000
,
0000
0000
0000
0000
,
0000
0030
0000
0000
0000
0000
0000
0000
;

//---------------dance-single - Grc-009----------------
#NOTES:
     dance-single:
     Grc-009:
     Hard:
     9:
     0.736,0.974,0.776,0.599,0.039:
0000
0000
0000
0000
0000
0000
0000
0000
1000
0001
1000
0000
0200
0000
1300
0001
,
0010
0100
1000
0020
0000
0130
0000
0001
1000
0100
0010
0000
0200
0000
0310
0000
,
1001
1000
0001
1000
0001
0100
0001
1000
,
1001
1100
0101
1001
,
0101
0000
1000
0100
0000
0010
0100
0010
,
0110
0011
1100
0110
,
1100
0000
1000
0001
0000
0001
1000
0001
,
1100
0110
1100
1001
,
0101
0000
0010
1000
0000
1000
0010
0100
,
0110
0101
1010
0011
,
1000
0000
1000
0001
0000
1001
0000
1001
,
0001
1000
0100
0000
0010
0001
2000
0000
,
0001
3001
1001
0000
1000
0001
1000
0001
,
0100
0010
2000
0000
0001
3001
0002
0000
,
0010
0013
0022
0033
1100
0000
0101
0000
,
0100
0010
1000
0100
0010
0100
1000
0001
,
0100
0000
0000
0001
0100
0010
1000
0001
,
1000
0010
0100
0001
1000
0000
0100
0010
,
0001
0000
0000
1000
0100
1000
0100
0010
,
0002
0000
0010
0000
0100
0003
0010
0100
,
2000
0000
0002
0003
0020
0030
0200
3300
,
2200
3300
0220
0330
0202
0303
0022
0033
,
2020
3030
2002
3003
0220
0330
0010
1000
,
1010
0000
0010
1000
0001
1000
0010
0100
,
0001
0000
0000
1000
0001
0100
0001
0010
,
0100
1000
0001
0100
0010
0000
1000
0100
,
0010
0000
0000
0010
0001
1000
0100
0000
,
2000
0000
0002
0003
0200
0300
0002
0003
,
0020
0030
0002
0003
0020
3030
2020
3030
,
0022
0033
0202
0303
2200
3300
0220
0330
,
0001
0000
1000
0000
0001
0000
0000
0000
2000
0000
0000
3000
0002
0000
0000
0000
,
0023
0000
0000
0000
0000
0031
0010
0001
,
0000
1000
0100
1000
0000
0001
0010
0001
,
1000
0100
0001
0100
0010
0000
0001
0000
,
1000
0000
0100
0010
0001
0000
0001
0000
,
2000
0000
0000
0000
3000
0001
1000
0001
,
0000
0001
0010
0001
0000
1000
0100
1000
,
0001
0000
0000
2000
0001
0001
3001
0000
,
1001
1001
0000
0100
0000
1001
0000
0010
,
0000
0011
0000
0100
0000
1100
0000
0001
,
0000
1001
1000
0001
1000
0001
1000
0010
,
0000
0100
0000
0001
0000
0010
0000
0100
,
0000
1000
0100
1000
0100
1000
0100
0010
,
0000
0001
0000
1000
0000
0010
0000
0100
,
0000
0001
0100
0001
0100
0001
0100
0010
,
1000
0001
0100
0101
0000
1000
0100
1100
,
0000
1000
0100
0001
0100
0010
0100
0010
,
0000
0110
0000
0010
0000
0011
0000
1001
,
0000
0001
1000
0100
1000
0001
1000
0100
,
0000
1100
0000
0110
0000
0001
0000
0100
,
0000
0010
1000
0001
0100
0010
1000
0010
,
0000
0100
0000
0001
0010
0100
1000
0100
,
0000
2200
0000
0000
3300
1000
0100
0010
,
0001
1000
1001
0101
1100
1001
2000
0000
,
0001
0010
0001
3010
,
0010
0100
0000
0001
1000
0100
0010
0000
,
0011
0101
0110
1010
,
0010
1000
0000
0001
0010
0100
1100
0000
,
0110
1001
0011
0110
,
0100
1000
0000
0001
0100
0010
1000
0000
,
1010
0000
1001
0000
1000
0100
0010
0000
,
0001
1000
1001
2002
0000
0000
0000
0000
,
0000
0000
0000
0000
,
0000
0000
0000
0000
,
0000
0000
0000
0000
,
0000
3003
0000
0000
0000
0000
0000
0000
;

//---------------dance-single - Challenge Itsugo15----------------
#NOTES:
     dance-single:
     Challenge Itsugo15:
     Challenge:
     12:
     0.988,0.888,0.720,0.998,0.111:
0000
0000
0000
0000
0000
0000
0000
0000
1000
0100
1000
0100
0020
0000
0130
0010
,
0100
0010
0001
0010
0100
2000
0000
3001
1000
0001
0010
0100
2000
0000
3001
0000
,
01M0
01M0
001M
001M
1M00
1M00
00M1
00M1
,
1001
2000
3001
2000
3010
2000
3100
2000
,
3001
2000
3010
2000
3100
2000
3001
1000
,
1001
0002
0103
0002
1003
0002
0013
0002
,
0103
0002
1003
0002
0013
0002
0103
0010
,
0110
0020
0130
0020
0031
0020
0130
0020
,
1030
0020
0130
0020
0031
0020
0130
0010
,
0110
0200
0301
2000
3100
0020
0031
2000
,
3010
0200
0300
0101
0000
1010
0000
1001
,
0001
0100
0101
0001
1000
0001
0011
1000
,
0001
1000
1100
2000
0100
0010
0001
0010
,
0100
3000
1100
1000
0001
1000
1010
0001
,
1000
0000
0000
0001
0000
0000
0011
0000
0000
0000
0000
0000
0020
0000
0000
0030
00M0
0000
0200
0000
0000
0300
0M00
0000
,
1100
1000
0100
0010
0001
0100
0010
1000
,
0100
0010
0100
1000
0010
0100
0001
0010
,
0010
0100
0100
0110
0110
0MM0
0010
0001
,
0100
0M00
0010
0001
1000
0100
0001
1000
,
1001
0002
0103
0002
0013
0002
0103
0002
,
1003
2000
3010
2000
3100
2000
3010
2000
,
3001
0002
0013
0020
0130
0200
1300
2000
,
3100
0000
0000
0200
0000
0000
0310
0000
0000
0020
0000
0000
0032
0000
0000
0003
000M
0000
2000
0000
0000
3000
M000
0000
,
0110
0100
0001
1000
0010
0001
1000
0100
,
0001
1000
0001
0100
1000
0001
0010
1000
,
1000
0001
0001
1001
1001
M00M
1000
0010
,
0001
000M
0010
1000
0100
0001
0100
0010
,
0110
0020
0031
0020
0130
0020
0031
0020
,
0130
0200
1300
0200
0310
0200
1300
0200
,
0310
0020
0031
2000
3001
0002
0103
0100
,
0010
0000
1000
0000
0100
0000
0010
0000
0100
0000
1000
0100
0010
0001
0010
0100
,
1000
0100
1000
0100
1000
0100
0010
0001
,
0011
0010
0100
1100
1000
0001
1001
1000
,
1001
0001
1000
0010
0100
0001
1000
0100
,
1100
0001
0010
0011
0001
1000
1001
0001
,
0101
0100
0001
0100
0010
1000
0001
0010
,
0011
0100
1000
1100
1000
0001
1001
1000
,
1001
0000
0001
0000
1000
0000
1001
0000
0001
0000
1000
0100
0010
0001
0010
0100
,
1000
1100
1000
0100
0001
0100
1000
0010
,
0001
0010
1000
0010
0001
0010
1000
0100
,
0010
0001
1000
0001
0010
0001
1000
1001
,
0000
0011
0000
1010
0000
1100
0000
0101
,
0000
0011
0001
0010
0100
1000
0100
0010
,
0001
0011
0000
1001
0000
1100
0000
1010
,
0000
1001
0000
0011
0001
0010
0100
1000
,
0100
0010
0001
0011
0000
0100
1000
1100
,
0000
1000
0100
0010
0100
1000
0100
0010
,
0100
1000
0001
0100
0001
0010
0100
0010
,
0001
0100
0010
0100
0001
0100
0010
0110
,
0000
1010
0000
0101
0000
0011
0000
1100
,
0000
0101
0001
0100
0010
1000
0100
0010
,
0001
0010
0100
1000
0010
0100
0001
1000
,
0000
0000
0000
2002
0000
0000
0000
0000
0000
3003
M00M
0000
0001
0000
0000
1000
0000
0000
0100
0000
0000
0010
0000
0000
,
0001
1000
1001
0110
1001
1001
0002
0013
,
0002
0103
0002
1003
0002
0103
0002
0013
,
0002
0103
0002
1003
0001
1001
2000
3100
,
2000
3001
2000
3010
2000
3001
2000
3100
,
2000
3001
2000
3010
0100
0110
0200
0310
,
0200
1300
0200
0310
0200
0301
0200
0310
,
0200
1300
0200
0310
0100
0110
0020
1030
,
0020
0130
0020
0031
0020
0130
0020
1030
,
0020
0130
0110
0220
0000
0000
0000
0000
,
0000
0000
0000
0000
,
0000
0000
0000
0000
,
0000
0330
0000
0000
0000
0000
0000
0000
;

//---------------dance-single - GRC-009----------------
#NOTES:
     dance-single:
     GRC-009:
     Beginner:
     2:
     0.168,0.253,0.011,0.321,0.000: // measure 1
0000
0000
2000
0000
,  // measure 2
0000
0000
0000
0000
0000
3000
0000
0000
0001
0000
0100
0000
0002
0000
0000
0000
,  // measure 3
0000
0003
0200
0000
0000
0000
0000
0300
,  // measure 4
0010
0000
0000
0000
,  // measure 5
0000
0000
0000
0000
,  // measure 6
1000
0000
0000
0000
,  // measure 7
0000
0000
0000
0000
,  // measure 8
0100
0000
0000
0000
,  // measure 9
0000
0000
0000
0000
,  // measure 10
1000
0000
0000
0000
,  // measure 11
0000
0000
0000
0000
,  // measure 12
0000
0000
0020
0000
0000
0030
2000
0000
,  // measure 13
0000
3000
0002
0000
0000
0000
0000
0000
,  // measure 14
0000
0003
0200
0000
0000
0300
0002
0000
,  // measure 15
0000
0003
2000
3000
0001
0000
0100
0000
,  // measure 16
0001
0000
0000
0000
0000
0000
0000
0100
,  // measure 17
0100
0000
0000
0000
,  // measure 18
0010
0000
0000
0000
0000
0000
0000
0100
,  // measure 19
0100
0000
0000
0000
,  // measure 20
0200
0000
0000
0000
0000
0300
0000
0000
,  // measure 21
0002
0000
0000
0000
0000
0000
0000
0003
,  // measure 22
2000
0000
0000
0000
,  // measure 23
0000
0000
0000
0000
0000
3000
0000
0000
,  // measure 24
1000
0000
0000
0000
0000
0000
0000
0010
,  // measure 25
0010
0000
0000
0000
,  // measure 26
1000
0000
0000
0000
0000
0000
0000
0001
,  // measure 27
0001
0000
0000
0000
,  // measure 28
0001
0000
0000
0000
,  // measure 29
2000
0000
0000
0000
,  // measure 30
3020
0000
0000
0000
,  // measure 31
0000
0000
0000
0000
0000
0000
0000
0030
,  // measure 32
1000
0000
0000
0000
,  // measure 33
0010
0000
0100
0000
,  // measure 34
0010
0000
0000
0100
,  // measure 35
0000
0000
0002
0000
,  // measure 36
0003
0000
0010
0000
,  // measure 37
0001
0000
0010
0000
,  // measure 38
0100
0000
0000
0200
0000
0000
0300
0000
,  // measure 39
0000
0110
0000
0000
0000
0000
0000
0000
,  // measure 40
0000
0000
0000
0000
,  // measure 41
0000
2000
0000
3000
0000
0000
0000
0000
,  // measure 42
0000
0000
0000
0000
0000
0001
0000
1000
,  // measure 43
0000
0020
0000
0030
2000
0000
0000
0000
,  // measure 44
3000
0010
0000
0000
0000
0000
0000
1000
,  // measure 45
0000
0002
0000
0003
0100
0000
0000
0020
,  // measure 46
0000
0000
0000
0000
0000
0000
0000
0030
,  // measure 47
0000
0200
0000
0000
0000
0000
0300
0001
,  // measure 48
0000
1000
0000
0000
0000
0000
0000
0100
,  // measure 49
0000
0002
0000
0000
0000
0000
0003
0100
,  // measure 50
0000
1000
0000
0000
0000
0000
0000
0100
,  // measure 51
0000
0010
0000
0000
0000
0000
0000
0000
,  // measure 52
0000
0001
0000
0000
0000
0000
0000
0000
,  // measure 53
0000
1000
0000
0000
0000
0000
0000
0000
,  // measure 54
0000
0010
0020
0000
0030
0000
0200
0000
,  // measure 55
0000
0000
0000
0000
,  // measure 56
0000
0300
0000
0000
0000
0000
0002
0000
,  // measure 57
0000
0000
0000
0000
,  // measure 58
0000
0003
0000
0000
0000
0000
0020
0000
,  // measure 59
0000
0000
0000
0000
,  // measure 60
0000
0030
0000
0000
0000
0000
0200
0000
,  // measure 61
0000
0000
0000
0000
,  // measure 62
0300
0000
1000
2000
0000
0000
0000
0000
,  // measure 63
0000
0000
0000
0000
,  // measure 64
0000
0000
0000
0000
,  // measure 65
0000
0000
0000
0000
,  // measure 66
0000
3000
0000
0000
0000
0000
0000
0000
;
