#TITLE:亡き王女の為のセプテット ~ Ascending Into Naught;
#SUBTITLE:闡提宗祀 ~ Offering to The Sukhavati;
#ARTIST:Demetori;
#TITLETRANSLIT:Ascending Into Naught;
#SUBTITLETRANSLIT:Sendaisoushi ~ Offering to The Sukhavati;
#ARTISTTRANSLIT:Demetori;
#GENRE:Touhou;
#CREDIT:Ophi (for Ogg file) & Itsugo15 (Me);
#BANNER:Ascending Into Naught-bn.png;
#BACKGROUND:Ascending Into Naught-bg.png;
#LYRICSPATH:Ascending Into Naught.lrc;
#CDTITLE:Itsugo15 SimifileS.png;
#MUSIC:Ascending Into Naught.ogg;
#OFFSET:-0.196;
#SAMPLESTART:87.189;
#SAMPLELENGTH:30.000;
#SELECTABLE:YES;
#LISTSORT:;
#DISPLAYBPM:*;
#BPMS:0.000=77.414,16.000=154.827,103.000=163.394,104.000=154.991,140.000=77.495,156.000=78.675,157.000=154.991,171.000=154.412,172.000=154.991,176.000=152.701,177.000=154.991,183.000=156.161,184.000=154.991,192.000=155.574,193.000=154.991,211.000=155.574,212.000=154.991,224.000=155.574,226.000=154.991,228.000=155.574,229.000=154.991,252.000=153.837,253.000=154.991,267.000=156.161,268.000=154.991,336.000=159.783,337.000=154.991,345.000=154.827;
#STOPS:;
#TICKCOUNT:0.000=6;
#BGCHANGES:0.000=Ascending Into Naught-bg8.jpg=1.000=1=1=0,
16.000=Ascending Into Naught-bg2.jpg=1.000=1=1=0,
32.000=Ascending Into Naught-bg4.jpg=1.000=1=1=0,
54.000=Ascending Into Naught-bg5.jpg=1.000=1=1=0,
87.000=Ascending Into Naught-bg6.jpg=1.000=1=1=0,
102.500=Ascending Into Naught-bg1.jpg=1.000=0=1=0,
120.000=Ascending Into Naught-bg10.jpg=1.000=1=1=0,
138.000=Ascending Into Naught-bg17.jpg=1.000=0=1=0,
138.750=Ascending Into Naught-bg11.jpg=1.000=0=1=0,
139.500=Ascending Into Naught-bg19.jpg=1.000=0=1=0,
140.500=Ascending Into Naught-bg15.jpg=1.000=1=1=0,
157.000=Ascending Into Naught-bg1.jpg=1.000=0=1=0,
157.250=Ascending Into Naught-bg10.jpg=1.000=0=1=0,
157.500=Ascending Into Naught-bg11.jpg=1.000=0=1=0,
157.750=Ascending Into Naught-bg12.jpg=1.000=0=1=0,
158.000=Ascending Into Naught-bg13.jpg=1.000=0=1=0,
158.250=Ascending Into Naught-bg14.jpg=1.000=0=1=0,
158.500=Ascending Into Naught-bg15.jpg=1.000=0=1=0,
158.750=Ascending Into Naught-bg16.jpg=1.000=0=1=0,
159.000=Ascending Into Naught-bg17.jpg=1.000=0=1=0,
159.250=Ascending Into Naught-bg18.jpg=1.000=0=1=0,
159.500=Ascending Into Naught-bg19.jpg=1.000=0=1=0,
159.750=Ascending Into Naught-bg2.jpg=1.000=0=1=0,
160.000=Ascending Into Naught-bg3.jpg=1.000=0=1=0,
160.250=Ascending Into Naught-bg4.jpg=1.000=0=1=0,
160.500=Ascending Into Naught-bg5.jpg=1.000=0=1=0,
160.750=Ascending Into Naught-bg6.jpg=1.000=0=1=0,
161.000=Ascending Into Naught-bg9.jpg=1.000=0=1=0,
176.000=Ascending Into Naught-bg18.jpg=1.000=1=1=0,
193.000=Ascending Into Naught-bg12.jpg=1.000=1=1=0,
208.000=Ascending Into Naught-bg3.jpg=1.000=1=1=0,
225.000=Ascending Into Naught-bg13.jpg=1.000=1=1=0,
257.000=Ascending Into Naught-bg14.jpg=1.000=1=1=0,
293.000=Ascending Into Naught-bg16.jpg=1.000=1=1=0,
325.000=Ascending Into Naught-bg7.jpg=1.000=1=1=0,
344.750=Ascending Into Naught-bg.png=1.000=0=1=0,
99999=-nosongbg-=1.000=0=0=0 // don't automatically add -songbackground-
;
#KEYSOUNDS:;
#ATTACKS:;

//---------------dance-single - Medium Itsugo15----------------
#NOTES:
     dance-single:
     Medium Itsugo15:
     Medium:
     8:
     0.498,0.526,0.285,0.420,0.078:
2002
0000
0000
0000
0000
0000
0000
3003
,
2002
0000
0000
3003
2002
0000
0000
3003
,
1001
0000
0001
0000
0100
0100
0000
0000
0010
0000
1000
0000
0001
0000
0010
0000
,
0200
0000
0000
0000
0010
0000
0000
0000
0320
0000
0000
0000
0100
0000
0000
0030
,
0110
0010
0001
1000
,
1001
1000
0010
0100
,
0110
0010
1000
0100
,
1100
0100
0010
0001
,
0011
0100
1000
0001
,
1001
0001
0100
0010
,
0110
0100
0001
0010
,
0011
0010
0100
1000
,
2200
3300
0100
0220
,
0000
0000
0000
0030
0020
0300
0200
0330
,
0110
0000
0010
0000
0001
0010
0001
0000
,
1000
0010
0100
0010
,
1000
0000
0001
1000
0001
1000
0001
0010
,
0200
0000
0000
2300
0000
0000
3020
0000
0000
0230
0000
0300
,
0110
0000
0010
0000
1000
0010
1000
0000
,
0001
0010
0200
0010
,
2300
0000
0001
0000
0100
0000
0000
0010
,
0000
0000
0010
0000
3000
0010
0000
0000
0010
0000
0000
0001
0000
0000
0010
0000
,
2000
0000
3000
1001
0000
1000
0001
0010
,
0200
0000
0300
0110
0000
0010
0001
1000
,
0200
0310
0020
0031
,
0002
0000
1003
0000
0001
0001
0000
0000
,
1100
0000
0000
0100
0000
0010
0000
0001
,
0001
0000
0000
0010
0000
0100
0000
1000
,
1000
0000
0000
0010
0000
0000
0001
0000
0010
0000
0000
1000
0000
0000
0001
0000
,
0100
0101
0000
1001
0000
1000
0100
0000
,
1100
0000
0000
1000
0000
0010
0000
0100
,
0100
0000
0000
0001
0000
1000
0000
0100
,
0100
0000
0000
0010
0000
0000
0001
0000
0100
0000
0000
0001
0000
0000
0010
0000
,
0011
0000
0000
1001
0000
0000
1000
0200
,
0000
0000
0000
0000
0000
0000
0000
0000
0010
0000
0000
0001
0000
0000
1300
0000
,
0000
0000
0000
0000
0100
0000
1000
0000
0020
0000
0000
0000
0030
0000
1000
0000
0010
0000
0000
0100
0000
0000
0002
0000
0000
0000
0000
0000
0000
0000
0000
0000
,
0000
0000
0003
0000
0100
0000
0010
0000
2000
0000
0000
0000
3000
0000
0010
0000
1000
0000
0000
0001
0000
0000
0020
0000
0000
0000
0000
0000
0000
0000
0000
0000
,
0000
0000
0030
0000
0001
0000
0010
0000
0200
0000
0000
0000
0300
0000
1000
0000
0100
0000
0000
1000
0000
0000
0002
0000
0000
0000
0000
0000
0000
0000
0000
0000
,
0000
0003
1000
0010
0100
0001
1000
0200
0000
0000
0000
0000
0020
0000
0000
0000
,
0000
0330
2MM2
0000
0000
0000
0000
0000
,
0000
3003
1001
0000
0001
0000
0010
0100
,
1000
0000
0001
0000
0100
0000
0010
1000
,
0100
0000
0010
0000
0001
0000
0100
0010
,
1000
0000
0100
0000
0010
0000
0001
0100
,
0010
0000
1000
0100
0010
0000
0001
0010
,
0100
0000
1000
0010
0100
0001
1000
0100
,
0010
0001
0010
0001
1000
0020
0000
0000
,
0000
0230
0001
0010
,
1000
0000
0310
0000
1000
0000
0100
0010
,
0001
0000
1000
0000
0010
0000
0100
0001
,
0010
0000
0100
0000
1000
0000
0010
0100
,
0001
0000
0010
0000
0100
0000
1000
0010
,
0100
0000
0001
0010
0100
0000
1000
0100
,
0010
0000
0001
0100
0010
1000
0001
0010
,
0100
1000
0100
1000
0001
0200
0000
0000
,
0000
0000
0320
0000
2030
0000
3100
0010
,
0001
0010
0100
0000
1000
0000
0100
1000
,
0100
1000
0200
0000
0320
0000
0031
1000
,
0001
0100
0010
1000
0100
0010
0100
1000
,
0001
0010
1000
0010
0001
0100
0010
0000
,
0110
0000
1010
1000
0001
0010
0100
0010
,
0001
1000
0100
0010
0001
0010
0100
1000
,
0002
0000
0103
0010
1000
0000
0100
0010
,
0001
2000
3020
0032
,
0203
0000
1300
0000
0001
0000
0100
0001
,
0100
0001
0200
0000
0320
0000
1030
0001
,
1000
0010
0100
0001
0010
0100
0010
0001
,
1000
1001
0011
1010
,
1100
0000
0101
0001
1000
0100
0010
0100
,
1000
0001
0010
0100
1000
0100
0010
0001
,
2000
0000
3010
0100
0001
0000
0010
0100
,
1000
0002
0203
2300
,
3020
0032
0203
0320
,
2030
3001
0010
0001
,
1000
1001
1000
0010
,
0100
0110
0010
1000
,
0100
1100
0100
0010
,
0001
0011
0100
1000
,
0001
1001
0001
0100
,
0010
0110
0100
0001
,
0010
0011
0010
0100
,
1000
0000
1100
0000
0000
1000
0000
1000
,
0000
2000
0000
0000
3010
0000
0100
0000
,
0001
0000
0101
0000
0000
0001
0000
0001
,
0000
0002
0000
0000
0000
0000
0000
0000
,
0000
2000
0000
0000
,
0000
0000
0000
3003
0000
0000
0000
0000
0000
0000
0000
0000
0000
0000
0000
0000
;

//---------------dance-single - Beginner Itsugo15----------------
#NOTES:
     dance-single:
     Beginner Itsugo15:
     Beginner:
     4:
     0.143,0.205,0.176,0.068,0.003:
0000
0000
0000
0000
,
0000
0000
0000
0000
,
1100
0000
0000
0000
,
0101
0000
0100
0000
,
0110
0000
0000
0000
,
0010
0000
0000
0000
,
1000
0000
0000
0000
,
0001
0000
0000
0000
,
1001
0000
0000
0000
,
1000
0000
0000
0000
,
0100
0000
0000
0000
,
0010
0000
0000
0000
,
0110
0000
0000
1001
,
0000
0000
0000
0000
,
0002
0000
0000
0003
,
1000
0000
0010
0000
,
0200
0000
0000
0000
,
0300
0000
0010
0000
,
2000
0000
0000
3000
,
0001
0000
0010
0000
,
0200
0000
0000
0000
,
0000
0000
0300
1000
,
0001
0000
0000
0100
0000
0000
0001
0000
,
1000
0000
0000
0100
0000
0000
1000
0000
,
0001
0000
0100
0000
,
0010
0000
1000
0000
,
1010
0000
0000
0000
,
1001
0000
0000
0000
,
0011
0000
0001
0000
,
2000
0000
3000
0000
,
0101
0000
0000
0000
,
1001
0000
0000
0000
,
1100
0000
1000
0000
,
0001
0000
0000
0100
0000
0000
0000
0201
,
0000
0000
0000
0000
0000
0000
0000
0000
0001
0000
0000
0001
0000
0000
0001
0000
,
0300
0000
0000
0000
,
0000
0000
0000
0000
,
0000
0000
0000
0000
,
0000
0000
0000
0000
,
0000
2000
0000
0000
,
0000
3100
0000
0000
,
0000
0010
0000
0000
,
0000
0001
0000
0000
,
0000
1000
0000
0000
,
0000
1001
0000
0000
,
0000
0001
0000
0000
,
0000
0100
0000
0000
,
0000
0010
0000
0000
,
0000
0110
0000
0000
,
0000
0010
0000
0000
,
0000
1000
0000
0000
,
0000
0001
0000
0000
,
0000
1001
0000
0000
,
0000
1000
0000
0000
,
0000
0100
0000
0000
,
0000
0010
0000
0000
,
0000
0110
0000
0010
,
0000
0001
0000
1000
,
0000
0001
0000
0100
,
0000
0001
0000
1000
,
0000
1001
0000
0100
,
0000
0010
0000
0001
,
0000
1000
0000
0100
,
0000
0010
0000
0001
,
0000
0011
0000
0100
,
0000
1000
0000
0001
,
0000
1000
0000
0010
,
0000
1000
0000
0001
,
0000
1001
0000
0010
,
0000
0100
0000
1000
,
0000
0001
0000
0010
,
0000
0100
0000
0100
,
0000
0100
0000
0100
,
0000
0110
0000
0000
,
0000
0100
0000
0000
,
0000
1000
0000
0000
,
0000
0001
0000
0000
,
0000
1001
0000
0000
,
0000
0001
0000
0000
,
0000
0010
0000
0000
,
0000
0100
0000
0000
,
0000
0110
0000
0000
,
0000
1001
0000
0000
0000
0000
0000
0000
,
0000
0110
0000
0000
,
0000
2002
0000
0000
0000
0000
0003
0000
,
0000
0020
0000
0000
,
0000
3030
0000
0000
;

//---------------dance-single - Light Itsugo15----------------
#NOTES:
     dance-single:
     Light Itsugo15:
     Easy:
     6:
     0.247,0.380,0.197,0.170,0.003: // measure 1
0000
0000
0000
0000
,  // measure 2
0000
0000
0000
0000
,  // measure 3
1000
0000
1100
0000
0002
0000
0000
0003
,  // measure 4
2002
0000
0000
3003
0001
0000
1000
0000
,  // measure 5
1001
0000
1000
0000
,  // measure 6
0010
0000
1000
0000
,  // measure 7
0001
0000
1000
0000
,  // measure 8
0100
0000
0010
0000
,  // measure 9
0110
0000
0001
0000
,  // measure 10
0010
0000
0001
0000
,  // measure 11
1000
0000
0001
0000
,  // measure 12
0100
0000
0110
0000
,  // measure 13
2002
0000
3003
2002
,  // measure 14
0000
0000
0000
3003
,  // measure 15
0001
0000
1000
0000
,  // measure 16
0010
0000
0100
0000
,  // measure 17
0010
0000
1000
0000
,  // measure 18
0100
0000
0010
0010
,  // measure 19
0001
0000
1000
0000
,  // measure 20
0100
0000
0010
0000
,  // measure 21
0100
0000
0000
0000
1000
0000
0000
0001
,  // measure 22
0000
0002
0000
0000
0000
0000
0003
0000
,  // measure 23
1001
0000
0000
1000
0000
0000
0000
0000
,  // measure 24
1010
0000
0000
0100
0000
0000
0001
0000
,  // measure 25
0101
0000
0010
0000
,  // measure 26
1000
0000
0001
0000
,  // measure 27
1001
0000
0000
1000
,  // measure 28
1010
0000
0010
0000
,  // measure 29
0100
0000
0001
0000
,  // measure 30
2000
0000
0000
3000
,  // measure 31
0110
0000
0000
0010
,  // measure 32
0011
0000
0100
0000
,  // measure 33
1000
0000
0100
0000
,  // measure 34
0001
0000
0000
0100
0000
0000
0000
0020
,  // measure 35
0000
0000
0000
0000
0000
0000
0000
0000
0100
0000
0000
0100
0000
0000
0200
0000
,  // measure 36
0330
2000
0000
0000
,  // measure 37
3000
0002
0000
0000
,  // measure 38
0003
0200
0000
0000
,  // measure 39
0300
0020
0000
0200
,  // measure 40
0000
0000
0000
0000
,  // measure 41
0330
1010
1000
0001
,  // measure 42
0010
0000
0100
0000
0000
0010
0000
0000
,  // measure 43
0100
1100
1000
0001
,  // measure 44
0010
0000
0100
0000
0000
0010
0000
0000
,  // measure 45
0001
0011
0001
1000
,  // measure 46
0010
0000
0100
0000
0000
0001
0000
0000
,  // measure 47
0100
0101
0010
1000
,  // measure 48
0001
0200
0000
0000
,  // measure 49
0300
0101
0001
1000
,  // measure 50
0100
0000
0010
0000
0000
0100
0000
0000
,  // measure 51
0010
0011
0001
1000
,  // measure 52
0100
0000
0010
0000
0000
0100
0000
0000
,  // measure 53
1000
1100
1000
0001
,  // measure 54
0100
0000
0010
0000
0000
1000
0000
0000
,  // measure 55
0010
1010
1000
0001
,  // measure 56
0010
0002
0000
0010
,  // measure 57
0013
0100
0000
0100
,  // measure 58
1000
0001
0000
0001
,  // measure 59
1000
0010
0010
0100
,  // measure 60
0100
0001
0100
1000
,  // measure 61
0100
0001
0000
0001
,  // measure 62
1000
0100
0000
0100
,  // measure 63
1000
0001
0000
1000
,  // measure 64
0000
2002
0000
0000
,  // measure 65
3003
0011
0000
0010
,  // measure 66
0001
1000
0000
1000
,  // measure 67
0001
0100
0100
0010
,  // measure 68
0010
1000
0010
0001
,  // measure 69
0010
1000
0000
1000
,  // measure 70
0001
0010
0000
0010
,  // measure 71
0001
1000
0000
0001
,  // measure 72
0000
2000
0000
0000
,  // measure 73
0000
0001
0000
0002
,  // measure 74
3003
1001
0000
0001
,  // measure 75
0000
0100
0000
0001
,  // measure 76
0000
1000
0000
0001
,  // measure 77
0000
0010
0000
0100
,  // measure 78
0000
0110
0000
1000
,  // measure 79
0000
0100
0000
1000
,  // measure 80
0000
0001
0000
1000
,  // measure 81
0000
0010
0000
0110
,  // measure 82
0000
0000
1001
0000
0000
1000
0000
1000
,  // measure 83
0000
2000
0000
0000
0000
0000
0000
3000
,  // measure 84
0000
0000
1001
0000
0000
0001
0000
0001
,  // measure 85
0000
0002
0000
0000
0000
0000
0000
0000
,  // measure 86
0000
2000
0000
0000
,  // measure 87
0000
3003
0000
0000
;

//---------------dance-single - Challenge Itsugo15----------------
#NOTES:
     dance-single:
     Challenge Itsugo15:
     Challenge:
     12:
     1.000,1.000,0.542,0.502,1.000:
0000
0000
0000
0000
,
0000
0000
0000
0000
,
0101
0000
0000
0000
0000
0000
1010
0000
0000
0000
0000
0000
1000
0000
0000
0002
0000
0000
0003
0000
0000
0000
0000
0000
0001
0000
1000
0000
0100
0000
1000
0000
0100
0000
0010
0000
0001
0000
0100
0000
0010
0000
1000
0000
0010
0000
0100
0000
,
0001
0000
0001
0000
0001
0000
0001
0000
0001
0000
0001
0000
0001
0000
0001
0000
0100
0000
0001
0100
0000
0001
0100
0001
0100
0001
1000
0010
0100
0000
0000
0000
,
0110
0000
0010
0100
0010
0100
0020
0000
0130
0001
0100
0010
2000
0000
3010
1000
,
0020
0030
0000
0000
1000
0000
0010
0000
1000
0000
0010
0000
2000
0000
0000
0000
3010
0000
0100
0000
0010
0000
1000
0000
0002
0000
0000
0000
1003
0000
0001
0000
,
2000
3000
0000
0000
0001
0000
1000
0000
0001
0000
1000
0000
0002
0000
0000
0000
1003
0000
0100
0000
1000
0000
0001
0000
0200
0000
0000
0000
0301
0000
0100
0000
,
0002
0003
0000
0000
0100
0000
0001
0000
0100
0000
0001
0000
0200
0000
0000
0000
0301
0000
1000
0000
0001
0000
0100
0000
0010
0000
0000
0000
0100
0000
0000
0000
,
0110
0000
0010
0100
0010
0100
0020
0000
0130
0010
0100
0001
2000
0000
3001
1000
,
0002
0003
0000
0000
1000
0000
0001
0000
1000
0000
0001
0000
2000
0000
0000
0000
3001
0000
1000
0000
0001
0000
0010
0000
0200
0000
0000
0000
0310
0000
0100
0000
,
0020
0030
0100
0010
0100
0010
0200
0000
0310
0100
0010
0001
2000
0000
3001
1000
,
0002
0003
1000
0001
1000
0001
1000
1000
0010
0010
0100
0100
0001
0001
1000
1000
,
2002
0000
0000
0000
0000
0000
0000
0000
0000
0000
0000
0000
3003
0000
0000
1000
0001
0000
0000
0000
0000
0000
0000
0000
2002
0000
0000
0000
0000
0000
0000
0000
,
0000
0000
0000
0000
0000
0000
0000
3003
2000
0000
0000
0000
3002
0000
0000
0000
,
0013
0000
0010
0000
0001
0000
1000
0100
0000
0010
0001
0000
0011
0000
0010
0001
,
1000
0000
1000
0000
0010
0000
0100
0001
0000
1000
0100
0000
1100
0000
1000
0100
,
0010
0000
0010
0000
0001
0000
1000
0001
0000
1000
0010
0000
1010
0000
1000
0010
,
0200
0301
0002
0013
0020
0130
0200
1300
,
1100
0000
1000
0000
0001
0000
0010
0001
0000
0010
0100
0000
0110
0000
0010
0001
,
1000
0000
0100
0000
0010
0000
0100
1000
0000
0001
0100
0000
0010
0000
1000
0000
,
1010
0000
1000
0000
0010
0000
0100
0000
0001
1000
0001
0010
0001
1000
0100
0000
,
00MM
0000
1100
0000
0000
0011
0000
0000
1010
0000
0000
0101
0000
0000
0110
0000
,
2002
0000
3003
2002
0000
3003
1000
0001
,
2002
0000
0000
0000
3003
0000
1001
0000
1000
0001
1000
0001
0010
0001
0010
0001
,
0011
0100
1000
0001
0010
0100
1000
0100
,
1100
0000
1000
0100
0010
0001
0010
0100
1000
0001
0100
0000
M00M
0000
0MM0
0000
,
0110
0000
0000
0000
1001
0000
0001
1000
0001
0000
0100
0000
0010
0000
1000
0000
,
1010
0000
0000
0000
0110
0000
0010
0100
0010
0000
1000
0000
0001
0000
0100
0000
,
0202
0000
0303
0100
0000
0000
0010
0000
0220
0000
0330
0100
0000
0000
0001
0000
,
0101
0001
1001
1000
1100
0010
0001
1000
,
1001
0000
0000
0000
1001
0000
1000
0001
1000
0000
0100
0000
0010
0000
0001
0000
,
0011
0000
0000
0000
0110
0000
0100
0010
0100
0000
1000
0000
0001
0000
0100
0000
,
0101
0000
0000
0101
0000
0000
1001
0000
1100
0000
0000
1100
0000
0000
0110
0000
,
0010
0100
0010
0100
0010
0000
0100
0010
0100
0010
0100
0000
0110
0000
2002
0000
,
0000
0000
0000
0000
3003
0000
0000
0001
1000
0000
0000
0000
0000
0000
0000
0000
1001
0000
0000
0000
0000
0000
0110
0000
0000
0000
0000
0000
2002
0000
0000
0000
,
3003
0000
0000
0000
1000
0000
0100
0000
0020
0000
0000
0000
0030
0000
0001
0000
0011
0000
0000
0001
0000
0000
2000
0000
0000
0000
3010
0000
1000
0000
0001
0000
,
0000
0000
0001
0000
1000
0000
0010
0000
0200
0000
0000
0000
0300
0000
0010
0000
1010
0000
0000
1000
0000
0000
0200
0000
0000
0300
0001
0000
0100
0000
1000
0000
,
0000
0000
1000
0000
0100
0000
0010
0000
0002
0000
0000
0000
0003
0000
1000
0000
1001
0000
0000
0001
0000
0000
0200
0000
0000
0300
0010
0000
1000
0000
0100
0000
,
0000
0010
0001
1000
0100
0010
0100
2000
0000
0000
0000
0000
0002
0000
0000
0000
,
0000
0000
0000
3003
1000
0010
1000
0100
0010
0001
0100
0001
0010
0100
1000
0100
,
0010
0001
0010
0100
1000
0000
0100
1000
0100
1000
0100
0000
1000
0001
0100
0001
,
1000
0000
0100
0010
0001
0000
0010
0001
0010
0001
0010
0000
0001
1000
0010
1000
,
0001
0000
0010
0001
0100
0000
0100
0001
0100
0001
0100
0000
0010
1000
0100
1000
,
0010
0000
0100
0001
1000
0000
0001
1000
0001
1000
0001
0000
0010
0100
1000
0010
,
0100
0000
0001
0100
0010
0000
0100
0010
0100
0010
0100
0000
0010
1000
0100
0010
,
0001
0000
0010
0100
1000
0000
0100
1000
0100
1000
0100
0000
1000
0001
0100
0010
,
1000
0001
1001
0001
0010
0022
0033
0001
,
1000
0100
2200
0000
0010
0000
0301
0000
,
3010
0000
0100
0000
0001
0000
0100
0001
0100
0001
0100
0000
0010
1000
0010
0100
,
0001
0000
0001
1000
0100
0000
1000
0100
1000
0100
1000
0000
0100
0010
0001
1000
,
0100
0000
0010
0001
1000
0000
0001
1000
0001
1000
0001
0000
0100
0010
1000
0100
,
0010
0000
0001
1000
0100
0000
1000
0100
1000
0100
1000
0000
0100
0010
0001
1000
,
0010
0000
0100
0001
1000
0000
0001
1000
0001
1000
0001
0000
1000
0100
0010
0100
,
1000
0000
0001
0100
0010
0000
1000
0001
0010
0100
1000
0000
0100
0010
0001
0100
,
0010
1000
1010
1000
0001
2002
3003
0001
,
0010
0000
0100
0000
1000
0010
1000
0100
0010
0001
0100
0001
0010
0100
1000
0100
,
0010
0100
1000
0001
0100
0000
0010
0000
1000
0000
0100
0000
0010
0001
0010
0001
,
1000
0000
0001
0000
1000
0000
0001
0000
1000
0000
0000
0010
0000
0000
0001
0000
1000
0000
0000
0100
0000
0000
0001
0000
0100
0000
0010
0000
1000
0000
0100
0000
,
1000
0010
0100
0001
0010
0001
0010
0001
1000
0001
1000
0001
1000
0010
1000
0010
,
0100
0010
0100
0010
0100
0001
0100
0010
1000
0000
0100
0000
1000
0010
0100
0001
,
0010
0000
0010
0100
1000
0100
0010
0001
0100
0010
1000
0010
0100
0001
0010
0001
,
1000
0001
0100
0001
1000
0100
0010
0001
0010
0100
1000
0001
0010
0100
1000
0001
,
0200
0000
0000
0000
0310
1000
0010
0100
0010
1000
0010
0000
0100
0001
1000
0100
,
0010
0000
0000
0001
0000
0000
0010
0000
0100
0000
1000
0000
0100
0000
0010
0000
0001
0000
1000
0000
0010
0000
0100
0000
,
0001
0000
0000
0000
0100
0000
0000
0000
0010
0000
0000
0000
1000
0000
0000
0000
0000
0000
0010
0000
0000
0000
0000
0000
0100
0000
0000
0000
0000
0000
0001
0000
0000
0000
0000
0000
0100
0000
0000
0001
0000
0000
0100
0000
0000
0001
0000
0000
,
1000
0000
0001
0000
1000
0000
0001
0000
1000
0000
0000
0100
0000
0000
0001
0000
1000
0000
0000
0010
0000
0000
0001
0000
0010
0000
0100
0000
1000
0000
0100
0000
,
1000
0100
0010
0001
0100
0001
0010
0100
1000
0010
0100
0001
1000
0010
1000
0010
,
0100
0001
0100
0001
1000
0100
1000
0001
1000
0000
0010
0000
0100
0001
1000
0100
,
0010
0000
0001
0010
0100
0010
0001
1000
0010
0100
0001
0100
0010
1000
0100
1000
,
0001
1000
0010
1000
0001
0010
0100
1000
0100
0010
0001
1000
0100
0010
0001
1000
,
0200
0000
0000
0000
0000
0000
0000
0000
0000
0000
0000
0000
0310
0000
0000
0001
0000
0000
1000
0000
0000
0001
0000
0000
0010
0000
0000
0001
0000
0000
1000
0000
0000
0000
0000
0000
0100
0000
0000
0000
0010
0000
0000
0000
0001
0000
0000
0000
,
1000
0010
1010
1000
0001
1000
0001
1000
,
0001
0000
1000
0000
0001
0000
1000
0000
0001
0000
1000
0000
0001
0010
0001
0100
,
0010
0000
1000
0000
0100
0000
1000
0000
0020
0030
0000
0000
0100
0000
0010
0000
0100
0000
0010
0000
0100
0000
0000
0000
0010
0000
1000
0000
0010
0000
0100
0000
,
0002
0000
0000
0000
0103
0000
0001
0000
0200
0300
0000
0000
0001
0000
0100
0000
0001
0000
0100
0000
0001
0000
0000
0000
0100
0000
0010
0000
0100
0000
0001
0000
,
2000
0000
0000
0000
3001
0000
1000
0000
0002
0003
0000
0000
1000
0000
0001
0000
1000
0000
0001
0000
1000
0000
0000
0000
0001
0000
0010
0000
0001
0000
1000
0000
,
0020
0000
0000
0000
1030
0000
0010
0000
2000
3000
0000
0000
0010
0000
1000
0000
0010
0000
1000
0000
0010
0000
0000
0000
1000
0000
0001
0000
1000
0000
0010
0000
,
0100
0000
0010
0000
0110
0000
0100
0010
0100
0010
0100
0000
0010
0100
0010
1000
,
0002
0000
0000
0000
1003
0000
0001
0000
2000
3000
0000
0000
0001
0000
1000
0000
0001
0000
1000
0000
0001
0000
0000
0000
1000
0000
0001
0000
1000
0000
0100
0000
,
0010
0000
0000
0000
0000
0000
0010
0000
0000
0001
0000
0000
1000
0000
0000
0000
0010
0000
0000
0000
0100
0000
0000
0000
0001
0000
0000
0000
0100
0000
0000
0000
0010
0000
0000
0000
1000
0000
0000
0000
0100
0000
0000
0000
0010
0000
0000
0000
,
0001
0000
0000
0000
0010
0000
0000
0000
0100
0000
0000
0000
2000
0000
0000
0000
0000
0000
0000
0000
0000
0000
0000
0000
0000
0000
0000
0000
0000
0000
3100
0000
0000
1000
0000
0000
0100
0000
0000
1000
0000
0000
0001
0000
0000
1000
0000
0000
,
0001
0100
0001
0100
0002
0000
0200
0003
0301
0000
0101
0000
0000
0000
0110
0000
,
0000
0000
0101
0000
0000
0000
1001
0000
1000
0000
0100
0000
0010
0000
0100
1000
,
0001
1000
0100
0000
2000
0000
0200
3000
1300
0000
1100
0000
0000
0000
0110
0000
,
0000
1100
1001
1100
1001
1100
1001
1100
,
1001
1100
1001
0101
1001
0101
1001
0101
,
1001
0110
0000
0000
0000
0000
0000
0000
;

//---------------dance-single - Heavy Itsugo15----------------
#NOTES:
     dance-single:
     Heavy Itsugo15:
     Hard:
     10:
     0.747,0.818,0.332,0.292,0.417:
0000
0000
0000
0000
0000
0000
0000
0000
0000
0000
0000
0000
0000
0000
0001
1000
,
2200
0000
0000
0000
0000
3300
1000
0001
0022
0000
0000
0000
0033
0010
0100
0000
,
1100
0000
0101
0000
0100
0010
0000
0000
2000
0000
3200
0000
0320
0000
0032
0000
,
2003
0000
0001
0000
0001
0000
3001
0000
1000
0000
0001
0000
0100
0010
1000
0000
,
1010
1000
0001
0010
0100
0010
0001
1000
,
0010
0000
0100
0001
0010
0100
1000
0010
,
0100
0000
0001
0010
0100
0001
0100
1000
,
0010
0100
0001
1000
1001
0000
0110
0000
,
1001
0001
1000
0100
0010
0100
1000
0001
,
0100
0000
0010
1000
0100
0010
0001
0100
,
0010
0000
1000
0100
0010
1000
0010
0001
,
0100
0000
0010
0000
1000
0000
0001
0000
0010
0001
0010
0000
0100
1000
0100
0000
,
2002
0000
0000
0000
0000
0000
0000
0000
0000
0000
0000
0000
3003
0000
0000
1000
0001
0000
0000
0000
0000
0000
0000
0000
2002
0000
0000
0000
0000
0000
0000
0000
,
0000
0000
0000
0003
0002
3000
2000
3003
,
0001
0000
0100
0000
0010
0000
1000
0010
1000
0000
0010
0000
0100
0000
0001
0000
,
2000
0000
3100
0010
0002
0000
0013
0100
,
1000
1000
0010
0100
0001
0001
0100
0010
,
1000
0001
1001
0000
0101
0000
1010
0000
,
0110
0000
0010
0000
0100
0000
0001
0100
0001
0000
0100
0000
0010
0000
1000
0000
,
0200
0000
0310
0001
0200
0000
0310
1000
,
0100
0010
0001
0100
1000
0100
0001
1000
,
0000
0000
1001
0000
0000
1010
0000
0000
0101
0000
0000
1001
0000
0000
1001
0000
,
2001
0000
0000
3100
0000
0100
1000
0001
,
1002
0000
0000
0000
0000
0000
0103
0000
0001
1000
0001
0000
1000
0000
0001
1000
,
0001
0001
0001
1000
0001
0001
0001
1000
,
1001
0000
0001
1000
0001
1000
0001
1000
0001
1000
0001
0000
0000
0000
0000
0000
,
1001
0000
0000
0000
0001
0000
1000
0010
1000
0000
0100
0000
0010
0000
0001
0000
,
0010
0000
0000
0000
0011
0000
0001
0010
0100
0000
1000
0000
0001
0000
0100
0000
,
0010
0000
0000
1000
0000
0000
0100
0000
0010
0000
0000
0001
0000
0000
1000
0000
,
0010
1010
0000
0101
0000
0001
1000
0000
,
1001
0000
0000
0000
1000
0000
0001
0100
0001
0000
0010
0000
0100
0000
1000
0000
,
0100
0000
0000
0000
1100
0000
1000
0100
0010
0000
0001
0000
1000
0000
0010
0000
,
0100
0000
0000
0001
0000
0000
0010
0000
0100
0000
0000
1000
0000
0000
0001
0000
,
1000
0001
1000
0001
1000
0000
0001
1000
0001
1000
0001
0000
1000
0000
2002
0000
,
0000
0000
3003
0000
0000
0000
0000
0001
1000
0000
0000
0000
0000
0000
0000
0000
2002
0000
0000
0000
0000
0000
0010
0000
0000
0000
0000
0000
3103
0000
0000
0000
,
0000
0000
0000
0000
1000
0010
0100
0001
0000
0100
0010
1000
0000
0100
0010
0001
,
0000
0010
0100
1000
0100
0010
0001
1000
0000
0010
0100
0001
0000
0010
0100
1000
,
0000
0001
1000
0010
0100
0001
1000
0100
0010
0001
0010
0100
1000
0000
0100
1000
,
0100
0000
1000
0010
0100
0001
1000
0200
0000
0000
0000
0000
0020
0000
0000
0000
,
0000
0002
0000
0000
,
0000
0000
1333
0000
1000
0010
0100
0001
,
0010
1000
0010
0000
0001
1000
0000
1000
,
0010
0100
0001
0000
0100
0010
1000
0100
,
0001
0100
1000
0000
0001
0100
0000
0010
,
1000
0001
1001
0000
0001
0010
0001
1000
,
0001
0100
0010
0000
1000
0001
0000
0001
,
1000
0010
0100
0001
1000
0200
0000
0010
,
0010
0320
0001
1000
,
0100
0000
0031
0000
0001
0100
0010
1000
,
0100
0001
0100
0000
1000
0001
0000
0001
,
0100
0010
1000
0000
0010
0100
0001
0010
,
1000
0010
0001
0000
1000
0010
0000
0100
,
0001
1000
1001
0000
1000
0100
1000
0001
,
1000
0010
0100
0000
0001
1000
0000
1000
,
0001
0100
0010
1000
0001
0020
0000
0100
,
0100
0000
0130
1000
0100
0010
0100
0001
,
0100
0000
0010
0000
0001
0000
1000
0000
0001
0000
0100
0000
0001
0100
0001
0100
,
0001
0100
0001
0100
0001
0000
0100
0010
1000
0000
0100
0010
0001
0000
0001
0000
,
0100
0000
0010
1000
0001
0000
0010
0000
0100
0000
0010
0001
1000
0000
0001
1000
,
0001
0000
1000
0001
1000
0001
1000
0001
1000
0000
0100
0000
0010
0001
0010
0001
,
0010
0000
0100
0000
1000
0100
1000
0000
0100
0000
1000
0100
1000
0000
0100
0000
,
1000
0100
1000
0000
0100
1000
0001
0100
0001
1000
0100
0010
0001
0010
0100
1000
,
0001
0000
0100
0000
0001
0100
0000
0001
0100
0000
0010
0000
1000
0010
0100
0010
,
1000
0000
0000
0001
0000
0000
1000
0000
0001
0000
1000
0000
0001
0000
1000
0000
0001
0000
1000
0000
0001
0000
1000
0000
,
0001
0000
0000
0000
1000
0000
0000
0000
0001
0000
0000
0000
1000
0000
0000
0000
0000
0000
0001
0000
0000
0000
0000
0000
1000
0000
0000
0000
0000
0000
0010
0000
0000
0000
0000
0000
1000
0000
0000
0010
0000
0000
1000
0000
0000
0010
0000
0000
,
1000
0010
1000
0010
1000
0000
0010
0100
0001
0000
0010
0100
1000
0000
1000
0000
,
0010
0000
0100
0001
1000
0000
0100
0000
0010
0000
0100
1000
0001
0000
1000
0001
,
1000
0001
1001
0000
0110
0000
0110
0000
,
1001
0000
1000
0000
0001
0010
0001
0000
0010
0000
0001
0010
0001
0000
0010
0000
,
0001
0010
0001
0000
0010
0001
1000
0010
1000
0001
0010
0100
1000
0100
0010
0001
,
1000
0000
0010
0000
1000
0010
0000
1000
0010
0000
0100
0000
0001
0100
0010
0100
,
0001
1000
0001
0010
0100
1000
0100
0010
,
0001
0000
1000
0000
0010
0000
0100
0000
0001
0000
0100
0000
0010
1000
0001
1000
,
0100
0010
0001
1000
0100
0000
1000
0000
0001
0000
0010
0000
0100
0000
0010
0000
,
0001
1000
2002
3003
1000
0001
0010
0100
,
1000
0010
2020
3030
1000
0010
0100
0001
,
0010
0100
1000
0001
0100
0001
1000
0100
,
0010
0001
0022
0033
0001
1000
0010
0100
,
0001
1000
2002
3003
0001
1000
0100
0010
,
0001
0100
0010
1000
0100
0010
0001
0100
,
0010
0000
1000
0000
0010
0000
0100
0000
0001
0000
1000
0000
0001
1000
0001
1000
,
0001
1000
0001
1000
0001
0000
1001
0000
1000
0000
1001
0000
0000
0000
1001
0000
,
0000
0000
2002
0000
3003
0000
0001
0000
1000
0000
0010
0000
0100
0000
0001
1000
,
0000
1000
0001
0000
0010
0000
0001
0000
1000
0000
1001
0000
0000
0000
1001
0000
,
0000
1002
0000
1000
1000
1000
1000
1000
,
1000
1003
2001
0001
0001
0001
0001
0001
,
3001
1001
0000
0000
0000
0000
0000
0000
;
