#TITLE:アーティフィシャル・チルドレン;
#SUBTITLE:東方萃翠酒酔;
#ARTIST:IOSYS;
#TITLETRANSLIT:Artificial Children;
#SUBTITLETRANSLIT:Touhou Suisuisuusuu;
#ARTISTTRANSLIT:IOSYS;
#GENRE:Touhou Mahouyou ~ Magical Dance Phantasm;
#CREDIT:Itsugo & Gpop;
#BANNER:Artificial Children - bn.png;
#BACKGROUND:Artificial Children - bg.png;
#LYRICSPATH:Artificial Children.lrc;
#CDTITLE:Collab.png;
#MUSIC:Artificial Children.ogg;
#OFFSET:0.999;
#SAMPLESTART:109.910;
#SAMPLELENGTH:13.241;
#SELECTABLE:YES;
#LISTSORT:;
#DISPLAYBPM:72.000:145.000;
#BPMS:0.000=72.500,20.000=145.000,84.000=72.500,100.500=78.000,101.000=85.000,102.000=95.000,103.000=105.000,103.500=108.000,104.000=115.000,104.500=122.000,105.000=130.000,106.000=145.000,107.000=160.000,107.500=170.000,108.000=180.000,109.000=200.000,110.000=210.000,111.000=225.000,112.000=240.000,114.000=245.000,114.500=490.000,116.000=145.000,180.000=72.500,196.000=145.000;
#STOPS:114.500=0.184
;
#TICKCOUNT:0.000=6;
#BGCHANGES:3.875=Artificial Children.avi=1.000=1=0=1,
99999=-nosongbg-=1.000=0=0=0 // don't automatically add -songbackground-
;
#KEYSOUNDS:;
#ATTACKS:;

//---------------dance-single - Gpop----------------
#NOTES:
     dance-single:
     Gpop:
     Challenge:
     9:
     0.661,0.780,0.343,0.378,0.374: // measure 1
0000
0000
0000
0000
,  // measure 2
0000
0000
0000
0000
,  // measure 3
0000
0000
0000
0000
,  // measure 4
0000
0000
0000
0000
,  // measure 5
0000
0000
0000
0000
,  // measure 6
1001
0000
0001
0010
0001
0000
1000
0100
1000
0000
0010
0100
0010
0000
1000
0001
,  // measure 7
1000
0000
0100
0010
0100
0000
0100
0000
0010
0000
0010
0000
0001
0000
0001
0000
,  // measure 8
1000
0000
0001
0010
0100
0000
0010
0001
1000
0000
0010
0100
0001
0000
1000
0100
,  // measure 9
0010
0000
0001
0010
0100
0000
0100
0000
1000
0000
1000
0000
0010
0000
1000
0000
,  // measure 10
1010
0000
0010
1000
0001
0000
0100
0010
1000
0000
0010
0100
0001
0000
0010
0100
,  // measure 11
1000
0000
0100
0010
0002
0000
0010
0000
0203
0000
0001
0000
0320
0000
1000
0000
,  // measure 12
0130
0000
0010
1000
0001
0000
0010
0100
1000
0000
0100
0010
0001
0000
0100
0010
,  // measure 13
1000
0000
0001
0100
0010
0000
1000
0010
0100
0000
0001
0010
0001
1000
0001
0100
,  // measure 14
0010
1000
0001
0010
0100
0100
1000
0001
,  // measure 15
000M
0100
0010
1000
0010
0010
0100
0010
,  // measure 16
00M0
1000
0100
1000
0001
0001
0010
0100
,  // measure 17
0M00
0000
0010
0000
0001
0000
1000
0000
0010
0100
0010
1000
0001
0010
0100
1000
,  // measure 18
0001
0010
0100
1000
0100
0010
0001
0010
,  // measure 19
0100
1000
0100
0010
0001
0010
0100
1000
,  // measure 20
0100
0010
0001
0100
0010
1000
0010
0100
,  // measure 21
0001
0000
0100
0000
0010
0000
1000
0000
0010
0000
0100
0001
0010
0100
1000
0001
,  // measure 22
2000
0000
0000
3000
0101
0000
0010
2002
0000
0000
3003
0000
1100
0000
0010
0202
,  // measure 23
0000
0000
0303
0000
1001
0000
0010
0000
1100
0000
0001
0000
1100
1000
0001
0100
,  // measure 24
0220
0000
0000
0330
1001
0000
1000
0202
0000
0000
0303
0000
1001
1000
0010
2020
,  // measure 25
0000
0000
3030
0000
0110
0000
0001
0000
2200
0000
0300
0000
0002
0000
0000
3003
,  // measure 26
4004
0000
0000
0000
,  // measure 27
0000
0000
0000
0000
,  // measure 28
0000
0000
0000
0000
,  // measure 29
0000
0000
0000
0000
0000
0000
0000
0000
0000
0000
3003
0000
M00M
0MM0
0000
0000
,  // measure 30
1001
0000
1000
0010
0100
0000
0001
0010
0001
0000
0100
0010
1000
0000
0001
0010
,  // measure 31
0001
0000
0100
0010
1000
0000
0001
0100
0001
0000
1000
0100
0010
0000
0001
0000
,  // measure 32
0001
0000
0010
0001
1000
0000
0010
0100
0001
0000
0010
0100
1000
0000
0100
0010
,  // measure 33
0001
0000
0100
0010
1000
0000
0010
0100
0002
0000
1000
0000
2003
0000
0100
0000
,  // measure 34
3100
0000
0010
0001
0010
0000
0100
1000
0001
0000
0100
0010
1000
0000
0010
0100
,  // measure 35
0001
0000
0010
0100
1000
0000
0100
0010
0001
0000
1000
0010
0200
0000
0001
0000
,  // measure 36
0301
0000
1000
0001
0100
0000
0010
1000
0001
0000
0010
0100
1000
0000
0100
0010
,  // measure 37
0001
0000
0100
0010
1000
0000
0001
0100
0001
0000
1000
0100
1000
0000
1000
0000
,  // measure 38
1001
0000
0001
0100
0010
0000
1000
0010
0100
0000
0001
0010
0100
0000
0010
0001
,  // measure 39
1000
0000
0010
0100
0010
0000
1000
0001
1000
0000
0010
0100
0001
0000
0010
0000
,  // measure 40
0010
0000
0100
1000
0001
0000
0100
0010
1000
0000
0001
1000
0100
0000
0010
0001
,  // measure 41
1000
0000
0001
0010
0100
0000
1000
0100
0020
0000
0001
0000
0032
0000
1000
0000
,  // measure 42
1003
0000
0010
0100
0001
0000
1000
0010
0100
0000
0001
0010
0001
0000
1000
0100
,  // measure 43
1000
0000
0001
0100
0001
0000
1000
0010
1000
0000
0001
0010
0200
0000
1000
0000
,  // measure 44
1300
0000
0001
0100
0010
0000
1000
0010
0100
0000
0001
1000
0100
0000
0010
0001
,  // measure 45
1000
0000
0010
0100
0001
0000
1000
0100
0010
0000
0001
1000
0100
0000
0010
0000
,  // measure 46
1001
0000
0000
0000
1000
0000
0100
0010
0001
0000
0000
0000
1000
0000
0000
0000
0120
0000
0000
0000
0130
0000
0000
0000
0011
0000
0000
0000
1000
0000
0000
0000
,  // measure 47
0101
0000
0000
0000
0010
0000
1000
0001
0100
0000
0000
0000
0010
0000
0000
0000
2000
0000
0000
0001
0000
0000
3001
0000
0011
0000
0000
0000
0100
0000
0000
0000
,  // measure 48
1001
0000
0010
0100
1001
0000
1000
0000
0021
0000
0031
0000
1001
0000
0100
0010
,  // measure 49
1100
0000
0000
0000
0001
0000
1000
0100
0010
0000
0000
0000
0001
0000
0000
0000
2010
0000
0000
0010
0000
0000
3010
0100
0001
0000
0000
0000
0110
0000
0000
0000
,  // measure 50
1001
1000
0010
0100
0001
0100
0010
1000
,  // measure 51
0001
0001
0010
0100
0010
0001
0100
0010
,  // measure 52
1000
1000
0001
0100
0001
0010
0100
2000
,  // measure 53
0001
0010
0100
0010
,  // measure 54
30M1
M100
010M
M100
01M0
011M
M110
011M
,  // measure 55
1001
1000
0100
0010
0001
0100
0010
2200
,  // measure 56
0300
3001
0010
0001
0100
0200
0300
0M00
,  // measure 57
1010
1000
0001
0010
0100
0100
1000
0022
,  // measure 58
0030
0103
0010
1000
0010
0010
0100
0022
,  // measure 59
0030
1003
0100
1000
0010
0010
0100
2020
,  // measure 60
3000
1030
0010
0100
0001
0001
0010
0100
,  // measure 61
1000
1000
0001
0100
0001
0010
0100
2020
,  // measure 62
0030
3001
0100
0001
000M
0100
0010
1000
,  // measure 63
1001
0001
0010
0100
0010
0001
0100
2020
,  // measure 64
3000
1030
0001
0100
0001
0002
0003
000M
,  // measure 65
1100
1000
0001
0100
0010
0010
1000
0202
,  // measure 66
0300
0013
0100
0010
0001
0001
1000
2020
,  // measure 67
0030
0000
3001
0000
0100
0000
0001
0000
0010
0000
0010
0000
0100
0000
2000
0002
,  // measure 68
3000
0103
0100
0001
0010
0010
0100
0010
,  // measure 69
0001
0001
1000
0100
1000
0010
0100
0220
,  // measure 70
0030
0301
1000
0100
0M00
1000
0001
0100
,  // measure 71
2002
0000
0000
0000
,  // measure 72
0000
0000
0000
0000
,  // measure 73
3003
0000
0000
0000
;

//---------------dance-single - Gpop----------------
#NOTES:
     dance-single:
     Gpop:
     Medium:
     4:
     0.315,0.378,0.196,0.112,0.014:
0000
0000
0000
0000
,
0000
0000
0000
0000
,
0000
0000
0000
0000
,
0000
0000
0000
0000
,
0000
0000
0000
0000
,
1001
1000
0001
0100
,
0020
0100
0100
0130
,
0001
0010
0100
1000
,
0002
0100
0100
0103
,
0010
1000
0010
0100
,
0002
0010
0010
0013
,
0100
1000
0001
0100
,
0010
1000
0100
0010
,
1001
0000
0001
0000
0100
0000
0010
1000
,
0000
0000
0001
0000
0010
0000
0100
1000
,
0000
0000
0100
0000
0010
0000
0001
1000
,
0000
1000
0100
0000
0010
0001
1000
0000
,
0001
0010
0100
1000
,
0001
0010
0100
1000
,
0001
0100
0010
1000
,
0001
0100
0010
1000
,
1001
0000
0000
0000
1000
0000
0000
1000
0000
0000
0000
0000
0001
0000
0000
0001
,
0000
0000
0100
0010
1000
0001
0100
0001
,
1001
0000
0000
0000
0001
0000
0000
0001
0000
0000
0000
0000
0100
0000
0000
0100
,
0000
0000
0010
1000
0002
0000
1003
0000
,
2002
0000
0000
0000
,
0000
0000
0000
0000
,
0000
0000
0000
0000
,
0000
0000
0000
0000
0000
3003
0000
0000
,
1001
1000
0010
0100
,
0011
0100
1010
0001
,
1100
1000
0001
0100
,
0010
1000
0200
0010
,
0310
0001
0200
0010
,
0310
1000
0001
0010
,
1100
0010
0200
0001
,
0301
1000
0010
0100
,
1001
1000
0002
1000
,
1003
0010
0101
1000
,
0011
0100
0010
1000
,
0001
0010
0200
1000
,
1300
0001
0200
0010
,
0310
1000
0001
0010
,
0100
1000
0001
0100
,
0020
0000
0030
0100
,
1001
0000
1100
0000
0001
0001
0011
0000
,
1000
0000
1100
0000
0010
0010
0101
0000
,
1000
0000
0011
0000
0100
0100
1010
0000
,
0001
0000
1100
0000
0010
0010
1001
0000
,
1100
1000
0001
0000
0100
0000
0010
0000
,
1000
0010
0100
0000
0001
0000
0010
0000
,
0100
0010
0001
0000
1000
0000
0001
0200
,
0000
0000
0000
0300
,
1000
0001
1000
0001
1000
0001
1000
0001
,
1001
0000
0100
0000
0010
0000
1000
0100
,
0000
0100
0010
0000
0001
1000
0000
0000
,
0010
0000
0100
0000
0001
0000
0010
0100
,
0000
0100
1000
0000
0001
0000
0100
0010
,
0000
0010
1000
0000
0001
0000
0010
0100
,
0000
0100
1000
0000
0001
0100
0000
0010
,
1000
0000
0001
0000
0010
0000
0100
1000
,
0000
1000
0001
0100
0000
0010
0100
0000
,
1001
0000
1000
0000
0001
0000
0100
0010
,
0000
0010
1000
0000
0001
0010
0000
0000
,
1100
0000
1000
0000
0001
0000
0100
0010
,
0000
0010
1000
0000
0001
0000
0010
0100
,
1000
0000
0001
0000
0100
0000
0010
1000
,
0000
1000
0001
0000
0100
0010
1000
0000
,
0011
0000
0010
0000
0100
0000
1000
0001
,
0000
0001
0100
0010
0000
0000
0010
0000
,
2002
0000
0000
0000
,
0000
0000
0000
0000
,
3003
0000
0000
0000
;

//---------------dance-single - Gpop----------------
#NOTES:
     dance-single:
     Gpop:
     Beginner:
     1:
     0.112,0.147,0.056,0.028,0.000:
0000
0000
0000
0000
,
0000
0000
0000
0000
,
0000
0000
0000
0000
,
0000
0000
0000
0000
,
0000
0000
0000
0000
,
1000
0000
0000
0000
,
0001
0000
0001
0000
,
0100
0000
0000
0000
,
0010
0000
0010
0000
,
1000
0000
0000
0000
,
0100
0000
0100
0000
,
0010
0000
0000
0000
,
0001
0000
1000
0000
,
1001
0000
0000
0000
,
0001
0000
0000
0000
,
0100
0000
0000
0000
,
0010
0000
0000
0000
,
1000
0000
1000
0000
,
0001
0000
0001
0000
,
0100
0000
0100
0000
,
0010
0000
0010
0000
,
0110
0000
0100
0000
,
0100
0000
0100
0000
,
0010
0000
0010
0000
,
0010
0000
0010
0000
,
1001
0000
0000
0000
,
0000
0000
0000
0000
,
0000
0000
0000
0000
,
0000
0000
0000
0000
,
1001
0000
1000
0000
,
0001
0000
0001
0000
,
0100
0000
0000
0000
,
0000
0000
0000
0000
,
0010
0000
0010
0000
,
1000
0000
1000
0000
,
0001
0000
0001
0000
,
0010
0000
0010
0000
,
0100
0000
0000
0000
,
1000
0000
1000
0000
,
0001
0000
0000
0000
,
0000
0000
0100
0000
,
0100
0000
0010
0000
,
0010
0000
1000
0000
,
0001
0000
0000
0000
,
1000
0000
0000
0000
,
2000
0000
3000
0000
,
0002
0000
0003
0000
,
0200
0000
0300
0000
,
0020
0000
0030
0000
,
1001
0000
1000
0000
,
0001
0000
0001
0000
,
0100
0000
0100
0000
,
0010
0000
0000
0000
,
0100
0000
0000
0000
,
1001
0000
1000
0000
,
0001
0000
0001
0000
,
0010
0000
0010
0000
,
0100
0000
0100
0000
,
1000
0000
1000
0000
,
0001
0000
0001
0000
,
0100
0000
0100
0000
,
0010
0000
0000
0000
,
1001
0000
1000
0000
,
0001
0000
0001
0000
,
0010
0000
0010
0000
,
0100
0000
0100
0000
,
1000
0000
1000
0000
,
0001
0000
0001
0000
,
0100
0000
0100
0000
,
0010
0000
0000
0000
,
0110
0000
0000
0000
;

//---------------dance-single - Itsugo----------------
#NOTES:
     dance-single:
     Itsugo:
     Hard:
     7:
     0.440,0.496,0.203,0.161,0.024:
0000
0000
0000
0000
,
0000
0000
0000
0000
,
0000
0000
0000
0000
,
0000
0000
0000
0000
,
0000
0000
0000
0000
,
1010
0000
0100
0010
1000
0000
0001
0100
,
0010
0000
1000
0100
0001
0100
0010
0000
,
0011
0000
0100
0010
0001
0000
1000
0100
,
0010
0000
0001
0100
1000
0100
0010
0000
,
1010
0000
0100
0001
1000
0000
0010
0100
,
0001
0000
0100
0001
0100
0010
1000
0000
,
1001
0000
0100
0010
0001
0000
0100
0010
,
1000
0000
0001
1000
0100
0010
0001
0000
,
0001
0001
1000
0010
0100
0100
0001
1000
,
0000
0100
0100
1000
0010
0010
0100
0001
,
0000
0010
0010
0001
1000
1000
0010
1000
,
0000
1000
1000
0010
0200
0000
0302
0000
,
1003
0100
0010
0001
1000
0100
0010
0001
,
1000
0100
1000
0100
0010
0001
0010
0001
,
1000
0010
1000
0010
0100
0001
0100
0001
,
1000
0010
0100
0001
1000
0010
0100
0001
,
0101
0000
0000
0000
0001
0000
0010
0100
0000
0000
0000
0000
1000
0000
0010
0100
,
0000
0000
0001
0010
1000
0100
0001
1000
,
1001
0000
0000
0000
2100
0000
0000
3001
0000
0000
0000
0000
0002
0100
0000
0103
,
0000
0110
2002
3003
,
2002
0000
0000
0000
,
0000
0000
0000
0000
,
0000
0000
0000
0000
,
0000
0000
0000
0000
0000
3003
0000
0000
,
0001
1000
0100
0010
,
1001
0010
1100
0001
,
0110
1000
0001
0010
,
0100
1000
0001
0000
0100
0010
1000
0010
,
0100
0000
0001
0000
0010
0100
1000
0100
,
0010
0001
0100
0001
1000
0010
0100
0010
,
1000
0000
0001
0000
0010
0100
0010
0001
,
1000
0001
0100
0001
1000
0100
0010
0000
,
1001
0010
0100
1000
,
1000
0010
0101
0010
,
1100
0001
1000
0010
,
0100
0001
1000
0000
0001
0010
1000
0010
,
0100
0000
1000
0000
0001
0100
1000
0100
,
0001
0100
0010
1000
0001
0010
0100
1000
,
0001
0000
0100
0000
0010
1000
0001
0000
,
0010
0000
0100
1000
0001
0100
0001
0000
,
0100
0000
0101
0000
1100
1100
1000
0001
,
1001
0000
0000
0000
0101
0000
0000
0000
0010
0000
0000
0100
0010
0000
1000
0000
,
1010
0000
1100
0000
0011
0011
0001
1000
,
1001
0000
0000
0000
0010
0000
0000
0000
0001
0000
0000
0001
0010
0000
0011
0000
,
1000
0001
1000
0001
0100
1000
0100
1000
,
0100
0001
0100
0001
1000
0010
1000
0010
,
0100
0001
1000
0100
1000
0010
0100
0002
,
0010
0000
1000
0000
0100
0000
0013
0100
,
2000
0000
0000
0000
0000
0001
0001
3001
,
0101
0000
1000
0100
1000
0010
0100
0002
,
0000
0103
0010
1000
0001
0100
0000
0000
,
1000
0100
1000
0010
0100
0001
0010
0200
,
0000
1300
0010
0100
0001
0010
0100
2000
,
0000
3100
0100
0010
0010
0001
0100
0020
,
0000
0130
0100
0001
0001
1000
0100
0010
,
0001
0100
0001
0010
0100
1000
0010
0200
,
0000
0310
1000
0001
0000
0010
0100
1000
,
0001
0010
0100
0010
0001
0100
0010
2000
,
0000
3010
0100
0001
1000
0010
0000
0000
,
0001
0010
0001
0100
0010
1000
0100
0020
,
0000
0031
0100
0010
1000
0100
0010
0002
,
0000
0013
0010
0100
0100
1000
0010
0200
,
0000
0310
0010
1000
1000
0001
0010
0100
,
1000
0010
1000
0100
0010
0001
0100
0020
,
0000
0130
0001
2000
0000
3100
0010
0001
,
2002
0000
0000
0000
,
3003
0000
0000
0000
;

//---------------dance-single - Itsugo----------------
#NOTES:
     dance-single:
     Itsugo:
     Easy:
     3:
     0.235,0.343,0.119,0.084,0.014:
0000
0000
0000
0000
,
0000
0000
0000
0000
,
0000
0000
0000
0000
,
0000
0000
0000
0000
,
0000
0000
0000
0000
,
0001
0001
0100
0010
,
1000
1000
0100
0010
,
0001
0001
1000
0010
,
0100
0100
0001
1000
,
0100
0100
0010
0001
,
1000
1000
0010
0100
,
0001
0001
1000
0100
,
0010
0010
0001
1000
,
1001
0001
0100
0101
,
0101
1000
0100
1100
,
1100
1000
0001
1001
,
1001
0001
0010
0100
,
1000
1000
0010
0010
,
0100
0100
0001
0001
,
0010
0010
0100
0100
,
1000
0010
0100
0001
,
1001
0000
0000
0000
,
0000
0000
0000
0000
,
1001
0000
0000
0000
0000
0000
0000
1010
0000
0000
0000
0000
0000
0000
0000
0101
,
0000
0000
0011
0000
,
2100
0000
0000
0000
,
0000
0000
0000
0000
,
0000
0000
0000
0000
,
0000
0000
0000
0000
0000
3000
0000
0000
,
0010
0010
0100
0001
,
1000
0100
1000
0010
,
0100
0100
0001
0010
,
0100
1000
0001
0010
,
0001
0001
0100
0010
,
1000
0001
0010
0100
,
1000
1000
0001
0001
,
0100
0010
1000
0001
,
1001
1000
0001
0010
,
0100
1000
0010
0100
,
0001
0001
1000
0100
,
1000
0010
0100
0001
,
0010
0010
0001
0100
,
0010
1000
0001
1000
,
0100
0100
0010
0010
,
0001
1000
0010
0100
,
0110
0000
0000
0002
0000
0000
0000
0000
0000
0000
0000
0003
0000
0000
0000
0000
,
0010
0200
0000
0300
,
1000
0000
0000
0002
0000
0000
0000
0000
0000
0000
0000
0003
0000
0000
0000
0000
,
0100
0020
0000
0030
,
1000
1000
0100
0100
,
0001
0001
0010
0010
,
1000
0100
0001
0010
,
1000
0001
0010
0100
,
2000
0000
0000
0000
,
3001
0000
0100
0000
,
0010
0010
1000
1000
,
0100
0000
0010
0000
,
0001
0001
1000
1000
,
0020
0000
0030
0000
,
0200
0000
0300
0000
,
0001
0002
1003
2000
,
3100
0010
0001
1000
,
1001
0000
0001
0000
,
0100
0010
1000
0100
,
0010
0000
0001
0000
,
0100
0001
0010
0100
,
2000
0000
3001
0000
,
0002
0000
1003
0000
,
1000
0010
0100
0001
,
0010
0100
1000
0001
,
1001
0000
0000
0000
;
