#TITLE:Always Look Back (original Mix);
#SUBTITLE:DoS-xDreww;
#ARTIST:Anhken;
#TITLETRANSLIT:Always Look Back (original Mix);
#SUBTITLETRANSLIT:DoS-xDreww;
#ARTISTTRANSLIT:Anhken;
#GENRE:Techno;
#CREDIT:Itsugo15;
#MENUCOLOR:;
#BANNER:Always Look Back (Originall Mix)-bn.jpg;
#BACKGROUND:Always Look Back (Originall Mix)-bg.jpg;
#LYRICSPATH:Always Look Back (Originall Mix).lrc;
#CDTITLE:Itsugo15 SimifileS.png;
#MUSIC:Always Look Back (Original Mix).mp3;
#OFFSET:-1.080;
#SAMPLESTART:53.752;
#SAMPLELENGTH:30.000;
#SELECTABLE:YES;
#LISTSORT:;
#BPMS:0.000=132.100,227.500=66.050,236.000=132.100;
#STOPS:;
#TICKCOUNT:0.000=6;
#BGCHANGES:0.000=Always Look Back (Originall Mix).avi=1.000=0=0=0,
246.000=Always Look Back (Originall Mix)-bg.jpg=1.000=1=1=0,
99999=-nosongbg-=1.000=0=0=0 // don't automatically add -songbackground-
;
#KEYSOUNDS:;
#ATTACKS:;

//---------------dance-single - Challenge Itsugo15----------------
#NOTES:
     dance-single:
     Challenge Itsugo15:
     Challenge:
     10:
     0.617,0.863,0.200,0.141,0.424:
0000
0000
0000
0000
,
0000
0000
0000
0000
,
0000
0000
0000
0000
,
0000
0000
0000
0000
,
0000
0000
0000
0000
,
0000
0000
0000
0000
,
0000
0000
0000
0000
,
0000
0000
0000
0000
,
0001
0100
0101
0000
1000
0010
1010
0000
,
0001
0010
0011
0000
0100
1000
1100
0000
,
1000
0001
1001
0000
0100
0010
0110
0000
,
0010
1000
0100
0000
0010
0001
0100
0000
,
1000
0100
0001
0000
1000
0100
0001
0000
,
0001
0100
1000
0000
0001
0100
1000
0000
,
0100
0010
1000
0001
0010
1000
0010
0100
,
0010
0001
1000
0100
0010
0100
0001
0100
,
0010
0001
0011
0001
1000
0010
1010
0010
,
0100
0001
0101
0001
1000
0100
1100
0100
,
0010
0001
0011
0001
1000
0010
1010
1000
,
0010
0100
0110
0100
0001
1000
1001
0001
,
1000
0100
1100
0100
0010
0001
0011
0010
,
0001
0100
0101
0100
0010
1000
1010
0010
,
1000
0100
0010
0100
0001
0100
0010
0001
,
1000
0010
0100
0010
0001
0010
0100
0010
,
1000
0000
0010
1000
0000
0000
0100
0000
0010
0000
0001
0000
0010
0000
0100
0000
,
1000
0000
0001
0100
0000
0000
0010
0000
1000
0000
0010
0000
0100
0000
0001
0000
,
1000
0000
0100
0010
0000
0000
0001
0000
1000
0000
0100
0000
0010
0000
0001
0000
,
0010
0001
0100
0010
1000
0100
0010
0100
1000
0001
0100
0010
0100
0001
0010
0100
,
2000
0000
0000
0000
,
3100
1000
0100
1000
0100
0010
0100
0010
0100
0010
0001
0010
0001
1000
0001
1000
,
0001
0100
0001
0100
0010
0100
0010
0100
0010
1000
0010
1000
0001
1000
0001
1000
,
0100
1000
0100
1000
0100
0010
0100
0010
0100
0010
0001
0010
0001
1000
0001
1000
,
0001
1000
0001
0100
0001
0100
0001
0100
0001
0100
0010
0100
0010
0100
0010
0100
,
0010
1000
0010
1000
0010
1000
0010
1000
0010
1000
0001
1000
0001
1000
0001
1000
,
0001
1000
0001
0010
0001
0010
0001
0010
0001
0010
0100
0010
0100
0010
0100
0010
,
0100
1000
0100
0010
0001
1000
0010
0100
0001
1000
0100
0010
0001
1000
0010
0100
,
0001
0100
0010
1000
0001
0010
0100
1000
0001
0100
0010
1000
0001
0010
0100
1000
,
0100
0000
0010
0000
0001
0000
1000
0000
1001
0000
0001
1000
0000
1000
0001
0100
,
0010
0000
1000
0000
0001
0000
0010
0000
0011
0000
0010
0001
0000
0001
0010
0100
,
1000
0000
0001
0000
0100
0000
0010
0000
0110
0000
0010
0100
0000
0100
0010
1000
,
0001
0000
0010
0000
0100
0000
1000
0000
1100
0000
1000
0100
0000
0100
1000
0001
,
0010
0000
0001
0000
1000
0000
0010
0000
1010
0000
0010
1000
0000
1000
0010
0100
,
0010
0000
1000
0000
0001
0000
0100
0000
0101
0000
0100
0001
0000
0001
0100
0010
,
1000
0001
1000
0100
1000
0001
0100
0010
,
0100
1000
0100
0010
0100
0001
0010
1000
,
0010
0001
0000
1000
0010
0001
0000
0001
,
0010
1000
0000
0001
0010
1000
0000
0010
,
0001
0100
0000
0010
1000
0100
0000
0010
,
0001
1000
0000
0010
1000
0001
0000
0010
,
0100
1000
0000
0010
0100
0001
0000
0100
,
0010
1000
0000
0100
0010
0001
0000
0010
,
0100
1000
0001
0010
0100
0010
0001
1000
,
0010
0100
0001
1000
0010
0100
0010
1000
,
0001
1000
0000
0100
1000
0100
0000
0010
,
0100
0010
0000
0001
0010
0001
0000
1000
,
0001
1000
0000
0010
0100
0001
0000
0001
,
0100
0000
0010
0000
0000
0000
1000
0000
0001
0000
0010
0000
0000
0000
0010
0001
,
1000
0000
0100
1000
0010
0000
0010
1000
0100
0000
0010
0001
0100
0000
0100
0001
,
0010
0000
0100
1000
0001
0000
0001
1000
0100
0000
0010
0001
1000
0000
1000
0001
,
0020
0030
0020
0030
0020
0030
0020
0030
,
0020
0030
0020
0030
0020
0030
0020
0030
,
0020
0030
0020
0030
0020
0030
0020
0030
,
0020
0030
0020
0030
0020
0030
0020
0030
;

//---------------dance-single - Heavy Itsugo15----------------
#NOTES:
     dance-single:
     Heavy Itsugo15:
     Hard:
     8:
     0.420,0.456,0.067,0.025,0.037:
0000
0000
0000
0000
,
0000
0000
0000
0000
,
0000
0000
0000
0000
,
0000
0000
0000
0000
,
0000
0000
0000
0000
,
0000
0000
0000
0000
,
0000
0000
0000
0000
,
0000
0000
0000
0000
,
1000
0010
0100
0000
1000
0100
0001
0000
,
1000
0100
0001
0000
0001
0100
0010
0000
,
0010
0001
1000
0000
0010
0001
1000
0000
,
1000
0100
0010
0000
1000
0001
0010
0000
,
1000
0010
0100
0000
1000
0001
0100
0000
,
0010
1000
0001
0000
0010
0100
1000
0000
,
0001
1000
0001
1000
0010
1000
0010
1000
,
0001
0100
0001
0100
0010
0100
0010
0100
,
0010
1000
0001
0010
0100
1000
0100
0010
,
0001
1000
0100
0010
0001
0010
0100
1000
,
0001
0100
0010
1000
0100
0010
0100
1000
,
0001
0100
1000
0100
0001
0010
0100
0010
,
0001
1000
0100
0010
0100
1000
0010
0100
,
1000
0100
0010
1000
0001
0010
0100
0001
,
0100
0010
0100
1000
0001
0100
0010
0100
,
1000
0100
0010
0100
0001
0010
0100
1000
,
1100
1000
1000
1000
,
1001
0001
0001
0001
,
0101
0100
0100
0100
,
0110
1010
1001
0011
,
0220
0000
0000
0000
0000
0000
0000
0330
,
0010
0001
1000
0100
0010
1000
0010
0001
,
1000
0010
0100
1000
0100
0010
1000
0001
,
0010
1000
0010
0100
1000
0001
0100
0010
,
1000
0100
0010
0001
0010
0100
0001
0100
,
1000
0001
0100
0010
1000
0010
0001
0010
,
0100
0001
1000
0100
0010
0001
0010
0100
,
1000
0100
1000
0100
0010
0100
0010
0100
,
1000
0100
1000
0100
1000
0001
0100
0001
,
1000
0100
0010
0001
1000
0100
0010
0001
,
1000
0010
0100
0001
1000
0010
0100
0001
,
0100
0010
1000
0001
0010
0100
1000
0001
,
0100
0010
0100
1000
0100
0010
1000
0001
,
0001
0010
0100
1000
0001
0010
0100
1000
,
0001
0100
0010
1000
0001
0100
0010
1000
,
0001
0010
0100
0010
1000
0010
0100
0010
,
0001
1000
0010
0100
0001
0100
0010
1000
,
0100
1000
0000
0100
1000
0100
0000
0010
,
0100
0010
0000
0100
0010
0100
0000
0010
,
0001
0010
0000
0001
0010
0001
0000
1000
,
0001
0100
0000
0001
1000
0100
0000
1000
,
0100
1000
0000
0100
1000
0100
0000
1000
,
0001
1000
0000
0001
1000
0001
0000
0100
,
0001
0100
0000
0001
0100
0001
0000
1000
,
0010
1000
0000
0010
1000
0010
0000
0100
,
0001
0000
0000
1000
0100
0000
0000
0010
,
0001
0000
0000
1000
0010
0000
0000
0100
,
0100
0000
0000
0001
0001
0000
0000
1000
,
1000
0000
0000
0000
0000
0000
0100
0000
0100
0000
0000
0000
0000
0000
0010
0001
,
0000
0000
0001
1000
0000
0000
1000
0010
0000
0000
0010
0100
0000
0000
0001
0001
,
0000
0000
0100
0100
0000
0000
1000
1000
0000
0000
0010
0010
0000
0000
0001
0002
,
0000
0000
0000
0000
,
0000
0000
0000
0000
0000
0000
0000
0003
;

//---------------dance-single - Medium Itsugo15----------------
#NOTES:
     dance-single:
     Medium Itsugo15:
     Medium:
     5:
     0.297,0.446,0.008,0.158,0.054:
0000
0000
0000
0000
,
0000
0000
0000
0000
,
0000
0000
0000
0000
,
0000
0000
0000
0000
,
0000
0000
0000
0000
,
0000
0000
0000
0000
,
0000
0000
0000
0000
,
0000
0000
0000
0000
,
1000
0001
0010
0100
,
1000
0001
0010
0100
,
1000
0010
0100
0001
,
1000
0010
0100
0001
,
0100
0100
0010
0010
,
1000
1000
0001
0001
,
0010
0100
1000
0100
,
0010
0001
1000
0010
,
0100
0100
0001
1000
,
0100
0100
1000
0001
,
0010
0010
0001
1000
,
0010
0010
0100
0001
,
1000
1000
0100
0010
,
0001
0001
0100
0010
,
1000
0001
1000
0001
1000
0001
1000
0001
,
1000
0100
1000
0001
0100
0001
1000
0010
,
0100
0100
0100
0100
,
0001
0001
0001
0001
,
1000
1000
1000
1000
,
0100
0010
0001
1000
,
2002
0000
0000
3003
,
1000
0001
1000
0000
0001
0010
0100
0000
,
1000
0010
0100
0000
0001
0010
0001
0000
,
1000
0010
1000
0000
0001
0100
0001
0000
,
1000
0100
1000
0000
0001
0010
0001
0000
,
0010
0100
1000
0000
0010
0100
0001
0000
,
1000
0100
0010
0000
0001
0100
0010
0000
,
2000
3200
0302
0023
,
2030
3200
0302
0023
,
1030
0010
1000
0010
1000
0001
1000
0001
,
0010
0001
0010
0001
0010
0100
0010
0100
,
1000
0100
1000
0100
0010
0100
0010
0100
,
0010
0001
0010
0001
1000
0001
1000
0001
,
0100
0001
0100
0001
0100
0010
0100
0010
,
1000
0010
1000
0010
1000
0001
1000
0001
,
2000
3020
0032
0203
,
2300
3020
0032
0203
,
1300
0000
0001
0000
,
1000
0000
0010
0000
,
0100
0000
0001
0000
,
1000
0000
0100
0000
,
0010
0000
0001
0000
,
1000
0000
0010
0000
,
0100
0100
0001
0001
,
0010
0010
0100
0100
,
1000
0000
0100
0000
,
0001
0000
0100
0000
,
1000
0000
0010
0000
,
0001
0000
0000
0000
0000
0000
0000
0000
0010
0000
0000
0000
0000
0000
0000
1000
,
0000
0000
0000
0001
0000
0000
0000
0010
0000
0000
0000
0100
0000
0000
0000
1000
,
0000
1000
0000
0001
0000
0001
0000
0100
0000
0100
0000
0010
0000
1000
0000
0002
,
0000
0000
0000
0000
,
0000
0000
0000
0000
,
0000
0000
0000
0000
,
0000
0000
0000
0000
,
0003
0000
0000
0000
;

//---------------dance-single - Easy Itsugo15----------------
#NOTES:
     dance-single:
     Easy Itsugo15:
     Easy:
     3:
     0.139,0.228,0.008,0.033,0.021:
0000
0000
0000
0000
,
0000
0000
0000
0000
,
0000
0000
0000
0000
,
0000
0000
0000
0000
,
0000
0000
0000
0000
,
0000
0000
0000
0000
,
0000
0000
0000
0000
,
0000
0000
0000
0000
,
1000
0000
0100
0000
,
0010
0000
0001
0000
,
1000
0000
0010
0000
,
0100
0000
0001
0000
,
0100
0000
0010
0000
,
1000
0000
0100
0000
,
0010
0010
0010
0010
,
0001
0001
0001
0001
,
1000
0000
0010
0000
,
0100
0000
0001
0000
,
1000
0000
0100
0000
,
0010
0000
0001
0000
,
1000
0000
0001
0000
,
0010
0000
0100
0000
,
1000
0000
0001
0000
,
0100
0000
0010
0000
,
2000
0000
0000
0000
,
0000
0000
0000
0000
,
3002
0000
0000
0000
,
0000
0000
0000
0000
,
2000
0000
0000
3003
,
1001
0000
0001
0000
,
1000
0000
0010
0000
,
0100
0000
0001
0000
,
1000
0000
0100
0000
,
0010
0000
0001
0000
,
0010
0000
0100
0000
,
0010
0000
0001
0000
,
1000
0000
0010
0000
,
0100
0100
0001
0001
,
1000
1000
0100
0100
,
0010
0010
0001
0001
,
1000
0010
0100
0001
,
1000
1000
0010
0010
,
1000
1000
0100
0100
,
0010
0001
1000
0010
,
0100
0010
1000
0100
,
0010
0000
0001
0000
,
1000
0000
0010
0000
,
0100
0000
0001
0000
,
0100
0000
1000
0000
,
0100
0000
0001
0000
,
0010
0000
0100
0000
,
1000
0000
0100
0000
,
0010
0000
0001
0000
,
1000
0000
0000
0000
,
0010
0000
0000
0000
,
0100
0000
0000
0000
,
0001
0000
0000
0000
0000
0000
0000
0000
0000
0000
0000
0000
0000
0000
0000
0010
,
0000
0000
0000
0000
0000
0000
0000
0001
0000
0000
0000
0000
0000
0000
0000
1000
,
0000
0000
0000
0000
0000
0000
0000
0010
0000
0000
0000
0000
0000
0000
0000
0200
,
0000
0000
0000
0000
,
0000
0000
0000
0000
,
0300
0000
0000
0000
;

//---------------dance-single - Beginner Itsugo15----------------
#NOTES:
     dance-single:
     Beginner Itsugo15:
     Beginner:
     1:
     0.067,0.129,0.000,0.025,0.012: // measure 1
0000
0000
0000
0000
,  // measure 2
0000
0000
0000
0000
,  // measure 3
0000
0000
0000
0000
,  // measure 4
0000
0000
0000
0000
,  // measure 5
0000
0000
0000
0000
,  // measure 6
0000
0000
0000
0000
,  // measure 7
0000
0000
0000
0000
,  // measure 8
0000
0000
0000
0000
,  // measure 9
0001
0000
0000
0000
,  // measure 10
1000
0000
0000
0000
,  // measure 11
0010
0000
0000
0000
,  // measure 12
0100
0000
0000
0000
,  // measure 13
0001
0000
0000
0000
,  // measure 14
0010
0000
0000
0000
,  // measure 15
0100
0000
1000
0000
,  // measure 16
0001
0000
0100
0000
,  // measure 17
0010
0000
0000
0000
,  // measure 18
1000
0000
0000
0000
,  // measure 19
0100
0000
0000
0000
,  // measure 20
0010
0000
0000
0000
,  // measure 21
0001
0000
0000
0000
,  // measure 22
1000
0000
0000
0000
,  // measure 23
0010
0000
0100
0000
,  // measure 24
0001
0000
1000
0000
,  // measure 25
0200
0000
0000
0000
,  // measure 26
0000
0000
0000
0000
,  // measure 27
0320
0000
0000
0000
,  // measure 28
0000
0000
0000
0000
,  // measure 29
0000
0000
0000
0000
,  // measure 30
0031
0000
0000
0000
,  // measure 31
1000
0000
0000
0000
,  // measure 32
0010
0000
0000
0000
,  // measure 33
0100
0000
0000
0000
,  // measure 34
0001
0000
0000
0000
,  // measure 35
1000
0000
0000
0000
,  // measure 36
0100
0000
0000
0000
,  // measure 37
0010
0000
0000
0000
,  // measure 38
0001
0000
0000
0000
,  // measure 39
1000
0000
0000
0000
,  // measure 40
0010
0000
0000
0000
,  // measure 41
0100
0000
0000
0000
,  // measure 42
0001
0000
0000
0000
,  // measure 43
1000
0000
0000
0000
,  // measure 44
0100
0000
0000
0000
,  // measure 45
0010
0000
0000
0000
,  // measure 46
0001
0000
0000
0000
,  // measure 47
0001
0000
0000
0000
,  // measure 48
1000
0000
0000
0000
,  // measure 49
1000
0000
0000
0000
,  // measure 50
0010
0000
0000
0000
,  // measure 51
0010
0000
0000
0000
,  // measure 52
0100
0000
0000
0000
,  // measure 53
0100
0000
0000
0000
,  // measure 54
0001
0000
0000
0000
,  // measure 55
1000
0000
0000
0000
,  // measure 56
0100
0000
0000
0000
,  // measure 57
0010
0000
0000
0000
0000
0000
0000
0000
0000
0000
0000
0000
0000
0000
0000
0001
,  // measure 58
0000
0000
0000
0000
0000
0000
0000
0000
0000
0000
0000
0000
0000
0000
0000
1000
,  // measure 59
0000
0000
0000
0000
0000
0000
0000
0000
0000
0000
0000
0000
0000
0000
0000
0020
,  // measure 60
0000
0000
0000
0000
,  // measure 61
0000
0000
0000
0000
,  // measure 62
0000
0000
0000
0000
,  // measure 63
0030
0000
0000
0000
;
