#TITLE:A Sense Of Distance;
#SUBTITLE:From The Bottom Of The Heart;
#ARTIST:CROW'SCLAW;
#TITLETRANSLIT:A Sense Of Distance;
#SUBTITLETRANSLIT:From The Bottom Of The Heart;
#ARTISTTRANSLIT:CROW'SCLAW;
#GENRE:Touhou;
#CREDIT:Itsugo15;
#MENUCOLOR:;
#BANNER:A Sense Of Distance-bn.jpg;
#BACKGROUND:A Sense Of Distance-bg.jpg;
#LYRICSPATH:A Sense Of Distance.lrc;
#CDTITLE:Itsugo15 SimifileS.png;
#MUSIC:A Sense Of Distance.ogg;
#OFFSET:-0.215;
#SAMPLESTART:69.959;
#SAMPLELENGTH:30.000;
#SELECTABLE:YES;
#LISTSORT:;
#DISPLAYBPM:216.000;
#BPMS:0.000=108.000,32.000=216.000,96.000=108.000,160.000=216.000,352.000=108.000;
#STOPS:;
#TICKCOUNT:0.000=8;
#BGCHANGES:0.000=A Sense Of Distance-bg7.jpg=1.000=1=1=0,
8.000=A Sense Of Distance-bg1.jpg=1.000=1=1=0,
16.000=A Sense Of Distance-bg2.jpg=1.000=1=1=0,
31.250=A Sense Of Distance-bg3.jpg=1.000=0=1=0,
32.000=A Sense Of Distance-bg10.jpg=1.000=1=1=0,
96.000=A Sense Of Distance-bg4.jpg=1.000=1=1=0,
128.000=A Sense Of Distance-bg5.jpg=1.000=1=1=0,
159.250=A Sense Of Distance-bg3.jpg=1.000=0=1=0,
160.000=A Sense Of Distance-bg6.jpg=1.000=1=1=0,
224.000=A Sense Of Distance-bg8.jpg=1.000=1=1=0,
286.500=A Sense Of Distance-bg3.jpg=1.000=0=1=0,
288.000=A Sense Of Distance-bg9.jpg=1.000=1=1=0,
352.000=A Sense Of Distance-bg11.jpg=1.000=1=1=0,
367.500=A Sense Of Distance-bg.jpg=1.000=1=1=0,
99999=-nosongbg-=1.000=0=0=0 // don't automatically add -songbackground-
;
#KEYSOUNDS:;
#ATTACKS:;

//---------------dance-single - Challenge Itsugo15----------------
#NOTES:
     dance-single:
     Challenge Itsugo15:
     Challenge:
     10:
     0.790,1.000,0.848,0.192,0.243:
0000
0000
0000
0000
,
0000
0000
0000
0000
,
0000
0000
0000
0000
,
0000
0000
0000
0000
,
1001
0000
1000
0000
1010
0000
0010
0100
0000
0010
0000
1000
1010
0000
0010
0000
,
1000
0000
0001
0000
1001
0000
1000
0001
0000
0010
0000
0001
0011
0000
0010
0000
,
0001
0000
1000
0000
1001
0000
1000
0001
0000
0100
0000
0001
0101
0000
0100
0000
,
0010
0000
1000
0000
1010
0000
0010
0000
0100
0001
1000
0010
0100
0001
0000
0000
,
0101
0000
1001
0000
1000
0001
0010
0100
,
1000
0100
0020
0000
0001
0000
0031
0000
,
0011
0000
1001
0000
0001
0000
1000
0010
,
0000
0100
0001
0000
0202
0000
0003
0300
,
0110
0000
0010
1000
0010
0100
0010
0001
,
0010
0100
0010
0000
1000
0010
0000
0100
,
0001
0000
1000
0100
0000
0010
0001
0010
,
0100
1000
0001
0010
0100
1000
0100
0010
,
0110
0000
0110
0000
0010
0001
0010
0100
,
1000
0001
0200
0000
0010
0000
0310
0000
,
0110
0000
1010
0000
1000
0000
0001
0100
,
0000
0010
1000
0000
2002
0000
0003
3000
,
1100
0000
1000
0100
0010
0100
0001
0100
,
0010
0001
0011
0000
0001
1001
0000
1000
,
1010
0000
0010
0110
0100
0001
1000
0010
,
0100
0001
0100
0010
1000
0010
0100
0001
,
0101
0000
0001
0000
0011
0000
0001
0010
0000
0100
1000
0000
1100
0000
1000
0000
,
0001
0000
0100
0000
0101
0000
0100
0010
0000
1000
0001
0000
1001
0000
0001
0000
,
1000
0000
0100
0000
1100
0000
1000
0100
0000
0010
0001
0000
0011
0000
0001
0000
,
1000
0000
0010
0000
1010
0000
0010
0100
0000
0001
1000
0000
1001
0000
0001
0000
,
1001
0000
1000
0000
1100
0000
1000
0100
0000
0010
0001
0000
0011
0000
0001
0000
,
1000
0000
0010
0000
1010
0000
0010
0100
0000
0001
1000
0000
1001
0000
1000
0000
,
0001
0000
0010
0000
0011
0000
0001
0010
0000
0100
1000
0000
1100
0000
1000
0000
,
0001
0000
0100
0000
0101
0000
0100
0010
0000
1000
0001
0010
0100
0010
0001
1000
,
1001
0000
1000
0000
1010
0000
0010
0100
0010
0000
1000
0020
0000
0000
0130
0000
,
0110
0000
0100
0000
0101
0000
0001
0100
0001
0000
0001
1000
0000
1000
0100
0000
,
2100
3100
0210
0310
0021
0031
1002
0100
,
1003
0000
0001
0000
1001
0000
1000
0001
0100
0000
0001
0100
0000
0010
1000
0000
,
1010
0000
0010
0000
0110
0000
0100
0000
0001
0100
0001
0000
0101
0000
1000
0000
,
1100
0000
0100
0000
0110
0000
0010
0000
0001
1000
0100
0000
1100
0000
1000
0000
,
1001
0000
0001
0000
0101
0000
0001
0100
0000
0010
1000
0000
1000
0001
1000
0000
,
1001
0000
0000
0000
0001
0000
1000
0000
0000
0000
0010
0000
0100
0000
0001
0000
0100
0001
0100
0001
0100
0001
0100
0001
0100
0000
0001
0000
0000
0000
0000
0000
,
1001
0000
1100
0000
1000
0100
0000
0010
,
0000
0001
1000
0010
0100
0001
0100
0010
,
2000
0010
3010
0100
0001
1000
0100
0020
,
0001
0031
0100
1000
0002
1000
1003
0010
,
1010
0000
1010
0000
0101
0000
0100
0010
,
0000
1000
0001
0010
0000
0100
1000
0010
,
1000
0010
0100
0010
0001
0010
0100
1000
,
0100
0010
0100
0001
1000
0100
0010
0001
,
0011
0000
0001
0000
1001
0000
1000
0010
,
0100
0001
0100
0010
0110
0000
1000
0000
,
1001
0000
0100
0000
0110
0000
0010
0001
,
0010
0100
1000
0100
1100
0000
0010
0000
,
0011
0000
0001
0000
1001
0000
0001
0100
,
0010
1000
0001
0100
0101
0000
0010
1000
,
0001
0000
0010
0100
1000
0000
1000
1001
,
0000
0001
0100
0010
1000
0001
0100
0010
,
0110
0000
0110
0000
1010
0000
0010
1000
,
0001
0010
0100
1000
0100
0010
0001
1000
,
1001
0000
1001
0000
0101
0000
0100
0010
,
0000
1000
0001
0010
0100
0010
0001
1000
,
1001
0000
0101
0000
0110
0000
0010
1000
,
0000
1000
0001
0010
0100
1000
0001
0010
,
0011
0000
1001
0000
0101
0000
0100
0010
,
0000
1000
0001
0100
0010
1000
0001
0100
,
0101
0000
0110
0000
1010
0000
0001
0100
,
0000
0010
1000
0010
0100
0001
0100
0010
,
0110
0000
1010
0000
1001
0000
0001
0010
,
0000
0100
1000
0100
0010
0001
0010
0100
,
0110
0000
0011
0000
1001
0000
1000
0001
,
0000
0001
1000
0010
1000
0001
1000
0100
,
1100
0000
0100
0010
0000
0010
0001
0000
,
0010
0100
1000
0100
0020
0002
0033
0000
,
0011
0000
1001
0000
0001
1000
0100
0010
,
0001
0010
0200
0000
1000
0000
1300
0000
,
1100
0000
1001
0000
1000
0000
0001
0100
,
0000
0010
1000
0000
2020
0000
3000
0030
,
0110
0000
0100
0001
0100
0010
0100
1000
,
0100
0010
0100
0000
0001
0100
0000
0010
,
1000
0000
0001
0010
0000
0100
1000
0100
,
0010
0001
1000
0100
0010
0001
0010
0100
,
0110
0000
0110
0000
0100
1000
0100
0010
,
0001
1000
0020
0000
0100
0000
0130
0000
,
0110
0000
0101
0000
0001
0000
1000
0010
,
0000
0100
0001
0000
2002
0000
3000
0003
,
0011
0000
0001
0010
0100
0010
1000
0010
,
0100
0010
0110
0000
0011
0000
0011
0000
,
1001
0000
1010
0000
1010
0000
0010
0100
,
0001
1000
0010
0100
0001
2000
0000
3002
,
1003
0000
0001
0000
1000
0000
0010
0100
0000
0001
0000
0100
0010
0000
1000
0000
,
0001
0000
0010
0000
0100
0000
1000
0001
0000
0100
0000
0001
0010
0000
0100
0000
,
1000
0000
0001
0000
0100
0000
0010
1000
0000
0010
0000
0100
0001
0000
1000
0000
,
0100
0000
0010
0000
0001
0000
0010
0100
0000
1000
0000
0100
0010
0000
0220
0000
,
0330
0000
0000
0000
;

//---------------dance-single - Heavy Itsugo15----------------
#NOTES:
     dance-single:
     Heavy Itsugo15:
     Hard:
     8:
     0.540,0.677,0.545,0.118,0.037:
0000
0000
0000
0000
,
0000
0000
0000
0000
,
0000
0000
0000
0000
,
0000
0000
0000
0000
,
1001
0001
0100
0000
0010
0000
1000
0000
,
1010
1000
0001
0000
0010
0000
0100
0000
,
0110
0100
1000
0000
0001
0000
0100
0000
,
0101
0100
0010
0000
1000
0000
0001
0000
,
1001
0000
0001
0000
1000
0000
0010
0100
,
0000
0001
1000
0000
0200
0000
0000
0000
,
1300
0000
0100
0000
0010
0000
0001
1000
,
0000
0010
0100
0000
0002
0000
0000
0000
,
0103
0000
0100
0000
0010
0000
1000
0001
,
0000
0001
1000
0000
1000
0000
0100
0000
,
0100
0000
0010
0000
0010
0000
0001
1000
,
0000
0001
1000
0001
1000
0001
1000
0000
,
1001
0000
1000
0000
0001
0000
0100
0010
,
0000
1000
0001
0000
0020
0000
0000
0000
,
0031
0000
0010
0000
0100
0000
1000
0001
,
0000
0100
0010
0000
2000
0000
0000
0000
,
3010
0000
0010
0000
0100
0000
0001
1000
,
0000
1000
0001
0000
0001
0000
0010
0000
,
0011
0000
0010
0000
0110
0000
0100
1000
,
0000
0001
0010
0000
0011
0000
1001
0000
,
0101
0000
0110
0000
0010
1000
0001
0000
,
1000
0000
1100
0000
0100
0010
0001
0011
,
0001
0000
1001
0000
1000
0010
0100
0000
,
0001
0000
0101
0000
0100
0010
0110
0010
,
1000
0000
1001
0000
0001
0010
0001
0000
,
1000
0000
1100
0000
0100
0010
0110
0010
,
0001
0000
0011
0000
0001
1000
0010
0000
,
0100
0000
0110
0000
0100
0001
0101
0001
,
1001
0000
1100
0000
0100
0010
0110
0000
,
0010
0000
0011
0000
1000
0010
1010
0000
,
0120
0000
0001
0000
0100
0000
1000
1030
,
0001
0000
1001
0000
0001
0100
0101
0000
,
0010
0000
0110
0000
0100
0001
1000
0000
,
0100
0000
1100
0000
0100
0010
0002
0000
,
2000
0000
0000
3003
,
1001
0000
1000
0100
0000
0001
0100
0000
0020
0000
0000
0000
0200
0000
0330
0000
,
0110
0000
0010
0000
1000
0000
0100
1000
,
0000
0010
0100
0000
0001
0000
0001
0000
,
0100
0000
0100
0000
0010
0000
1000
0010
,
0000
0100
0001
0000
0101
0000
1000
0000
,
2100
0000
0001
0000
3001
0000
0100
0010
,
0000
1000
0001
0000
0010
0000
0010
0000
,
0100
0000
0100
0000
1000
0000
0100
0010
,
0000
0001
1000
0000
1001
0000
0100
0000
,
0110
0000
0110
0000
0100
0000
0001
1000
,
0000
0100
0010
0000
0110
0000
0010
0000
,
0011
0000
0011
0000
0001
0000
1000
0010
,
0000
0100
0001
0000
0101
0000
0100
0000
,
0110
0000
0110
0000
0100
0000
0010
1000
,
0000
0001
0100
0000
0101
0000
0001
0000
,
1000
0000
1001
0000
1001
0000
1000
0001
,
0000
0001
1000
0000
1001
0000
1100
0000
,
0110
0000
0110
0000
0010
0000
0100
1000
,
0000
1000
0100
0000
1100
0000
0100
0000
,
0110
0000
0010
0000
0001
0000
0001
1000
,
0000
1000
0001
0000
1001
0000
0001
0000
,
1001
0000
1000
0000
0010
0000
0100
0001
,
0000
1000
0010
0000
1010
0000
0010
0000
,
0110
0000
0100
0000
0001
0000
1000
0100
,
0000
0010
0001
0000
0011
0000
0001
0000
,
1001
0000
0001
0000
1000
0000
0010
0100
,
0000
0001
1000
0000
1001
0000
0001
0000
,
0011
0000
0010
0000
0100
0000
1000
0001
,
0000
0100
0010
0000
0110
0000
0010
0000
,
1000
0000
0001
0000
0100
0000
0010
1000
,
0000
0001
0100
0000
0101
0000
1000
0100
,
0000
0010
0001
0000
0011
0000
0001
1000
,
0000
1000
0001
0000
0002
2000
3003
0000
,
1001
0000
1000
0000
0001
0000
0100
0010
,
0000
1000
0001
0000
0020
0000
0000
0000
,
0031
0000
0010
0000
0100
0000
1000
0001
,
0000
0100
0010
0000
2000
0000
0000
0000
,
3010
0000
0010
0000
0100
0000
0001
1000
,
0000
1000
0001
0000
0001
0000
0010
0000
,
0010
0000
0100
0000
0100
0000
1000
0001
,
0000
1000
0001
1000
0001
1000
0001
0000
,
1001
0000
0001
0000
1000
0000
0010
0100
,
0000
0001
1000
0000
0200
0000
0000
0000
,
1300
0000
0100
0000
0010
0000
0001
1000
,
0000
0010
0100
0000
0002
0000
0000
0000
,
0103
0000
0100
0000
0010
0000
1000
0001
,
0000
0001
1000
0000
1000
0000
0100
0000
,
1100
0000
0100
0000
0110
0000
0010
0001
,
0000
1000
0100
0000
1100
0000
1001
0000
,
0001
0000
1000
0000
1000
0000
0010
0100
0000
0010
0100
0000
0100
0000
0100
0000
,
0010
0000
1000
0000
1000
0000
0100
0010
0000
0100
0010
0000
0010
0000
0010
0000
,
0001
0000
1000
0000
1000
0000
0010
0100
0000
0010
0100
0000
0100
0000
0100
0000
,
0001
0000
1000
0000
1000
0000
0100
0010
0000
0100
0010
0000
0110
0000
1001
0000
;

//---------------dance-single - Beginner Itsugo15----------------
#NOTES:
     dance-single:
     Beginner Itsugo15:
     Beginner:
     2:
     0.078,0.237,0.029,0.088,0.000:
0000
0000
0000
0000
,
0000
0000
0000
0000
,
0000
0000
0000
0000
,
0000
0000
0000
0000
,
0001
0000
0000
0000
,
0001
0000
0000
0000
,
1000
0000
0000
0000
,
1000
0000
0000
0000
,
1001
0000
0000
0000
,
0000
0000
0000
0000
,
1000
0000
0000
0000
,
0000
0000
0000
0000
,
0010
0000
0000
0000
,
0000
0000
0000
0000
,
0100
0000
0000
0000
,
0000
0000
0000
0000
,
0001
0000
0000
0000
,
0000
0000
0000
0000
,
0010
0000
0000
0000
,
0000
0000
0000
0000
,
0100
0000
0000
0000
,
0000
0000
0000
0000
,
1000
0000
0000
0000
,
0000
0000
0000
0000
,
2000
0000
3000
0000
,
0002
0000
0003
0000
,
0200
0000
0000
0000
,
0300
0000
0000
0000
,
0020
0030
0000
0000
,
0200
0300
0000
0000
,
0002
0000
0000
0000
,
2003
0000
3001
0000
,
1001
0000
0000
0000
,
1000
0000
0000
0000
,
0100
0000
0000
0000
,
0010
0000
0000
0000
,
0001
0000
0000
0000
,
0100
0000
0000
0000
,
0010
0000
0000
0000
,
1000
0000
0002
0003
,
2002
0000
0000
0000
,
0000
0000
3003
0000
,
1000
0000
0000
0000
,
0000
0000
0000
0000
,
0001
0000
0000
0000
,
0000
0000
0000
0000
,
0100
0000
0000
0000
,
0000
0000
0000
0000
,
0010
0000
0000
0000
,
0000
0000
0000
0000
,
1000
0000
0000
0000
,
0000
0000
0000
0000
,
0001
0000
0000
0000
,
0000
0000
0000
0000
,
0010
0000
0000
0000
,
0000
0000
0000
0000
,
0100
0000
0000
0000
,
0000
0000
0000
0000
,
1000
0000
0000
0000
,
0000
0000
0000
0000
,
0001
0000
0000
0000
,
0000
0000
0000
0000
,
0100
0000
0000
0000
,
0000
0000
0000
0000
,
0010
0000
0000
0000
,
0000
0000
0000
0000
,
1000
0000
0000
0000
,
0000
0000
0000
0000
,
0100
0000
0000
0000
,
0000
0000
0000
0000
,
0010
0000
0000
0000
,
0000
0000
0000
0000
0200
0300
0000
0000
,
0110
0000
0000
0000
,
0000
0000
0000
0000
,
0010
0000
0000
0000
,
0000
0000
0000
0000
,
0001
0000
0000
0000
,
0000
0000
0000
0000
,
1000
0000
0000
0000
,
0000
0000
0000
0000
,
0010
0000
0000
0000
,
0000
0000
0000
0000
,
0100
0000
0000
0000
,
0000
0000
0000
0000
,
0001
0000
0000
0000
,
0000
0000
0000
0000
,
0100
0000
0000
0000
,
0000
0000
0000
0000
,
0010
0000
0000
0000
,
1000
0000
0000
0000
,
0100
0000
0000
0000
,
0002
0000
0000
0000
0000
0000
0000
0003
;

//---------------dance-single - Light Itsugo15----------------
#NOTES:
     dance-single:
     Light Itsugo15:
     Easy:
     3:
     0.140,0.271,0.044,0.118,0.000:
0000
0000
0000
0000
,
0000
0000
0000
0000
,
0000
0000
0000
0000
,
0000
0000
0000
0000
,
1000
0000
0000
0000
,
1000
0000
0000
0000
,
0001
0000
0000
0000
,
0001
0000
1000
0001
,
1001
0000
0000
0000
,
1000
0000
0000
0000
,
0001
0000
0000
0000
,
0100
0000
0000
0000
,
0010
0000
0000
0000
,
1000
0000
0000
0000
,
0001
0000
0000
0000
,
0010
0000
0000
0000
,
0100
0000
0000
0000
,
0010
0000
0000
0000
,
0001
0000
0000
0000
,
1000
0000
0000
0000
,
0100
0000
0000
0000
,
0010
0000
0000
0000
,
0001
0000
0000
0000
,
1000
0000
0000
0000
,
2002
0000
3003
0000
,
0001
0000
1000
0000
,
0020
0000
0000
0000
,
0030
0000
1000
0000
,
0002
0003
0010
0000
,
0100
0000
1000
0000
,
0200
0000
0000
0000
,
0320
0030
0001
0001
,
0011
0000
0001
0000
,
1000
0000
0010
0000
,
0100
0000
0100
0000
,
0100
0000
0010
0000
,
1000
0000
0001
0000
,
0010
0000
0100
0000
,
0100
0000
0100
0000
,
0100
0000
1000
0001
,
2002
0000
0000
0000
,
3003
0000
0000
0000
,
1000
0000
0000
0000
,
0001
0000
0100
0000
,
0020
0000
0000
0000
,
1000
0000
0000
0000
,
0130
0000
0000
0000
,
0001
0000
1000
0000
,
0010
0000
0000
0000
,
1000
0000
0001
0000
,
0100
0000
0000
0000
,
0001
0000
1000
0000
,
0200
0000
0000
0000
,
1000
0000
0000
0000
,
0310
0000
0000
0000
,
0010
0000
0010
0000
,
0110
0000
0000
0000
,
0010
0000
0001
0000
,
0100
0000
0000
0000
,
0010
0000
1000
0000
,
0200
0000
0300
0000
,
0100
0000
1000
0000
,
0001
0000
0000
0000
,
1000
0000
0001
0000
,
0100
0000
0000
0000
,
0010
0000
1000
0000
,
0100
0000
0000
0000
,
0010
0000
0001
0000
,
2000
0000
0000
0000
,
0001
0000
0000
0000
,
0100
0000
0000
0000
,
0001
0000
3001
0000
,
1001
0000
0000
0000
,
1000
0000
0000
0000
,
0010
0000
0000
0000
,
0100
0000
0000
0000
,
0002
0000
0000
0000
,
0000
0000
0000
0000
,
2003
0000
0000
0000
,
0000
0000
0000
0000
,
3001
0000
0000
0000
,
0010
0000
0000
0000
,
0100
0000
0000
0000
,
1000
0000
0000
0000
,
0002
0000
0000
0000
,
0000
0000
0000
0000
,
2003
0000
0000
0000
,
0000
0000
0000
0000
,
0001
0000
0000
0000
,
0001
0000
0000
0000
,
0001
0000
0000
0000
,
0001
0000
0000
0000
0000
0000
0000
3000
;

//---------------dance-single - Medium Itsugo15----------------
#NOTES:
     dance-single:
     Medium Itsugo15:
     Medium:
     5:
     0.275,0.474,0.361,0.155,0.000: // measure 1
0000
0000
0000
0000
,  // measure 2
0000
0000
0000
0000
,  // measure 3
0000
0000
0000
0000
,  // measure 4
0000
0000
0000
0000
,  // measure 5
1000
1100
0000
0010
,  // measure 6
0001
0011
0000
1000
,  // measure 7
0010
1010
0000
0100
,  // measure 8
0001
0101
0010
0100
,  // measure 9
0110
0000
1010
0000
,  // measure 10
1000
0000
0001
0000
,  // measure 11
1001
0000
1100
0000
,  // measure 12
0110
0000
0002
0000
,  // measure 13
0013
0000
0010
0000
,  // measure 14
0100
0000
0100
0000
,  // measure 15
1000
0000
1000
0000
,  // measure 16
0001
0000
0100
0000
,  // measure 17
0101
0000
0110
0000
,  // measure 18
0010
0000
1000
0000
,  // measure 19
1010
0000
1001
0000
,  // measure 20
0011
0000
0020
0000
,  // measure 21
0130
0000
0100
0000
,  // measure 22
1000
0000
1000
0000
,  // measure 23
0001
0000
1000
0000
,  // measure 24
0100
0000
0010
0000
,  // measure 25
0220
0000
0330
0010
,  // measure 26
0020
0000
0000
0030
0100
0000
1000
0000
,  // measure 27
0002
0000
0000
0000
,  // measure 28
1003
0000
0010
0100
,  // measure 29
0002
0000
0000
0003
1000
0000
0001
0000
,  // measure 30
1000
0100
0020
0000
,  // measure 31
0002
0000
0000
0030
,  // measure 32
0200
0303
0100
0001
,  // measure 33
1000
0000
0001
1000
,  // measure 34
0001
1000
1000
0100
,  // measure 35
1100
0110
1100
0002
,  // measure 36
0103
0010
1000
0001
,  // measure 37
1001
1001
1000
0001
,  // measure 38
0010
0100
1000
0100
,  // measure 39
0200
0000
0000
0000
,  // measure 40
0310
0001
0011
1100
,  // measure 41
2002
0000
0000
3003
,  // measure 42
0001
0000
1000
0000
,  // measure 43
0020
0000
0100
0000
,  // measure 44
0001
0000
0100
0000
,  // measure 45
1030
0000
0001
0000
,  // measure 46
0010
0000
0100
0000
,  // measure 47
1000
0000
1100
0000
,  // measure 48
0100
0000
0010
0000
,  // measure 49
0110
0000
0001
0000
,  // measure 50
0001
0000
1000
0000
,  // measure 51
1001
0000
0010
0000
,  // measure 52
0010
0000
0100
0000
,  // measure 53
0101
0000
0001
0000
,  // measure 54
1000
0000
0100
0000
,  // measure 55
0010
0000
0100
0000
,  // measure 56
1000
0000
0001
0000
,  // measure 57
1001
0000
1000
0000
,  // measure 58
0001
0000
0100
0000
,  // measure 59
0101
0000
0100
0000
,  // measure 60
0010
0000
1000
0000
,  // measure 61
1010
0000
1000
0000
,  // measure 62
1001
0000
0001
0000
,  // measure 63
0011
0000
0110
0000
,  // measure 64
1100
0000
0110
0000
,  // measure 65
0011
0000
0001
0000
,  // measure 66
1000
0000
0010
0000
,  // measure 67
1010
0000
1000
0000
,  // measure 68
0001
0000
0100
0000
,  // measure 69
0101
0000
0100
0000
,  // measure 70
0010
0000
1000
0000
,  // measure 71
0001
0000
0010
0000
,  // measure 72
0100
0000
0110
0000
,  // measure 73
1001
0000
0101
0000
,  // measure 74
0001
0000
1000
0000
,  // measure 75
1001
0000
0011
0000
,  // measure 76
0110
0000
2000
0000
,  // measure 77
3100
0000
0100
0000
,  // measure 78
0010
0000
0010
0000
,  // measure 79
0001
0000
0001
0000
,  // measure 80
1000
0000
0010
0000
,  // measure 81
1010
0000
0110
0000
,  // measure 82
0100
0000
0001
0000
,  // measure 83
0101
0000
1001
0000
,  // measure 84
1100
0000
0200
0000
,  // measure 85
0310
0000
0010
0000
,  // measure 86
0001
0000
0001
0000
,  // measure 87
1000
0000
0001
0000
,  // measure 88
0010
0000
0100
0000
,  // measure 89
2000
0000
0000
0000
,  // measure 90
3002
0000
0000
0000
,  // measure 91
0203
0000
0000
0000
,  // measure 92
0320
0000
0000
0000
0000
0000
0000
0030
;
