#TITLE:talking;
#SUBTITLE:すべてがFになる THE PERFECT INSIDER;
#ARTIST:KANA-BOON;
#TITLETRANSLIT:Talking;
#SUBTITLETRANSLIT:Subete ga F ni Naru ~The Perfect Insider~;
#ARTISTTRANSLIT:Kana-Boon;
#GENRE:Otaku's Dream 4th Mix (Pad);
#CREDIT:Itsugo15;
#BANNER:talking-bn.png;
#BACKGROUND:talking-bg.png;
#JACKET:talking-Jacket.png;
#LYRICSPATH:talking.lrc;
#CDTITLE:Itsugo15 SimifileS.png;
#MUSIC:talking.mp3;
#OFFSET:-0.705;
#SAMPLESTART:31.540;
#SAMPLELENGTH:30.000;
#SELECTABLE:YES;
#LISTSORT:;
#BPMS:0.000=140.000;
#STOPS:;
#TICKCOUNT:0.000=6;
#BGCHANGES:-1.265=talking.avi=1.000=1=1=0,
207.000=talking-bg.png=1.000=1=0=1,
99999=-nosongbg-=1.000=0=0=0 // don't automatically add -songbackground-
;
#KEYSOUNDS:;
#ATTACKS:;

//---------------dance-single - Itsugo15----------------
#NOTES:
     dance-single:
     Itsugo15:
     Beginner:
     1:
     0.082,0.114,0.000,0.011,0.000:
0000
0000
0000
0000
,
0000
0000
0000
0000
,
0000
0000
0000
0000
,
0000
0000
0000
0000
,
1000
0000
0000
0000
,
1000
0000
0000
0000
,
0001
0000
0000
0000
,
0001
0000
0000
0000
,
0010
0000
0000
0000
,
0010
0000
0000
0000
,
0100
0000
0000
0000
,
0100
0000
0000
0000
,
1000
0000
0000
0000
,
1000
0000
0000
0000
,
1000
0000
0000
0000
,
1000
0000
0000
0000
,
0010
0000
0000
0000
,
0100
0000
0000
0000
,
0001
0000
0000
0000
,
0010
0000
0000
0000
,
0100
0000
0000
0000
,
1000
0000
0000
0000
,
0010
0000
0000
0000
,
0100
0000
0000
0000
,
0001
0000
0000
0000
,
0100
0000
0000
0000
,
0010
0000
0000
0000
,
1000
0000
0000
0000
,
0001
0000
0000
0000
,
0010
0000
0000
0000
,
0100
0000
0000
0000
,
1000
0000
0100
0000
,
1000
0000
0001
0000
,
1000
0000
0000
0000
,
0010
0000
0000
0000
,
0100
0000
0001
0000
,
0000
0000
0010
0000
,
0010
0000
0100
0000
,
0000
0000
0000
0000
,
1000
0000
0000
0000
,
0001
0000
0000
0000
,
0010
0000
0000
0000
,
0100
0000
0000
0000
,
1000
0000
0000
0000
,
0001
0000
0000
0000
,
1000
0000
0000
0000
,
0010
0000
0000
0000
,
0100
0000
0000
0000
,
0001
0000
0000
0000
,
1000
0000
0000
0000
,
0100
0000
0000
0000
,
0020
0030
0000
0000
;

//---------------dance-single - Itsugo15----------------
#NOTES:
     dance-single:
     Itsugo15:
     Challenge:
     11:
     0.750,0.797,0.864,0.299,0.260: // measure 1
0000
0000
0000
0000
,  // measure 2
0000
0000
0000
0000
,  // measure 3
0000
0000
0000
0000
,  // measure 4
0011
0000
0000
0000
1010
0000
0000
0000
1001
0000
0001
0000
0100
0010
1000
0001
,  // measure 5
0010
0000
0100
0000
1000
0000
0100
0000
0010
0000
0001
0000
1000
0000
0001
0100
,  // measure 6
0000
0000
0010
0000
1000
0000
0100
0000
1000
0000
0010
0000
0100
0000
0001
1000
,  // measure 7
0000
0100
0010
0001
0010
0100
1000
0001
,  // measure 8
1001
1100
0101
1001
,  // measure 9
0110
0000
0010
0000
1000
0000
0100
0000
0010
0000
0001
0000
1000
0000
0010
0100
,  // measure 10
0000
0000
0001
0000
0100
0000
0010
0000
1000
0000
0001
0000
0010
0000
0100
1000
,  // measure 11
0000
0100
1000
0010
0100
0001
0010
0100
,  // measure 12
0110
0000
0000
0000
1001
0000
0000
0000
0110
0000
0000
0000
1000
0001
1000
0001
,  // measure 13
0100
1000
0100
0010
1000
0100
0010
2000
,  // measure 14
0000
3010
0100
1000
0002
0000
0103
1000
,  // measure 15
0001
0010
1000
0001
0010
1000
0001
0100
,  // measure 16
1000
0000
0000
0001
0000
0000
0100
0000
0010
0000
1000
0000
0001
0000
0010
0000
,  // measure 17
0011
0000
1001
1001
1001
1001
1001
1001
,  // measure 18
0220
0330
2002
3003
,  // measure 19
0110
0000
0000
1001
0000
0000
1000
0000
0100
0000
0001
0000
0100
0000
1000
0000
,  // measure 20
1100
0000
0000
0011
0000
0000
0001
0000
0100
0000
0020
0000
1000
0000
1000
0030
,  // measure 21
1010
0000
0000
1100
0000
0000
1000
0000
0100
0000
0010
0000
0001
0000
1000
0000
,  // measure 22
1001
0000
0000
0101
0000
0000
0001
0000
0100
0000
0010
0000
1000
0000
0001
0000
,  // measure 23
1001
1000
1100
0100
0110
0010
0011
0001
,  // measure 24
1001
0000
1000
0000
0010
0000
0001
0000
0010
0000
1000
0000
0001
0100
0010
1000
,  // measure 25
0001
0000
0000
0011
0000
0000
0010
0000
0100
0000
1000
0000
0001
0000
0100
0000
,  // measure 26
0010
0000
0000
0110
0000
0000
0100
0000
0001
0000
2000
0000
0100
0000
3100
0000
,  // measure 27
1100
0000
0000
1010
0000
0000
0010
0000
0100
0000
0001
0000
1000
0000
0100
0000
,  // measure 28
1100
0000
0000
0110
0000
0000
0010
0000
0002
0000
1000
0000
1003
0000
0001
0000
,  // measure 29
0100
0010
0001
0010
1000
0010
0100
0001
,  // measure 30
1000
0100
0010
0001
0100
0010
1000
0001
,  // measure 31
1001
0000
0000
0000
1100
0000
0100
1000
0001
0000
0100
0000
0010
0000
1000
0001
,  // measure 32
0010
0000
0001
0100
0010
1000
0100
0010
0100
1000
0001
0010
0200
0000
0000
0000
,  // measure 33
1300
0000
1100
0000
1001
0000
0001
0100
0010
1000
0010
0100
0001
0000
1000
0000
,  // measure 34
1100
0000
0100
0000
0110
0000
0010
0001
0000
1000
0020
0000
0130
0001
1000
0100
,  // measure 35
0010
0000
0001
0000
0010
0000
0100
1000
0000
0001
0100
0000
0010
1000
0001
0010
,  // measure 36
0100
1000
0200
0000
0020
0330
0110
0021
,  // measure 37
0000
0031
0100
1000
0100
0010
2000
0001
,  // measure 38
3010
0000
1020
0000
0200
0330
0110
0020
,  // measure 39
1000
0000
1030
0000
0100
0000
0100
0000
0010
0000
0001
0000
1000
0001
0100
0000
,  // measure 40
0101
0100
0110
0010
1010
1000
0001
0020
,  // measure 41
0000
0130
1000
0020
0000
0130
0001
0100
,  // measure 42
1000
0100
0010
1000
0001
0010
1000
0010
,  // measure 43
0002
0000
0000
1000
0003
0000
0010
0000
0100
0000
0001
0000
1000
0100
0010
0001
,  // measure 44
1000
0010
1000
0001
1000
0100
0010
0001
,  // measure 45
2000
0000
0001
0000
3001
0000
1000
0000
0002
0000
1000
0000
1003
0001
1000
0001
,  // measure 46
0100
0000
0000
0101
0000
0000
0001
0000
0100
0000
1000
0000
0100
0000
0010
0000
,  // measure 47
1000
0000
0000
1010
0000
0000
1000
0000
0001
0000
1001
0000
0000
0000
1000
0000
,  // measure 48
1100
0000
0000
0110
0000
0000
0011
0000
0001
0000
1000
0000
0010
0000
0100
0000
,  // measure 49
0110
0000
0000
0101
0000
0000
1001
0000
1000
0000
0010
0000
0100
0000
0001
0000
,  // measure 50
0101
0101
1001
1001
1100
1100
0110
0110
,  // measure 51
0011
0101
1010
1100
0011
1100
0220
0330
,  // measure 52
1001
0220
0000
0330
0000
0000
0000
0000
;

//---------------dance-single - Itsugo15----------------
#NOTES:
     dance-single:
     Itsugo15:
     Easy:
     3:
     0.188,0.227,0.055,0.100,0.000:
0000
0000
0000
0000
,
0000
0000
0000
0000
,
0000
0000
0000
0000
,
0000
0000
0000
0000
,
1000
0000
1000
0000
,
0001
0000
0001
0000
,
0010
0000
0100
0000
,
1000
1000
1000
1000
,
0001
0000
0001
0000
,
0100
0000
0100
0000
,
0010
0000
1000
0000
,
0001
0001
0001
0001
,
0020
0000
0000
0000
,
0032
0000
0000
0000
,
2003
0000
0000
0000
,
3020
0000
0000
0000
,
0230
0000
0000
0000
,
0301
0000
1000
0000
,
1001
0000
0001
0000
,
0010
0000
0001
0000
,
0100
0000
0010
0000
,
1000
0000
0001
0000
,
0010
0000
0100
0000
,
1000
0000
0001
0000
,
1001
0000
1000
0000
,
0010
0000
0100
0000
,
0001
0000
0100
0000
,
0010
0000
1000
0000
,
0001
0000
0010
0000
,
0100
0000
1000
0000
,
1100
0000
0000
0000
,
1001
0000
0001
0001
,
0100
0000
0100
0100
,
0010
0000
1000
0000
,
0100
0000
0010
0000
,
0001
0000
0001
0000
,
2000
0000
0001
0000
,
3001
0000
0100
0000
,
0020
0000
0100
0000
,
1030
0000
0001
0000
,
0010
0000
0100
0000
,
1000
0000
0001
0000
,
0100
0000
0010
0000
,
1000
0000
0001
0000
,
0010
0010
0001
0001
,
1000
0000
0010
0100
,
0001
0000
0100
0010
,
1000
0000
0001
0010
,
0100
0000
1000
0100
,
0010
0010
0001
0001
,
0100
0010
1000
0001
,
2002
3003
0000
0000
;

//---------------dance-single - Itsugo15----------------
#NOTES:
     dance-single:
     Itsugo15:
     Medium:
     6:
     0.380,0.425,0.288,0.066,0.000:
0000
0000
0000
0000
,
0000
0000
0000
0000
,
0000
0000
0000
0000
,
0000
0000
0000
0000
,
1000
0000
1000
0000
0010
1000
0010
0000
,
0100
0000
0100
0000
0010
0100
0010
0000
,
1000
0000
1000
0000
0001
0010
0100
0000
,
0110
1100
1001
0101
,
0001
0000
0001
0000
0100
0001
0100
0000
,
0010
0000
0010
0000
1000
0010
1000
0000
,
0001
0000
0001
0000
1000
0100
1000
0000
,
1100
1010
0110
0101
,
0001
1000
1000
0001
,
0001
0010
0010
0100
,
0100
1000
1000
0100
,
0100
0010
0010
0001
,
0100
0000
0010
0000
1000
0001
1000
0001
,
0020
0030
0200
0300
,
0110
0000
1100
0000
0001
0100
0001
0000
,
1001
0000
1100
0000
0100
0010
0100
0000
,
1000
0000
0001
0000
0100
0010
1000
0000
,
1010
0000
0010
0000
0100
0001
1000
0000
,
0100
0010
0001
1000
,
0010
0100
0001
1000
,
1001
0000
1100
0000
0100
0010
0001
0000
,
0011
0000
1001
0000
1000
0001
0100
0000
,
0010
0010
1000
1000
,
0001
0010
0100
1000
,
0100
0001
0100
1000
,
0010
0001
0010
1000
,
1010
0000
0000
0000
,
0010
0000
1000
0000
0001
0100
0001
0000
,
0010
0000
0100
0000
1000
0100
1000
0000
,
0010
0010
0100
0100
,
0001
1000
0100
0010
,
0110
0010
0002
0003
,
0001
1000
0010
0100
,
0001
1000
0200
0300
,
1000
0001
0100
0010
,
0110
0100
0010
0100
,
0001
0100
0010
1000
,
0001
0010
1000
0001
,
0100
1000
0010
0100
,
0001
0001
0100
0100
,
0010
0000
0020
0000
1000
0000
2000
3030
,
1010
0000
1001
0000
0001
0010
0100
0000
,
0110
0000
1100
0000
0100
1000
0001
0000
,
0100
0100
0010
0010
,
1000
0001
0010
0100
,
1000
1000
0001
0001
0100
0100
0010
0010
,
1000
0010
0100
0001
1000
0100
0010
0000
,
0110
0110
0000
0000
0000
0000
0000
0000
;

//---------------dance-single - Itsugo15----------------
#NOTES:
     dance-single:
     Itsugo15:
     Hard:
     9:
     0.600,0.569,0.344,0.332,0.139:
0000
0000
0000
0000
,
0000
0000
0000
0000
,
0000
0000
0000
0000
,
1100
0011
1010
0101
,
0001
0000
1000
0000
0100
0000
0010
0000
0001
0000
0010
0000
0100
0000
1000
0001
,
0000
0000
0100
0000
0000
0000
0010
0000
1000
0000
0001
0000
0010
0000
0100
1000
,
0000
0001
0000
1000
0010
0100
0001
1000
,
1001
0110
1001
0110
,
0010
0000
0001
0000
0100
0000
0001
0000
0010
0000
0100
0000
1000
0000
0010
0100
,
0000
0000
0001
0000
0000
0000
0100
0000
0010
0000
1000
0000
0001
0000
0010
0100
,
0000
1000
0000
0100
0010
0001
1000
0010
,
1010
1100
0011
0101
,
0100
1000
0100
0001
0010
1000
0010
0002
,
0000
1003
0010
0100
0002
0000
0103
1000
,
0100
0010
1000
0001
0010
1000
0010
0100
,
1000
0000
0000
0100
0000
0000
0010
0000
0001
0000
1000
0000
0010
0000
0100
0000
,
0002
0000
0100
0100
0100
0100
0100
0100
,
2003
3000
0200
0300
,
1100
0000
0000
1001
0000
0000
0001
0000
0100
0000
1000
0000
0100
0000
0001
0000
,
0101
0000
0000
1001
0000
0000
1000
0000
0100
0000
0010
0000
0000
0000
0001
0000
,
0010
0000
0000
0100
0000
0000
1000
0000
0001
0000
0100
0000
0010
0000
1000
0000
,
0001
0000
0000
0010
0000
0000
0200
0000
1000
0000
0000
0000
1300
0000
0000
0000
,
1100
1000
0001
0100
0010
1000
0100
0010
,
0001
0000
0100
0000
0001
0000
0010
0000
0100
0000
1000
0000
0001
1000
0001
1000
,
0001
0000
0000
0101
0000
0000
0100
0000
0010
0000
1000
0000
0001
0000
0010
0000
,
0011
0000
0000
1001
0000
0000
1000
0000
0010
0000
0100
0000
0000
0000
0001
0000
,
0100
0000
0000
0010
0000
0000
1000
0000
0001
0000
0010
0000
0100
0000
1000
0000
,
0100
0000
0000
0010
0000
0000
0002
0000
1000
0000
0000
0000
1003
0000
0000
0000
,
1001
0001
0100
0010
1000
0100
0010
0001
,
1000
0001
0010
0100
0010
0001
1000
0000
,
2001
0000
0001
0000
0001
0000
3001
1000
,
0020
0000
0230
0000
0301
0100
0020
0000
,
2030
0000
3002
0000
0013
0100
1000
0000
,
1100
0100
1000
0001
0100
0010
1000
0010
,
0200
0302
2003
3100
,
1100
0000
2010
0000
3001
0000
0001
0020
,
0000
0130
1000
0100
0010
0001
1000
0020
,
1030
0000
2100
0000
3001
0000
0100
0020
,
0000
1030
0001
0010
0100
1000
0100
0010
,
0001
0100
0001
0010
0100
1000
0001
2000
,
0000
3010
0100
0002
0000
1003
0100
0010
,
1000
0010
0100
1000
0001
0100
0010
0001
,
0010
0000
0000
1000
0000
0000
0001
0000
0010
0000
0100
0000
1000
0100
1000
0100
,
1000
0001
0100
0010
1000
0001
0010
0100
,
2000
0000
0000
0000
3100
0000
0000
0000
0020
0000
0000
0000
0031
0010
0001
0010
,
0001
0000
0000
1001
0000
0000
0001
0000
0100
0000
1000
0000
0100
0000
0001
0000
,
1000
0000
0000
1001
0000
0000
0001
0000
0010
0000
0100
0000
0000
0000
1000
0000
,
0200
0000
0000
0320
0000
0000
0032
0000
0000
0003
0100
0000
0010
0000
1000
0001
,
1000
0000
0000
0100
0000
0000
0010
0000
0001
0000
0100
0000
0010
0000
1000
0000
,
1010
1000
0100
0001
0100
1000
0010
0001
,
0010
0100
0001
1000
0100
0010
0001
0000
,
0011
2020
0000
3030
0000
0000
0000
0000
;
