#TITLE:scaPEGoat;
#SUBTITLE:終わりのセラフ;
#ARTIST:SawanoHiroyuki[nZk] feat. Yosh;
#TITLETRANSLIT:Scapegoat;
#SUBTITLETRANSLIT:Owari no Seraph;
#ARTISTTRANSLIT:SawanoHiroyuki[nZk] Feat. Yosh;
#GENRE:Anime;
#CREDIT:Itsugo & Jubo;
#BANNER:scaPEGoat-bn.png;
#BACKGROUND:scaPEGoat-bg.png;
#JACKET:scaPEGoat-Jacket.png;
#LYRICSPATH:scaPEGoat.lrc;
#CDTITLE:Collab.png;
#MUSIC:scaPEGoat.ogg;
#OFFSET:1.395;
#SAMPLESTART:56.999;
#SAMPLELENGTH:30.000;
#SELECTABLE:YES;
#LISTSORT:;
#DISPLAYBPM:156.000;
#BPMS:0.000=156.000,124.000=39.000,131.000=78.000,133.000=156.000;
#STOPS:;
#TICKCOUNT:0.000=6;
#BGCHANGES:3.125=scaPEGoat.avi=1.000=1=0=0,
213.000=scaPEGoat-bg.png=1.000=1=0=0,
99999=-nosongbg-=1.000=0=0=0 // don't automatically add -songbackground-
;
#KEYSOUNDS:;
#ATTACKS:;

//---------------dance-single - Jubo----------------
#NOTES:
     dance-single:
     Jubo:
     Beginner:
     1:
     0.092,0.229,0.118,0.183,0.000:
0000
0000
0000
0000
,
0000
0000
0000
0000
,
0000
0000
0000
0000
,
1000
0000
0000
0000
,
0000
0000
0000
0000
,
0001
0000
0000
0000
,
0000
0000
0000
0000
,
1001
0000
0000
0000
,
0000
0000
0000
0000
,
1001
0000
0000
0000
,
0000
0000
0000
0000
,
0110
0000
0000
0000
,
0000
0000
0000
0000
,
0110
0000
0000
0000
,
0000
0000
0000
0000
,
1001
0000
0000
0000
,
0000
0000
0000
0000
,
0001
0000
0000
0000
,
0000
0000
0000
0000
,
0100
0000
0000
0000
,
0000
0000
0000
0000
,
0010
0000
0000
0000
,
0000
0000
0000
0000
,
2000
0000
0000
0000
,
3000
0000
0000
0000
,
0002
0000
0000
0000
,
0003
0000
0000
0000
,
0200
0000
0000
0000
,
0300
0000
0000
0000
,
0020
0000
0000
0000
,
0030
0000
0000
0000
,
2002
3003
0110
0000
,
1001
0000
0220
0330
,
0000
1001
0000
0000
,
0000
0000
0000
0000
,
0000
2000
0000
0000
,
3000
0000
0000
0000
,
0000
0020
0000
0000
,
0030
0000
0000
0000
,
0000
0200
0000
0000
,
0300
0000
0000
0000
,
0000
1001
0000
0000
,
0000
0000
0000
0000
,
0000
0002
0000
0000
,
0003
0000
0000
0000
,
0000
2000
0000
0000
,
3000
0000
0000
0000
,
0000
0020
0000
0030
,
0000
0200
0000
0300
,
0000
0020
0000
0000
,
0000
0000
0000
0000
,
0030
1000
0000
0001
,
0000
1000
0000
0020
,
0000
0030
0000
0000
;

//---------------dance-single - Jubo----------------
#NOTES:
     dance-single:
     Jubo:
     Medium:
     5:
     0.331,0.401,0.398,0.075,0.016:
0000
0000
0000
0000
,
0000
0000
0000
0000
,
0000
0000
0000
0000
,
1001
0000
1000
0000
,
0001
0000
0101
0000
,
0100
0000
0110
0000
,
0010
0000
1010
0000
,
1001
0000
0001
0000
,
1000
0010
0100
0010
,
1000
0000
1000
0000
,
0001
0100
0010
0100
,
0001
0000
0001
0000
,
1000
0010
0100
0100
,
0010
1000
0001
1000
,
1000
0001
0001
0100
,
1001
0001
0101
0010
,
1000
1000
0110
0001
,
1000
0010
1100
0010
,
0001
0001
1010
0100
,
0001
1000
0101
0010
,
1000
1000
0011
0100
,
0010
0100
1001
0010
,
0001
1000
0110
0010
,
1000
0100
0001
0100
,
1000
0000
0010
0100
0000
0100
0010
0000
,
1000
0010
0001
0010
,
1000
0000
0100
0010
0000
0010
0100
0000
,
0001
0100
1000
0100
,
0001
0000
1000
0001
0000
0001
1000
0000
,
0001
0000
0000
0000
0110
0000
0000
1000
,
0000
0000
0001
1000
0000
1000
0001
0000
,
1001
0000
0100
0000
0000
0010
0000
0000
1001
0000
0010
0000
0000
0100
0000
0000
,
1001
0000
0010
0000
0000
0100
0000
0000
1001
0000
0004
0000
2003
0000
0000
0000
,
0000
3001
0000
1010
,
0000
0100
0000
0000
0001
0000
0110
0000
,
0000
1000
0000
0101
,
0000
0010
0000
0000
1000
0000
0110
0000
,
0000
1001
0000
0101
,
0000
1000
0000
0000
0010
0000
1100
0000
,
0000
0001
0000
0100
,
0000
1000
0000
0200
,
0000
0301
0000
0110
,
0000
0001
0000
0000
1000
0000
0101
0000
,
0000
1001
0000
1100
,
0000
0010
1000
0011
,
0000
1001
0000
1010
,
0000
0001
0000
0000
0100
0000
0110
0000
,
0110
0020
0100
0130
,
0200
0010
0310
2000
,
0001
3001
0000
1001
,
0100
0010
0000
0010
0100
0000
1001
0000
,
0000
0000
1000
1000
0000
0000
0001
0001
,
0000
0100
0000
0010
0010
0000
0100
0200
,
0000
0300
0000
0000
;

//---------------dance-single - Jubo----------------
#NOTES:
     dance-single:
     Jubo:
     Hard:
     7:
     0.509,0.716,0.452,0.194,0.054:
0000
0000
0000
0000
,
0000
0000
0000
0000
,
0000
0000
0000
0000
,
1010
0000
0010
1000
0010
0100
0000
0100
,
0000
0001
0000
1000
0020
0000
0030
0000
,
0101
0000
0100
0001
0100
0010
0000
0010
,
0000
1000
0000
0001
0200
0000
0300
0000
,
1001
0000
0010
0001
0010
0100
0010
0001
,
0000
0010
0000
0100
0010
0000
0000
0000
,
0101
0000
1000
0010
1000
0100
1000
0001
,
0000
0010
0000
0100
1000
0000
0000
0000
,
1010
0000
0100
1000
0100
0010
0100
1000
,
0000
0100
0000
0010
0001
0000
0000
0000
,
0110
0000
0001
0100
0001
0010
0001
1000
,
0000
0010
0000
0100
0001
0000
1000
0001
,
1001
0000
1000
0000
0001
0000
0100
0010
,
1000
0010
1000
0000
0110
0000
0100
0000
,
1001
0000
0010
0000
1100
0000
0010
1000
,
0001
1000
0001
0000
1010
0000
0100
0000
,
1001
0000
0010
0000
0101
0000
0010
0001
,
1000
0001
1000
0000
0011
0000
0100
0000
,
1010
0000
0100
0000
1001
0000
0010
1000
,
0001
1000
0100
0000
0011
0000
2000
0000
,
3001
0000
0100
0000
1000
0000
0100
0010
,
0000
0010
1000
0100
0000
0010
0002
0000
,
1003
0000
0010
0000
0001
0000
0010
0100
,
0000
0100
0001
0010
0000
0100
2000
0000
,
3001
0000
0100
0000
1000
0000
0100
0001
,
0000
0001
1000
0010
0000
0100
0002
0000
,
1003
0000
2000
0000
3001
0000
1000
0001
,
0000
1000
0001
0100
0000
0010
1000
0000
,
1001
0000
0000
0000
0110
0000
0000
0000
0000
0000
0010
1000
0000
0001
0100
0000
1001
0000
0000
0000
0110
0000
0000
0000
0000
0000
1010
0000
0000
0101
0000
0000
,
1001
0000
0000
0000
0110
0000
0000
0000
0000
0000
0100
0001
0000
1000
0010
0000
1001
0000
0000
0000
0004
0000
0000
0000
2003
0000
0000
0000
3200
0000
0000
0000
,
0320
0032
1003
0000
0010
0000
1010
0000
,
0100
0001
0000
0001
1000
0000
0010
1000
,
0001
0100
0000
0100
0001
0000
1010
0000
,
0001
0100
0002
0000
0023
0000
0230
0000
,
2300
0000
3001
0000
1000
0001
0101
0000
,
1000
0010
0000
0100
0001
0000
0010
0001
,
0100
0010
0000
0010
1000
0000
0100
0000
,
0001
0000
0100
1000
0010
0100
0001
0010
,
0100
1000
0001
0000
1000
0000
0110
0000
,
0100
0001
0000
1000
0010
0000
0101
0000
,
1000
0011
0100
1010
,
1000
0001
0100
0010
0100
0001
0010
0000
,
0001
1000
1001
0000
0010
0100
0110
0000
,
0001
1000
0000
0010
0100
0000
0110
0000
,
1001
0000
0001
0010
0100
1000
0100
0001
,
0100
1000
0100
0010
0001
0100
0010
1000
,
0100
0010
0002
0000
0003
0000
1001
0000
,
0100
0010
0000
0010
0100
0000
1001
1001
,
0000
0000
1000
0010
0000
0000
0100
0001
,
0000
0100
0110
0110
0010
0000
1000
0002
,
0000
0003
0000
0000
;

//---------------dance-single - Itsugo15----------------
#NOTES:
     dance-single:
     Itsugo15:
     Challenge:
     10:
     0.643,0.946,0.883,0.301,0.140: // measure 1
0000
0000
0000
0000
,  // measure 2
0000
0000
0000
0000
,  // measure 3
0000
0000
0000
0000
,  // measure 4
1001
0000
0001
0000
0101
0000
0100
0110
,  // measure 5
0000
0100
0101
0000
1001
0000
0001
0010
,  // measure 6
0011
0000
0010
0000
0110
0000
0100
1100
,  // measure 7
0000
0100
0110
0000
0011
0000
0001
1000
,  // measure 8
0020
0000
1000
0230
,  // measure 9
0302
0023
0100
2030
,  // measure 10
0000
3010
0001
1000
0100
0000
0100
1000
,  // measure 11
0002
0100
0203
0320
,  // measure 12
1030
0001
0010
0100
1000
0000
1000
0001
,  // measure 13
0000
0001
0100
0010
2000
0000
3002
0000
,  // measure 14
0010
0000
2003
0000
3010
0000
0100
0002
,  // measure 15
0000
0000
0000
0000
0000
0000
0013
0000
0000
0000
0000
0000
0200
0000
0000
0000
0000
0000
0000
0000
0000
0000
0000
0000
1300
0000
0000
0000
0000
0000
0000
0000
0000
0000
0000
1000
0100
0000
0000
0000
0000
0000
0000
0000
0000
0000
0000
0000
,  // measure 16
1001
0000
0001
0000
0101
0000
0100
0010
,  // measure 17
0000
0010
1000
0000
1010
0000
0010
1000
,  // measure 18
0100
0000
0010
0000
0110
0000
0100
1000
,  // measure 19
0000
0001
0100
0000
0101
0000
0100
0010
,  // measure 20
1000
0000
0001
0000
1001
0000
0001
0010
,  // measure 21
0000
0010
0100
0000
0110
0000
0100
1000
,  // measure 22
0001
0000
0100
0001
0101
0000
0100
0010
,  // measure 23
0000
0110
0000
0010
1010
0000
1000
0000
,  // measure 24
2001
0000
3001
0010
0011
0000
0001
2001
,  // measure 25
0000
3010
1010
0000
0110
0000
0100
0001
,  // measure 26
0102
0000
1003
0100
1200
0000
0310
0110
,  // measure 27
0000
0100
1000
0000
1100
0000
0001
0100
,  // measure 28
0101
0000
0100
0010
0110
0000
1000
1001
,  // measure 29
0000
0001
0011
0000
0110
0000
0100
1000
,  // measure 30
1100
0000
1000
0001
0011
0000
0001
1001
,  // measure 31
0000
0001
1000
0000
1010
0010
0100
0001
,  // measure 32
0101
0000
0000
0000
0001
0000
0000
0100
0000
0010
1000
0000
0001
0010
0100
0000
0110
0000
0000
0000
0010
0000
0000
0001
0000
1000
0010
0000
0100
0001
1000
0100
,  // measure 33
1100
0000
0000
0000
1000
0000
0000
0010
0000
0100
0001
0000
1000
0100
0010
0001
0011
0000
0000
0010
0100
1000
0001
0000
0200
0000
0000
0000
0020
0000
0000
0000
,  // measure 34
2000
0000
0002
3333
1111
0000
0000
0000
1000
0000
0010
0000
1010
0000
0000
0000
,  // measure 35
1000
1001
0000
0001
0011
0000
0110
0100
,  // measure 36
1000
0000
1100
1000
0001
0100
0101
0000
,  // measure 37
1000
0000
0000
0000
0000
0000
0010
0000
0000
0000
0000
0000
0010
1000
0000
0000
0000
0000
0000
0000
0000
0000
0000
0000
0001
0010
0000
0000
0000
0000
0000
0000
0000
0000
0000
0000
0100
1000
0000
0000
0000
0000
0000
0000
0000
0000
0000
0000
,  // measure 38
0001
0100
0000
0000
0000
0000
0000
0000
0000
0000
0000
0000
1001
0000
0000
0000
0000
0000
0000
0000
0000
0000
0000
0000
0001
0000
0000
0000
0000
0000
0010
0000
0000
0000
0000
0000
0011
0000
0000
0000
0000
0000
0000
0000
0000
0000
0000
0000
,  // measure 39
1000
1100
0000
0100
0110
0000
0011
0001
,  // measure 40
2000
0000
3010
0100
0001
1000
1001
0000
,  // measure 41
0001
0010
0011
0001
0100
0010
0010
0100
,  // measure 42
0100
0001
0101
0000
0001
1000
1001
0000
,  // measure 43
1000
1010
0000
0001
0101
0000
0110
0000
,  // measure 44
0010
1000
2010
0000
0001
3001
1001
0000
,  // measure 45
1000
1100
0100
1000
0001
0100
0101
0001
,  // measure 46
1000
0010
1010
0000
1000
0001
1001
0000
,  // measure 47
0001
0011
0000
1000
1100
0000
0110
0000
,  // measure 48
1001
1000
0001
0101
0100
0010
0110
0100
,  // measure 49
0001
0000
1000
0000
0100
0000
0010
0001
0010
0000
0100
0000
1000
0000
1000
0000
,  // measure 50
0001
0001
1001
0000
0001
0100
0101
0000
,  // measure 51
1000
1100
0000
0001
0011
0000
1000
2020
,  // measure 52
0030
3001
1001
0000
1000
0001
0101
0000
,  // measure 53
0100
0110
0010
1000
2020
0030
0010
0002
,  // measure 54
0000
3003
M00M
0000
0000
0000
0000
0000
;

//---------------dance-single - Itsugo15----------------
#NOTES:
     dance-single:
     Itsugo15:
     Easy:
     3:
     0.143,0.229,0.108,0.011,0.000:
0000
0000
0000
0000
,
0000
0000
0000
0000
,
0000
0000
0000
0000
,
1001
0000
0001
0000
,
0000
0000
0001
0000
,
1001
0000
1000
0000
,
0000
0000
1000
0000
,
0010
0000
0000
0000
,
0100
0000
0000
0000
,
0001
0000
0000
0000
,
1000
0000
0000
0000
,
0100
0000
0000
0000
,
0010
0000
0000
0000
,
0001
0000
0000
0000
,
0100
0000
0000
0000
,
0101
0000
0001
0000
,
0000
0000
1000
0000
,
0000
0000
0100
0000
,
0000
0000
0010
0000
,
0000
0000
0001
0000
,
0000
0000
1000
0000
,
0000
0000
0010
0000
,
0000
0000
0100
0000
,
0110
0000
0100
0000
,
0000
0000
0001
0000
,
0000
0000
1000
0000
,
0000
0000
0100
0000
,
0000
0000
0010
0000
,
0000
0000
0001
0000
,
0000
0000
1000
0000
,
0000
0000
0010
0000
,
1010
0000
0000
0010
0100
0000
0000
0001
,
1000
0000
0000
0100
0010
0000
0001
0000
,
1000
1001
0000
0001
,
0000
0001
0000
0100
,
0000
0010
0000
0010
,
0000
1000
0000
0001
,
0000
1001
0000
1000
,
0000
0100
0000
0010
,
0000
0001
0000
1000
,
0000
0010
0000
0100
,
0000
0110
0000
0100
,
0000
0001
0000
1000
,
0000
0100
0000
0010
,
0000
0001
0000
1000
,
0000
1001
0000
0001
,
0000
0100
0000
0010
,
0000
1000
0000
0010
,
0000
0100
0000
0001
,
0000
0101
0000
0001
,
0000
1000
0000
0100
,
0000
0010
0000
0001
,
0000
1000
0000
0000
0010
0000
0000
0200
,
0000
0300
0000
0000
0000
0000
0000
0000
;
