#TITLE:ego-izm;
#SUBTITLE:M3 ~ソノ黒キ鋼~;
#ARTIST:la la larks;
#TITLETRANSLIT:Ego-izm;
#SUBTITLETRANSLIT:M3 ~Sono Kuroki Hagane~;
#ARTISTTRANSLIT:La La Larks;
#GENRE:Anime;
#CREDIT:Itsugo & NXC-Production;
#BANNER:ego-izm-bn.png;
#BACKGROUND:ego-izm-bg.png;
#JACKET:ego-izm-Jacket.png;
#LYRICSPATH:ego-izm.lrc;
#CDTITLE:Collab.png;
#MUSIC:ego-izm.mp3;
#OFFSET:-0.224;
#SAMPLESTART:32.534;
#SAMPLELENGTH:12.000;
#SELECTABLE:YES;
#LISTSORT:;
#BPMS:0.000=188.000;
#STOPS:;
#TICKCOUNT:0.000=6;
#BGCHANGES:-1.750=ego-izm.avi=1.000=1=1=0,
264.000=ego-izm-bg.png=1.000=1=1=0,
99999=-nosongbg-=1.000=0=0=0 // don't automatically add -songbackground-
;
#KEYSOUNDS:;
#ATTACKS:;

//---------------dance-single - NXC-Production----------------
#NOTES:
     dance-single:
     NXC-Production:
     Beginner:
     1:
     0.071,0.182,0.000,0.011,0.000:
0000
0000
0000
0000
,
0000
0000
0000
0000
,
0000
0000
0000
0000
,
0000
0000
0000
0000
,
1000
0000
0000
0000
,
0000
0000
0000
0000
,
0001
0000
0000
0000
,
0000
0000
0000
0000
,
0100
0000
0000
0000
,
0000
0000
0000
0000
,
0010
0000
0000
0000
,
0000
0000
0000
0000
,
0100
0000
0000
0000
,
0000
0000
0000
0000
,
0001
0000
0000
0000
,
0000
0000
0000
0000
,
1000
0000
0000
0000
,
0000
0000
0000
0000
,
1000
0000
0000
0000
,
0000
0000
0000
0000
,
0001
0000
0000
0000
,
0000
0000
0000
0000
,
0010
0000
0000
0000
,
0000
0000
0000
0000
,
0100
0000
0000
0000
,
0000
0000
0000
0000
,
1000
0000
0000
0000
,
1000
0000
0000
0000
,
1000
0000
0000
0000
,
1000
0000
0000
0000
,
0001
0000
0000
0000
,
0001
0000
0000
0000
,
0001
0000
0000
0000
,
0001
0000
0000
0000
,
0100
0000
0000
0000
,
0100
0000
0000
0000
,
0100
0000
0000
0000
,
0100
0000
0000
0000
,
0010
0000
0000
0000
,
0010
0000
0000
0000
,
0020
0000
0000
0000
,
0000
0000
0000
0000
,
0030
0000
0000
0000
,
0000
0000
0000
0000
,
0100
0000
0000
0000
,
0000
0000
0000
0000
,
0001
0000
0000
0000
,
0000
0000
0000
0000
,
1000
0000
0000
0000
,
0000
0000
0000
0000
,
0100
0000
0000
0000
,
0100
0000
0000
0000
,
0100
0000
0000
0000
,
0100
0000
0000
0000
,
0010
0000
0000
0000
,
0010
0000
0000
0000
,
0001
0000
0001
0000
,
0001
0000
0001
0000
,
0001
0000
0000
0000
,
0000
0000
0000
0000
,
0100
0000
0000
0000
,
0000
0000
0000
0000
,
0010
0000
0000
0000
,
0000
0000
0000
0000
,
0100
0000
0000
0000
,
0000
0000
0000
0000
0000
0000
0000
0001
;

//---------------dance-single - NXC-Production----------------
#NOTES:
     dance-single:
     NXC-Production:
     Easy:
     3:
     0.183,0.328,0.066,0.077,0.000:
0000
0000
0000
0000
,
0000
0000
0000
0000
,
0000
0000
0000
0000
,
0000
0000
0000
0000
,
1000
0000
0000
0000
,
0100
0000
0000
0000
,
0010
0000
0000
0000
,
0001
0000
0000
0000
,
1000
0000
1000
0000
,
1000
0000
0000
0000
,
0001
0000
0001
0000
,
0001
0000
0000
0000
,
0100
0000
0100
0000
,
0100
0000
0000
0000
,
0020
0000
0000
0000
,
0000
0000
0000
0000
,
1030
0000
1000
0000
,
1000
0000
0001
0000
,
0001
0000
0010
0000
,
0010
0000
0100
0000
,
0100
0000
1000
0000
,
1000
0000
0001
0000
,
1000
0000
1000
0000
,
1000
0000
0001
0000
,
1001
0000
0000
0000
,
0110
0000
0000
0000
,
0100
0000
0100
0000
,
0100
0000
0010
0000
,
0010
0000
1000
0000
,
2000
0000
3000
0000
,
0001
0000
0001
0000
,
0001
0000
0010
0000
,
0010
0000
0100
0000
,
1000
0000
0001
0000
,
1001
0000
1000
0000
,
0010
0000
0100
0000
,
0010
0000
1000
0000
,
0002
0000
0000
0000
,
1003
0000
1000
0000
,
1000
0000
0100
0000
,
0010
0000
0010
0000
,
0001
0000
0001
0000
,
0011
0000
0000
0000
,
0001
0000
0000
0000
,
1001
0000
0000
0000
,
1000
0000
0000
0000
,
0010
0000
0010
0000
,
0010
0000
1000
0000
,
0001
0000
1000
0000
,
0001
0000
0000
0000
,
1001
0000
0000
0000
,
0001
0000
0001
0000
,
0010
0000
0000
0000
,
0100
0000
0000
0000
,
1000
0000
1000
0000
,
0010
0000
0100
0000
,
0002
0000
2003
0000
,
3200
0000
0320
0000
,
0031
0000
0001
0000
,
1000
0000
1000
0000
,
0001
0000
0100
0000
,
0010
0000
0010
0000
,
1000
0000
0010
0000
,
0100
0000
0001
0000
,
1000
0000
0100
0000
,
0010
0000
0000
0000
0001
0000
0000
1000
;

//---------------dance-single - NXC-Production----------------
#NOTES:
     dance-single:
     NXC-Production:
     Medium:
     5:
     0.348,0.401,0.155,0.199,0.011:
0000
0000
0000
0000
,
0000
0000
0000
0000
,
0000
0000
0000
0000
,
0000
0000
0000
0000
,
0001
0100
0010
1000
,
0000
0001
0000
0000
1000
0000
0000
0010
,
0000
0100
0010
0100
,
0000
0010
0000
0000
0100
0000
0001
0000
,
0200
0000
0000
0310
0000
0000
1000
0000
,
0000
0000
0000
0000
0000
1000
0000
0002
,
0000
0000
0003
0000
,
0000
0000
1000
1000
,
0001
0000
0000
1000
0000
0000
0001
0000
,
0000
0000
0000
0000
0000
0100
0000
0100
,
0000
0020
0000
0000
,
0000
1030
0000
0000
0001
0000
0000
0000
,
1000
1000
0100
0100
,
0010
0010
0001
0001
,
1000
0100
0010
0002
,
0000
1000
0000
1003
,
0010
0100
0010
2000
,
0000
0001
0000
0001
,
3001
0100
0001
0002
,
0000
2003
0000
0000
,
3100
0000
0000
0010
0000
0000
0110
0000
0000
0000
0010
0000
0000
0001
0000
0000
,
0011
0000
0002
0000
,
1003
0100
0000
1000
0000
0000
0010
0000
,
1000
0100
0010
0001
,
0002
0000
1003
0001
,
0200
0000
0000
0301
,
1000
0001
0000
0100
0000
0000
0001
0000
,
0010
0100
1000
0100
,
2000
0000
0000
3001
0000
0100
0000
0101
,
0000
0000
0001
1001
,
1001
0000
0000
0001
0000
0000
0010
0000
,
0100
0000
0100
1000
,
0001
0000
1000
0001
,
2000
0000
0000
3001
,
1000
0001
0010
0200
,
0300
1000
0100
0010
,
0002
0000
0000
2003
0000
0000
3001
0000
,
0000
0000
0001
1001
,
1001
0000
0000
1000
0000
0000
0100
0000
,
0100
0000
0010
0110
,
0110
0000
0010
0001
,
0001
0000
1000
1001
,
1001
0000
1000
0010
,
0100
0000
0001
1000
,
0001
0010
0100
1000
,
0001
0000
0000
1000
0000
0000
0001
0000
,
1001
0000
0000
0001
0000
0000
0010
0000
,
0010
0000
0001
0100
,
0010
0000
0010
1000
,
0002
0000
0000
1003
,
0001
0001
0100
0100
,
0000
0010
0010
1000
,
0001
0001
0010
0100
,
1000
0000
0001
0000
2000
0000
0000
0002
,
3003
0001
0010
0100
,
1000
0001
0100
0100
,
0000
0010
0000
0000
0010
0000
0000
1000
,
0000
0001
0000
0000
0010
0000
0000
0100
,
0000
1000
0000
0000
1000
0000
0010
0000
,
0000
1000
0000
0000
0001
0000
0010
0000
,
0000
0001
0000
0000
0100
0000
0000
0110
,
0000
0010
1000
0000
1000
0001
0000
1001
;

//---------------dance-single - NXC-Production----------------
#NOTES:
     dance-single:
     NXC-Production:
     Hard:
     7:
     0.533,0.620,0.133,0.332,0.105:
0000
0000
0000
0000
,
0000
0000
0000
0000
,
0000
0000
0000
0000
,
0000
0000
0000
0000
,
0000
1000
0100
1000
0100
0010
0001
0010
,
0000
0001
0010
0001
0010
0100
1000
0100
,
0000
1000
0100
0010
0001
0100
0010
0100
,
0000
0001
0100
0000
0010
0100
0001
1000
,
0002
0000
0000
2003
0000
0000
3200
0000
,
0300
0000
0000
0000
0000
1000
0001
0020
,
0000
0000
0000
0000
,
0031
0000
0000
0000
0000
0000
0000
0000
1000
0000
0000
0100
0000
0000
0001
0000
,
0100
0000
1000
0100
0000
0010
0002
0000
,
0003
0000
0000
0000
0000
0001
0100
0020
,
0000
2030
0000
0000
,
3000
0001
0100
0000
0010
1000
0000
0000
,
0010
1000
1000
0100
,
0100
0010
0010
0001
,
0001
0000
1000
1000
0000
0100
0020
0000
,
0001
0000
0001
0000
0000
0031
1000
0001
,
1000
0000
1000
0010
0000
0100
0002
0000
,
1000
0000
1000
0000
0000
0103
0010
0100
,
0010
0010
0000
1000
1000
0000
0001
0001
,
0000
0000
1000
0001
1000
0000
0010
1000
0010
0000
0100
0001
0100
0000
0000
0000
,
0001
0000
0000
0101
0000
0000
1001
0000
0000
0000
1100
0000
0000
1001
0000
0000
,
1001
0002
0203
0310
,
0010
1000
0000
1000
0000
1000
0100
0000
,
0010
0000
0000
0000
0001
0000
0000
0000
0100
0000
0000
0100
0000
0000
0100
0000
,
0010
0000
0000
0000
1000
0000
0000
0000
0010
0000
0000
0010
0000
0000
0010
0000
,
0200
0000
0000
0001
0000
0000
0301
0000
,
0001
0010
0000
1000
0000
0010
0001
0000
,
1000
2000
3200
0310
,
0001
0000
1000
0010
0000
0100
0000
0002
,
0000
0000
0000
0000
0000
0000
1003
0000
0100
0000
0000
0010
0000
0000
0001
0000
,
0200
0000
0000
0302
0000
0000
2003
0000
,
0000
0000
0000
0000
0000
0000
0000
0000
3001
0000
0000
0100
0000
0000
0001
0000
,
0020
0000
0000
0000
0000
0000
0000
0000
0031
0000
0000
0100
0000
0000
0001
0000
,
2000
0000
0000
0000
0100
0000
3100
0010
,
0010
0001
0000
1000
0000
1000
0100
0000
,
0010
0001
0100
0010
,
1000
0000
0001
0000
1000
0001
1000
0000
0001
0000
1000
0001
1000
0000
0001
0000
,
1000
0000
0000
0000
0001
0000
0010
0000
0100
0000
0000
1000
0000
0000
0001
0000
,
1000
0000
0000
2000
0000
0000
3200
0000
,
0300
0000
0000
0000
0000
0000
1000
0000
0100
0000
0000
0010
0000
0000
0110
0000
,
0200
0000
0000
0320
0000
0000
0032
0000
,
1000
1000
1000
1003
,
1001
0001
0000
1000
0000
0100
0010
0000
,
0001
1000
1000
0001
,
0100
0010
0000
1000
0000
1000
0100
0000
,
0010
0000
0001
0010
0001
0000
1000
0000
0010
0000
0000
0100
0000
0000
0001
0000
,
0101
0000
0000
0002
0000
0000
2003
0000
,
0010
0000
0000
0000
0000
0000
0000
0000
3001
0000
0000
1000
0000
0000
0001
0000
,
0020
0000
0000
0000
0100
0000
0000
0000
0130
0000
0000
1000
0000
0000
0100
0000
,
0020
0000
0000
0001
0000
0000
0130
0000
,
1000
0100
0000
0010
0000
0010
0001
0000
,
0010
0100
1000
0100
,
0010
0000
0001
0001
0001
0100
0100
0010
,
0010
1000
1000
0010
0020
0000
0000
1030
,
1010
1000
0001
0001
,
1000
0000
0001
0000
1000
0001
1000
0001
,
0000
1000
0000
0100
0000
0010
0000
0001
,
0000
1000
0010
0000
0100
0001
0000
1000
,
0000
1000
0100
0010
0001
0100
0010
0100
,
0000
0001
0010
0100
1000
0010
0100
0010
,
0000
1000
0001
0010
0001
1000
0100
1000
,
0000
1000
1010
0000
0100
0101
0000
1001
;

//---------------dance-single - NXC-Production----------------
#NOTES:
     dance-single:
     NXC-Production:
     Challenge:
     10:
     0.775,1.000,0.896,0.111,0.227: // measure 1
0000
0000
0000
0000
,  // measure 2
0000
0000
0000
0000
,  // measure 3
0000
0000
0000
0000
,  // measure 4
0000
0000
0000
0000
,  // measure 5
0100
0010
0001
1000
0100
0010
0001
1000
,  // measure 6
0000
0001
0100
1000
0100
0001
0100
0010
,  // measure 7
0000
0010
0010
1000
0001
0010
0001
0100
,  // measure 8
0000
0001
0001
0000
1000
1000
0001
0001
,  // measure 9
0020
0000
0000
0032
0000
0000
2000
0000
,  // measure 10
3003
0001
0010
0010
1000
0010
0001
0020
,  // measure 11
0100
0000
0000
0001
0000
0000
0130
1000
,  // measure 12
0000
0000
0001
0000
0010
0000
0000
0000
0010
0000
0001
0010
0100
0000
1000
0000
,  // measure 13
0001
0000
0100
0010
0000
0010
1000
0000
,  // measure 14
1000
0100
0010
0100
1000
0001
0010
0100
,  // measure 15
0000
2000
0000
0000
,  // measure 16
3001
1000
0100
0000
1000
0001
0000
0000
,  // measure 17
1001
0001
0001
0100
,  // measure 18
0100
0010
0010
0110
,  // measure 19
1001
0000
1000
0010
0000
0010
2000
0000
,  // measure 20
0001
0000
0001
0000
0001
3001
0100
0010
,  // measure 21
1000
0000
0010
0100
0000
0010
2000
0000
,  // measure 22
0001
0000
3100
0000
1000
0001
0100
0010
,  // measure 23
0110
0110
0000
1010
1010
0000
0101
0101
,  // measure 24
0001
0100
0010
0100
0001
0100
0001
1000
0001
1000
0100
1000
0100
0010
0100
1000
,  // measure 25
0001
0000
0000
1001
0000
0000
1001
0000
0000
0000
0110
0000
0000
1001
0000
0000
,  // measure 26
1001
0000
2000
0000
0020
3000
0200
0330
,  // measure 27
0110
0100
0000
0101
0000
0100
1010
0000
,  // measure 28
1000
0000
0000
0000
0100
0000
1100
0000
0100
0000
1000
0001
1000
0000
0001
0000
,  // measure 29
1001
0000
0000
0000
0001
0000
0011
0000
0010
0000
0100
1000
0100
0000
0010
0000
,  // measure 30
0110
0000
0100
1100
1000
0000
1000
0000
,  // measure 31
1001
1000
0000
0110
0000
0101
0001
0000
,  // measure 32
0010
0000
0100
1100
1000
0001
1000
0000
,  // measure 33
1001
0000
0001
0011
0000
0100
0000
1000
,  // measure 34
0100
0000
0000
0000
0010
0000
0110
0000
0100
0000
1000
0001
0010
0000
0001
0000
,  // measure 35
0011
0000
1000
0101
0000
0001
1100
0000
,  // measure 36
0101
0000
0000
0000
1000
0000
0101
0000
1000
0000
0100
0010
0001
0000
1000
0000
,  // measure 37
1001
0000
0000
0000
0001
0000
1001
0000
1000
0000
0010
0100
0010
0000
1000
0000
,  // measure 38
1010
0000
0000
0000
0100
0000
0000
0000
1001
0000
0000
1000
0100
0000
0010
0000
,  // measure 39
0001
1000
0000
1001
0000
0100
0010
0000
,  // measure 40
0100
0000
0001
1000
1001
0000
0001
0000
,  // measure 41
1000
0100
1000
0010
0100
0001
1000
0001
0100
0010
1000
0010
1000
0001
0100
0010
,  // measure 42
1000
0000
0010
1000
0010
0100
0001
0010
0100
0010
1000
0010
0100
0010
0001
1000
,  // measure 43
0010
0000
0000
0100
0000
0000
0001
0000
0100
0000
0010
1000
0000
0000
0001
0000
,  // measure 44
1000
0000
0000
1000
0100
0000
1100
0000
,  // measure 45
0110
0000
0000
0000
0010
0000
0001
0000
1000
0000
0000
0100
1000
0000
0001
0000
,  // measure 46
0100
0000
0100
0010
1000
0000
1010
0000
,  // measure 47
0110
0100
0000
0101
0000
0001
1000
0100
,  // measure 48
1000
0000
0001
1001
0100
0000
0010
0000
,  // measure 49
0110
1000
0000
0110
0000
0001
0010
0000
,  // measure 50
0100
0010
0001
0010
0001
0000
1000
0010
1000
0000
0000
0001
0010
0000
0100
0000
,  // measure 51
0110
0000
1000
0101
0000
1010
0001
0000
,  // measure 52
0100
0000
0000
0000
0010
0000
0101
0000
1000
0000
0100
0010
0001
0000
1000
0000
,  // measure 53
1001
0000
0000
0000
0001
0000
0101
0000
0100
0000
0010
1000
0001
0000
0010
0000
,  // measure 54
0011
0000
0001
1001
1000
0000
1000
0001
,  // measure 55
1100
1000
0000
0101
0000
0011
1000
0000
,  // measure 56
0100
0110
1001
0101
,  // measure 57
1010
0000
0011
0011
0011
0011
1100
1100
,  // measure 58
1100
1100
1001
1001
0110
0000
0000
0001
,  // measure 59
0101
0000
1000
0010
0001
1000
0100
0001
,  // measure 60
0000
1000
0100
0001
1000
0010
0001
0100
,  // measure 61
0000
0001
0100
1000
0100
0001
0010
0100
,  // measure 62
0000
1000
0100
0000
0100
0010
0000
0001
,  // measure 63
0011
1000
0100
0010
0001
1000
0010
0100
,  // measure 64
0000
0001
0100
0010
1000
0010
0100
0001
,  // measure 65
0000
1000
0100
1000
0100
0010
0001
0010
,  // measure 66
0000
0011
0011
0000
1100
1100
0000
1001
;

//---------------dance-single - M3----------------
#NOTES:
     dance-single:
     M3:
     Edit:
     11:
     0.851,1.000,0.974,0.686,0.255:
0000
0000
0000
0000
,
0000
0000
0000
0000
,
0000
0000
0000
0000
,
0000
1000
1000
0000
0001
0001
0000
1001
,
0000
0001
0100
0010
1000
0100
0010
0002
,
0000
0013
0100
1000
0001
0100
0010
2000
,
0000
3001
0010
0100
1000
0100
0010
0002
,
0000
1003
0010
0000
0100
0001
1000
0100
,
0020
0000
0000
0032
0000
0000
2003
0000
,
3001
0100
0010
1000
0001
0010
0100
1000
,
0100
0010
0000
0010
0001
0000
0001
1000
,
0010
0100
0002
0000
1003
0010
0000
1000
,
0100
0010
0001
1000
0010
0100
0001
2000
,
0000
3001
0010
0001
0100
0010
1000
0200
,
0000
1300
0001
0100
0010
1000
0001
0010
,
0000
0100
0200
0300
1000
2000
3000
0000
,
1100
0100
0100
0110
,
0010
0000
0000
0000
0001
0000
0000
0000
0011
0000
0000
0001
0000
0000
1000
0000
,
1001
0001
0101
0100
,
0010
0000
0000
0000
1000
0000
0000
0000
1010
0000
0000
1000
0000
0000
0001
0000
,
1001
1000
1100
0100
,
0010
0000
0001
0000
0011
0001
1001
0000
,
1010
1010
0000
0101
0101
0000
1001
0000
,
1000
0001
1000
0001
1000
0001
1000
0001
1000
0001
1000
0001
1000
0001
1000
0001
,
0100
0000
0000
0010
0000
0000
0110
0000
0000
0000
1010
0000
0000
1001
0000
0000
,
1101
0000
0000
0000
0200
0000
0000
0000
0020
0000
0000
0000
0002
0000
0000
0333
,
0111
0010
0000
0001
0000
0011
0001
0000
,
1001
0000
0000
0000
1000
0000
1010
0000
0010
0000
0000
0100
0000
0000
0001
0000
,
0101
0000
0000
0000
0200
0000
0000
0000
0310
0000
0000
1000
0000
0000
0001
0000
,
1001
0000
0001
0010
0100
0000
1000
0100
,
1100
1000
0000
0001
0000
0100
0101
0000
,
0001
0000
1001
1000
0000
0100
0010
0000
,
0110
0000
0010
0001
0000
0001
0010
0100
,
0110
0000
0000
1100
0000
0000
1000
0000
1001
0000
0000
0001
0000
0000
0100
0000
,
0110
0000
0010
1000
0000
1000
0001
0000
,
1001
0000
0000
0000
0001
0000
0011
0000
0010
0000
0000
0100
0000
0000
1000
0000
,
1100
0000
0000
0000
0200
0000
0000
0000
0310
0000
0000
0001
0000
0000
1000
0000
,
1001
0000
1000
0010
0100
0000
0001
0100
,
0101
0001
0000
1000
0000
0100
1100
0000
,
1000
1002
0203
0320
,
1030
0010
1000
0010
1000
0001
1000
0001
1000
0100
1000
0100
1000
0001
1000
0001
,
1000
0001
1000
0010
1000
0001
1000
0010
1000
0001
1000
0010
1000
0001
1000
0010
,
0100
0000
0000
0001
0000
0000
1000
0000
1001
0000
0000
1001
0000
0000
1100
0000
,
0110
0000
0000
0000
0000
0000
0010
0000
0001
0000
0000
1000
0000
0000
0010
0000
,
1010
0000
0000
0100
0000
0000
0001
0000
0101
0000
0000
0101
0000
0000
1010
0000
,
1001
0000
0001
0010
0100
0000
1100
0000
,
1001
0001
0000
0100
0000
0010
0110
0000
,
0101
0000
0002
0000
2003
0000
3200
0300
,
1100
1000
0000
1001
0000
0001
0100
0000
,
0010
1000
0001
1000
0000
0001
1000
0100
0010
0000
0000
0110
0000
0000
1001
0000
,
1101
0000
0001
0101
0000
1100
1000
0000
,
1001
0000
0000
0000
0001
0000
0101
0000
0100
0000
0000
0010
0000
0000
1000
0000
,
1010
0000
0000
0000
0020
0000
0000
0000
0130
0000
0000
0001
0000
0000
1000
0000
,
1001
0000
1000
0100
0010
0000
0001
0010
,
0011
0001
0000
1000
0000
0010
1010
0000
,
1000
1001
0011
1100
,
0110
0000
1001
1001
1001
1001
0101
1001
,
1100
1001
0101
1001
0220
0000
0000
0330
,
1001
1000
2000
3000
0001
0002
0003
2002
,
3003
0001
0100
0010
1000
0200
0320
0032
,
0000
0013
0100
2000
3002
0203
0320
2030
,
0000
3002
1003
0000
2000
3001
0000
1001
,
0000
2000
3020
0230
0302
0023
0230
2300
,
0000
3200
0320
0032
2003
3020
0230
0302
,
0000
2003
3200
0320
0032
0023
0230
2300
,
0000
3001
0101
0000
1000
1010
0000
2002
,
0000
0000
0000
0000
,
0000
0000
0000
0000
,
0000
3003
0000
0000
0000
0000
0000
0000
;
