#TITLE:aLIEz;
#SUBTITLE:アルドノア・ゼロ;
#ARTIST:SawanoHiroyuki[nZk] feat. mizuki;
#TITLETRANSLIT:Aliez;
#SUBTITLETRANSLIT:Aldnoah.Zero;
#ARTISTTRANSLIT:SawanoHiroyuki[nZk] Feat. Mizuki;
#GENRE:Anime;
#CREDIT:Huzure & Itsugo;
#MENUCOLOR:;
#BANNER:aLIEz-bn.png;
#BACKGROUND:aLIEz-bg.png;
#LYRICSPATH:aLIEz.lrc;
#CDTITLE:Collab.png;
#MUSIC:aLIEz.mp3;
#OFFSET:-0.584;
#SAMPLESTART:57.663;
#SAMPLELENGTH:20.600;
#SELECTABLE:YES;
#LISTSORT:;
#BPMS:0.000=198.000;
#STOPS:;
#TICKCOUNT:0.000=2;
#BGCHANGES:0.000=blank.bmp=1.000=1=1=0,
30.000=aLIEz.avi=1.000=1=0=0,
320.000=aLIEz-bg.png=1.000=1=0=0,
383.500=blank.bmp=1.000=1=1=0,
99999=-nosongbg-=1.000=0=0=0 // don't automatically add -songbackground-
;
#KEYSOUNDS:;
#ATTACKS:;

//---------------dance-single - Huzure----------------
#NOTES:
     dance-single:
     Huzure:
     Easy:
     5:
     0.369,0.506,0.154,0.138,0.000: // measure 1
0000
0000
0000
0000
,  // measure 2
0000
0000
0000
0000
,  // measure 3
0000
0000
0000
0000
,  // measure 4
0000
0000
0000
0000
,  // measure 5
1000
0000
0000
0000
0100
0000
0000
1000
,  // measure 6
0000
1000
0000
0000
0001
0000
0000
0000
,  // measure 7
0010
0000
0000
0000
0100
0000
0000
1000
,  // measure 8
0000
1000
0000
0000
0010
0000
0000
0000
,  // measure 9
0100
0001
0100
0001
,  // measure 10
0100
0000
0000
0001
0000
0000
0000
0000
,  // measure 11
1000
0010
1000
0010
,  // measure 12
1000
0000
0000
0010
0000
0000
0000
0000
,  // measure 13
0100
0010
0100
0010
,  // measure 14
0100
0000
0000
0010
0000
0000
0000
0000
,  // measure 15
1000
0001
1000
0001
,  // measure 16
1000
0000
0000
0001
0000
0000
0000
0000
,  // measure 17
0011
0000
0001
0000
,  // measure 18
1000
0010
0100
0100
,  // measure 19
0000
0000
0001
1000
,  // measure 20
0001
0100
0001
1000
,  // measure 21
0000
0100
0100
0010
,  // measure 22
0000
0001
0001
1000
,  // measure 23
0100
0010
0100
0010
,  // measure 24
0001
1000
0002
0000
,  // measure 25
1003
0000
0001
0010
,  // measure 26
0100
1000
0010
0100
,  // measure 27
0000
0000
0001
0100
,  // measure 28
0001
1000
0100
1000
,  // measure 29
0000
0000
0001
1000
,  // measure 30
0100
1000
0010
0100
,  // measure 31
0001
0001
0010
0010
,  // measure 32
0100
0000
0000
0100
0000
0000
0000
0000
,  // measure 33
1100
0000
1000
0000
1000
0000
0100
0010
,  // measure 34
0000
0000
0001
0000
0001
0000
0010
0100
,  // measure 35
0000
1000
1000
0010
,  // measure 36
0200
0000
0300
0002
0000
0000
0003
0000
,  // measure 37
0010
0000
0010
0000
0010
0000
0100
1000
,  // measure 38
0000
0000
0001
0000
0001
0000
0001
0100
,  // measure 39
0000
0010
0010
0100
,  // measure 40
0100
0000
0000
0200
0000
0000
0300
0000
,  // measure 41
0001
0000
1000
0000
0001
0000
1000
0001
,  // measure 42
0000
0000
1000
0000
0001
0000
1000
0001
,  // measure 43
0000
0010
0100
1000
,  // measure 44
0200
0000
0300
0020
0000
0000
0030
0000
,  // measure 45
0100
0000
1000
0000
0100
0000
1000
0100
,  // measure 46
0000
0000
0010
0000
0001
0000
0010
0002
,  // measure 47
0000
0000
0000
0000
0000
0000
0000
0003
,  // measure 48
0000
0000
0000
0000
,  // measure 49
1001
1000
0001
1001
,  // measure 50
0000
0000
0002
0000
0000
1003
0000
0000
,  // measure 51
0110
0100
0010
0110
,  // measure 52
0000
0000
2000
0000
0000
3010
0000
0000
,  // measure 53
0101
0001
0100
0101
,  // measure 54
0000
0000
0020
0000
0000
0031
0000
0000
,  // measure 55
1100
0100
1100
1000
,  // measure 56
1100
0000
0000
0000
0100
0000
1000
0001
,  // measure 57
1000
0100
0010
0001
,  // measure 58
0000
0000
0010
0000
0000
0100
0000
0000
,  // measure 59
1000
0100
0010
0001
,  // measure 60
0000
0000
0010
0000
0000
0100
0000
0000
,  // measure 61
1100
0100
0010
0001
,  // measure 62
0000
0000
2000
0000
0000
3010
0000
0000
,  // measure 63
0100
0010
1000
0010
,  // measure 64
0100
0000
0000
0001
0000
0000
1000
0000
,  // measure 65
1001
0001
0001
0000
,  // measure 66
0100
0000
0020
0000
0000
0130
0000
0000
,  // measure 67
0001
0010
0200
0000
,  // measure 68
1000
0000
1000
0000
0300
0100
0000
0000
,  // measure 69
0010
0001
2000
0000
,  // measure 70
0010
0000
0010
0000
0000
3000
1000
0000
,  // measure 71
0001
1000
0010
1000
,  // measure 72
0001
0000
0101
0000
,  // measure 73
1010
0010
0010
0000
,  // measure 74
1000
0000
0010
0000
0000
0010
0000
0000
,  // measure 75
0100
0001
0001
0000
,  // measure 76
0100
0000
0001
0000
0000
1000
0000
0000
,  // measure 77
0010
0100
0100
0000
,  // measure 78
0010
0100
0000
0001
,  // measure 79
1001
1000
1001
0001
,  // measure 80
1002
0000
0000
2003
0000
0000
3001
0000
,  // measure 81
1000
0000
0000
0100
0000
0000
0010
0000
,  // measure 82
0000
0001
0000
0000
1000
0000
0010
0000
,  // measure 83
1000
0000
0000
0001
0000
0000
0010
0000
,  // measure 84
0000
0100
0000
0000
1000
0000
0010
0000
,  // measure 85
0100
0000
0000
0001
0000
0000
0010
0000
,  // measure 86
0000
0001
0000
0000
0100
0000
0010
0000
,  // measure 87
1000
0000
0000
0100
0000
0000
1000
0000
,  // measure 88
0000
0001
0000
0000
0010
0000
0010
0000
,  // measure 89
0110
0000
0000
0000
0100
0000
0000
1000
,  // measure 90
0000
1000
0000
0000
0010
0000
0000
0000
,  // measure 91
0100
0001
0100
0001
,  // measure 92
0100
0000
0000
0001
0000
0000
0000
0000
,  // measure 93
0010
0100
0010
0100
,  // measure 94
0010
0000
0000
0100
0000
0000
0000
0000
,  // measure 95
1000
0001
1000
0001
,  // measure 96
1000
0000
0000
0002
0000
0000
0000
0003
;

//---------------dance-single - Huzure----------------
#NOTES:
     dance-single:
     Huzure:
     Medium:
     7:
     0.603,0.778,0.219,0.820,0.000:
0000
0000
0000
0000
,
0000
0000
0000
0000
,
0000
0000
0000
0000
,
0000
0000
0000
0000
,
1000
0000
0000
0001
1000
0000
0010
2000
,
0000
0100
0000
3100
1000
0000
0001
0000
,
0100
0000
0000
0010
0100
0000
0002
0010
,
0000
0010
0000
0013
0001
0000
1000
0010
,
2000
3200
0302
0203
,
2300
0000
3000
0002
0000
0000
0103
0000
,
0020
2030
3002
0203
,
0302
0000
0003
0020
0000
0000
0130
0000
,
2000
3020
2030
3020
,
2030
0000
3000
0020
0000
0000
0130
0000
,
0002
2003
3020
2030
,
3001
0010
0000
0010
0001
1000
0001
0000
,
0101
0000
0000
0100
0010
0000
1000
0010
,
1000
0000
0001
0100
0001
0000
1000
0000
,
0100
0000
0000
0100
0010
0000
0001
0100
,
0010
0000
1000
0100
0010
0000
0001
0000
,
1000
0000
0000
0010
1010
0000
1000
0001
,
0000
1000
0100
0010
0001
0000
0100
0000
,
0020
0230
0302
2003
,
3200
0320
0032
0000
,
1003
0000
0010
0100
0010
0000
1000
0001
,
0000
0100
0000
0001
1000
0000
0100
0000
,
0200
0000
0310
0001
0010
0000
0100
1000
,
0000
0010
0000
0010
0100
0000
0001
0000
,
1000
0000
0002
0203
,
2300
3200
0302
0203
,
0302
0023
0230
2300
,
3002
1000
0003
1000
1001
0000
0001
0000
,
0110
0000
0100
0000
0101
0000
0001
2000
,
0000
0000
3010
0000
0010
0000
1000
0020
,
0000
0000
0130
0010
1000
0000
0001
1000
,
0000
0100
0000
1000
0001
0000
0000
0000
,
0010
0000
0100
0000
1000
0000
0200
0010
,
0000
0010
0000
0310
0001
0000
1000
0001
,
0100
0000
0010
0100
0010
0000
0100
0001
,
0000
1000
0000
0001
0100
0000
0000
0000
,
0010
0000
1000
0000
0100
0000
1000
0020
,
0000
0000
0130
0000
0100
0000
0001
0010
,
0001
0000
1000
0100
1000
0000
0001
0100
,
0000
0001
0000
0100
0001
0000
1000
0100
,
0010
0000
0100
0000
0110
0000
0010
0001
,
0000
1000
0000
0100
1000
0000
0001
0000
,
0100
0010
0000
0010
1000
0000
1000
0001
,
0000
0000
0000
0000
,
2002
0003
0020
0030
0020
0030
0002
0000
,
3003
0000
0202
0000
0303
0220
0000
0330
,
2002
3000
0020
0030
2000
3000
0200
0000
,
0303
0000
2000
0000
0000
0002
3000
0000
,
0023
0100
1000
0200
,
0330
0000
2000
0000
0000
0020
3000
0000
,
1030
0010
1000
0100
,
0010
0001
0000
0000
1001
0000
1000
0001
,
0200
0000
0010
0000
0001
0000
0310
0100
,
0000
0001
0000
0100
0010
0000
0000
0000
,
0020
0000
0100
0000
1000
0000
0130
0010
,
0000
1000
0000
0001
0100
0000
0000
0000
,
0002
0000
0010
0000
0100
0000
1003
0001
,
0000
0100
0000
0000
0110
0000
0000
0000
,
0020
2030
3200
2300
,
3020
0000
1030
0100
1000
0100
1000
0100
,
1000
0000
1001
0000
0101
0000
0100
0010
,
0000
0010
0000
0010
1000
0000
0000
0000
,
0001
0000
0011
0000
1001
0000
1000
0010
,
0000
0100
0000
0010
1000
0000
0001
0100
,
0001
0000
2000
0000
0010
0000
3010
1000
,
0000
0100
0000
1000
0100
0000
0000
0000
,
0020
0130
0020
0130
,
2000
0000
3000
0010
0100
0001
0100
0001
,
0100
0000
0020
0000
2030
0000
3010
1000
,
0000
1000
0000
1000
0010
0000
0000
0000
,
0100
0000
0002
0000
0023
0000
0130
0010
,
0000
0010
0000
0010
0001
0000
0000
0000
,
1001
0000
2000
0000
3020
0000
0130
0001
,
0000
1000
0000
0010
0100
0000
0110
0000
,
0101
1001
1100
0011
,
0001
0000
0000
1000
0000
0000
0100
0000
,
0110
0000
0000
0010
0000
0000
0001
0000
,
0000
1000
0000
0100
0010
0001
0010
0000
,
0100
1000
0000
1000
0100
0000
0010
0100
,
0000
0110
0000
0010
0001
0000
0000
0000
,
1010
0000
0000
1000
0010
0000
0100
0010
,
0000
1000
0000
0010
0100
0000
0000
0000
,
0001
0000
0100
0000
0110
0000
0010
1000
,
0000
0000
1001
0000
0001
1000
0001
0010
,
0100
0000
1000
0100
0020
0000
0032
0000
,
2003
0000
3000
0200
0000
0000
0310
0000
,
0002
0023
2030
3020
,
0032
0000
0003
2000
0000
0000
3010
0000
,
0200
0302
2003
3002
,
0203
0000
0300
0002
0000
0000
1003
0000
,
0001
0000
1000
0001
1000
0000
0001
0010
,
0000
0001
0000
0010
0001
0010
0100
1000
;

//---------------dance-single - Orenji----------------
#NOTES:
     dance-single:
     Orenji:
     Edit:
     11:
     0.773,0.856,0.682,0.357,0.037:
0000
0000
0000
0000
,
0000
0000
0000
0000
,
0000
0000
0000
0000
,
0000
0000
0000
0000
,
0010
0000
1000
0100
1100
0000
1000
0001
,
0000
0001
0000
0100
0101
0000
0100
0000
,
0010
0000
1000
0001
0101
0000
0100
0001
,
0000
0110
0000
1000
1010
0000
0001
0010
,
0200
2300
3200
0320
,
0032
0000
0003
1000
1100
0000
0100
1000
,
0002
0203
2300
3200
,
0302
0000
0003
0100
0110
0000
0100
0010
,
2000
3002
0203
0302
,
2003
0000
3000
0001
0011
0000
0010
0100
,
1000
0100
0000
0100
0110
0000
0100
0100
,
0000
0000
0101
0000
0000
0000
0100
1000
0100
0000
0010
0000
0001
0000
0010
0000
,
0011
0000
0000
0100
1100
0000
1000
0010
,
0100
0000
0001
0010
0100
0000
1000
0000
,
0001
1000
0000
0010
1010
0000
0010
1000
,
0100
0001
0100
1000
1001
0000
0001
0100
,
0001
1000
0000
1000
0101
0000
0001
0001
,
0000
0000
0100
0000
0010
0000
0100
0000
0201
0000
0000
0000
0301
0000
1000
0001
,
1000
0000
0000
0010
0120
0000
0100
0100
,
0000
2030
0000
3001
0002
0000
1003
0100
,
0020
0000
0031
1000
0100
0000
0010
0001
,
0000
0001
0000
0000
1010
0010
0100
0001
,
1000
0100
1000
0100
1010
0000
0001
0100
,
0000
0000
0100
0000
0010
0000
1000
0000
1001
0000
0000
0000
0001
0000
0100
0001
,
0100
0000
0010
1000
1010
0000
0010
0100
,
0000
0001
0000
0100
0110
0000
0100
0010
,
2000
0000
3100
0000
0200
0000
0310
0001
,
0000
0110
0000
1000
0110
0000
0001
1000
,
1001
0001
0100
0010
1010
0000
0010
1000
,
0000
0001
0010
0100
1000
0000
0100
0001
,
0100
1000
0000
0100
0011
0000
0010
0001
,
0100
1000
0100
0010
1001
0000
0001
1000
,
0100
0010
1000
0010
0021
0000
0001
0001
,
0000
0000
0031
0000
1000
0000
0100
0000
1100
0000
0000
0000
0100
0000
0010
0100
,
0010
0001
1000
0010
1010
0000
0010
0010
,
0000
1000
1000
0100
0200
0000
0310
0001
,
1000
0010
0100
1000
1100
0000
0100
0010
,
1000
0010
0100
0001
1001
0000
1000
0001
,
0100
0010
0000
0010
2001
0000
0001
0010
,
3000
1010
0000
0010
0110
0000
0100
0001
,
1000
0010
0000
1000
1100
0000
0100
0100
,
0010
0000
0001
0000
0010
0000
0100
0000
0110
0000
0000
0000
0100
0000
1000
0010
,
1000
0100
0000
0100
0110
0000
0010
0001
,
0000
0000
0000
0000
,
1001
0000
0001
0100
0010
1000
0100
0010
,
0000
0110
0000
0010
0001
1000
0010
0100
,
0110
0000
0001
0100
0001
1000
0100
0100
,
0000
0010
0010
0001
0101
0000
0010
0100
,
0002
0000
0013
0100
1000
0100
0001
0100
,
0000
1100
0000
0100
1010
0000
0001
0100
,
0010
0100
1000
0100
0010
0100
0001
1000
,
0000
0110
0000
1000
1001
0000
0101
0001
,
2010
0000
3010
1000
0010
0100
0010
1000
,
0000
0001
0000
0100
0110
0010
0100
0001
,
2000
0000
3001
1000
0001
0100
0010
0100
,
0000
0100
0000
0010
0110
0000
1000
0001
,
2001
0000
3001
0100
0001
1000
0010
0010
,
0000
0110
0000
0010
1001
0000
1000
0100
,
0010
0000
0001
0000
0100
0000
1000
0000
0100
0000
0010
0000
0100
0000
0001
0100
,
0002
0000
1000
1000
1000
1000
1000
1003
,
1001
0000
0002
0000
0203
0000
0310
1000
,
0000
1000
0000
0001
0101
0000
1000
0010
,
0100
0000
0001
1000
0100
0000
0010
0001
,
0000
0101
0000
1000
0110
0000
0001
1000
,
0100
0000
0001
0100
1000
0000
0010
0100
,
0000
0001
0000
1000
0110
0000
0001
0000
,
0200
0000
0302
0000
2003
0000
3100
0010
,
0000
0110
0000
0010
0001
0001
0001
1000
,
0100
0000
0110
0000
0011
0000
0001
1000
,
0000
0010
0000
0010
1100
0000
1000
0001
,
0100
0000
0001
0010
0200
0000
1000
1000
,
0300
0110
0000
0100
1100
1000
0100
1000
,
0002
0000
0013
0001
0100
0000
0010
1000
,
0000
0110
0000
0001
0101
0000
0110
0000
,
0101
0000
0100
0010
1000
0000
1000
0000
0100
0000
0100
0000
0010
0000
0010
0000
,
0001
0100
0002
0000
0100
0000
0100
0000
0100
0000
0100
0000
0100
0000
0103
0000
,
0101
0000
0001
1000
0001
0000
0100
0010
,
0000
0100
0001
0010
0100
1000
0100
0000
,
0010
0000
0010
0001
0101
0000
0100
0010
,
1000
0010
0000
0100
1000
0100
0010
1000
,
1001
0000
0001
0100
0001
0000
2000
0001
,
0000
0100
0000
3100
1100
0000
0100
0000
,
0010
0000
0001
1000
0101
0000
0001
0100
,
0000
0010
0110
0100
1001
1001
0001
1000
,
0020
0000
1030
0001
1000
0000
0001
0010
,
0000
0001
0000
0000
1010
0000
1000
0000
,
0010
0000
0100
0010
1010
0000
0010
1000
,
0000
0001
0000
0001
0011
0000
0010
0100
,
2000
0000
3002
0000
0203
0000
0320
1000
,
0000
0000
0100
0000
0000
0000
1030
0000
1001
0000
0000
0000
0001
0000
0010
0001
,
0010
0100
1000
0010
0110
0000
0010
1000
,
0000
1100
0000
0100
0110
0010
0001
1000
;

//---------------dance-single - Itsugo----------------
#NOTES:
     dance-single:
     Itsugo:
     Challenge:
     10:
     0.806,0.779,0.974,0.901,0.012:
0000
0000
0000
0000
,
0000
0000
0000
0000
,
0000
0000
0000
0000
,
0000
0000
0000
0000
,
1010
0000
0010
0000
0100
0000
0001
0101
,
0000
0001
0000
1000
1001
0000
0001
0010
,
0011
0000
0010
0000
0100
0000
1000
1100
,
0000
1001
0000
0001
0100
0000
0010
0000
,
0140
4030
3004
0043
,
0430
0000
0000
2300
0001
0000
3010
0000
,
4010
3040
0430
0304
,
4003
0000
0000
3200
0010
0000
0301
0000
,
0104
0403
4300
3004
,
0403
0000
0000
0320
0100
0000
0031
0000
,
0014
0043
4030
3004
,
2003
0001
0000
3001
0010
0011
0001
1000
,
1001
0000
0001
0100
0101
0000
0100
0100
,
1000
0100
0010
1000
0002
0000
0013
0000
,
0011
0000
0010
0100
0110
0000
0010
0010
,
0100
0001
0100
1000
0002
0000
1003
0000
,
1001
0000
1000
0010
0110
0000
0100
0101
,
0000
1001
0001
0010
1000
0000
0010
0000
,
0002
0203
2300
3020
,
0032
2003
3020
0130
,
0110
0000
0100
0001
0101
0000
0100
0010
,
0010
0001
0010
1000
0010
0000
0100
0000
,
0110
0000
0100
0001
0020
0000
0230
0000
,
1000
0320
0032
1003
,
1001
0000
0001
1000
0002
0000
0023
0000
,
2030
3200
0302
2003
,
3200
0000
0320
0000
0032
0000
2003
0010
,
3000
1010
0000
1000
1001
0000
0004
0003
,
0011
0000
0001
1000
1001
0000
1000
1010
,
0000
0110
0000
0100
0001
0000
0001
1000
,
2001
0000
3200
0000
0320
0000
0032
0010
,
0003
0011
0000
0001
1001
0000
1000
0010
,
2010
0000
3020
0000
0230
0000
0302
0100
,
0003
0101
0000
0001
1001
0000
1000
0100
,
1100
0000
0001
0010
0011
0000
0001
1001
,
0000
1010
0000
1000
1001
0000
0001
0010
,
0011
0000
0001
0100
0101
0000
0100
0110
,
0000
0110
0000
0010
1010
0000
1000
0001
,
1002
0000
0023
0000
0230
0000
2300
0100
,
3000
1100
0000
0001
0011
0000
0001
1000
,
1001
0000
0001
0100
0101
0000
0100
0110
,
0000
1010
0000
1000
1001
0000
0001
1000
,
0020
0100
0000
0001
0001
0000
1000
1030
,
0000
0000
0000
0000
0000
0000
0000
0000
0000
0000
0000
0000
0000
0000
0000
0000
0MM0
0000
0000
0000
0000
0000
0000
0000
M00M
0000
0000
0000
0000
0000
0000
0000
M00M
0000
0000
0000
0000
0000
0000
0000
M00M
0000
0000
0000
0000
0000
0000
0000
0MM0
0000
0000
0000
0000
0000
0000
0000
0000
0000
0000
0000
0000
0000
0000
1000
,
0100
0004
0000
0000
0000
0000
0000
0000
0000
0000
0000
0000
0000
0000
0000
0000
0000
0000
0000
0000
0000
0000
0000
0000
0000
0000
0000
0000
0000
0000
0000
0000
1003
0000
0000
0000
0000
0000
0000
0000
0000
0000
0000
0000
0000
0000
0000
0000
1010
0000
0000
0000
0000
0000
0000
0000
1000
0000
0000
0000
0000
0000
0000
0000
,
0000
1001
0002
0000
0100
0200
0000
0303
,
0104
0000
0000
0000
1003
0000
1000
1100
,
0000
0001
0011
0000
0110
0100
1000
0001
,
0400
0000
0000
0000
0310
0000
1000
1010
,
0000
1001
0000
0001
0011
0000
0010
0100
,
4000
3400
0340
0430
,
1300
1001
0000
0001
2001
0000
0010
3010
,
1040
0000
0000
0000
0130
0000
0101
0001
,
0000
1001
0000
1000
0100
0000
0001
0100
,
0040
0000
0000
0000
0031
0000
1001
1000
,
0000
1010
0000
0010
0110
0100
0100
0001
,
0040
0000
0000
0000
0031
0000
0011
0001
,
0000
1001
0000
0001
0101
0000
0001
0100
,
2000
0000
3200
0000
0302
0000
1003
0100
,
1200
0000
0010
0010
0010
1000
1000
1300
,
1100
0000
1000
0001
0101
0000
0001
1001
,
0000
1100
0000
0100
0010
0000
0001
0000
,
0011
0000
0001
1000
1010
0000
1000
1001
,
0000
0011
0000
0010
0100
0000
1000
0000
,
1100
0000
1000
0001
0101
0000
0001
0011
,
0000
1100
0000
1000
1010
0000
0010
0000
,
0004
0043
4030
3004
,
0023
0000
0031
1000
0020
1000
1000
1030
,
1010
0000
1000
0001
0011
0000
0001
1001
,
0000
1010
0000
0010
0100
0000
0001
0000
,
0101
0000
0001
1000
1100
0000
1000
1001
,
0000
0101
0000
0100
0010
0000
1000
0000
,
1010
0000
1000
0001
0011
0000
0001
0101
,
0000
1010
0000
1000
1100
0000
0110
0010
,
0001
0010
0100
0000
0100
0000
1000
0000
1000
0000
0001
0000
0001
0000
0100
0000
,
0200
0010
0010
0010
0010
0010
0010
0310
,
0110
0000
0010
1000
1010
0000
2000
0001
,
0000
3001
0000
1000
1100
0000
0001
0010
,
0011
0000
0001
1000
1001
0000
1000
1010
,
0000
0101
0000
0001
1001
0000
1000
0100
,
1100
0000
0001
0010
0011
0000
0002
1000
,
0000
1003
0000
0001
0011
0000
1000
0100
,
1100
0000
1000
0001
1001
0000
0001
0101
,
0000
0100
0110
0000
0010
0010
1000
0001
,
4001
3400
0304
0403
,
2300
0000
0000
3002
1000
0000
1003
0000
,
1004
0403
4300
3400
,
0302
0000
0000
2003
0001
0000
3001
0000
,
1004
0043
4030
3040
,
0032
0000
0000
2003
0001
0000
3001
0000
,
4001
3040
0034
0043
,
2030
0010
0000
3002
0010
0013
0001
4000
,
3000
0000
0000
0000
;

//---------------dance-single - Itsugo----------------
#NOTES:
     dance-single:
     Itsugo:
     Hard:
     8:
     0.690,0.700,0.519,1.000,0.000:
0000
0000
0000
0000
,
0000
0000
0000
0000
,
0000
0000
0000
0000
,
0000
0000
0000
0000
,
1000
0000
0010
0000
1010
0000
1000
0001
,
0000
0001
0000
0001
1001
0000
0001
0000
,
0011
0000
0001
0000
1001
0000
1000
0010
,
0000
1010
0000
0010
1000
0000
0001
0000
,
1001
0002
0023
0230
,
2300
0000
0000
0100
0000
0000
3001
0000
,
1001
2000
3020
0230
,
0302
0000
0000
0100
0000
0000
1003
0000
,
1001
0002
0203
0320
,
2030
0000
0000
0010
0000
0000
3001
0000
,
1001
2000
3200
0320
,
0032
0000
0000
0013
0001
0000
0001
1000
,
1001
0000
1000
0000
0010
0000
0100
0001
,
0100
0001
0100
0001
1000
0000
0100
0000
,
1100
0000
0100
0000
0010
0000
0001
1000
,
0001
1000
0001
1000
0001
0000
0100
0000
,
0101
0100
0010
2000
,
0001
0000
3001
1000
0001
0000
0010
0000
,
0011
0001
1001
1000
,
1020
0230
0302
1003
,
1001
0000
0001
0000
0010
0000
0100
1000
,
0100
1000
0100
1000
0100
0000
0010
0000
,
0110
0010
0002
2003
,
3001
0002
1003
0001
,
1001
0000
0001
0100
0020
0000
2030
0000
,
3002
0023
0230
2300
,
3200
0320
0032
2003
,
3010
1000
0000
1000
0002
0000
0013
0000
,
0011
0000
0001
1000
0002
0000
1003
0010
,
2000
3002
0023
0230
,
0320
0032
2003
3020
,
0230
0000
0301
1000
,
1001
0000
1000
0100
2000
0000
3001
1000
,
0002
2003
3200
0302
,
0203
2300
3002
0203
,
0320
0000
1030
0001
,
1001
0000
0001
0010
0002
0000
1003
0100
,
2000
3002
0023
2030
,
3020
0230
2300
3002
,
0203
0000
0301
1000
,
1001
0000
0001
0010
0200
0000
1300
0200
,
0000
1300
0002
0000
1003
0000
0010
0100
,
0002
0000
1003
0100
1100
0000
0001
0101
,
0000
0000
0000
0000
,
1002
0000
0000
0000
1003
0000
0010
1010
,
0000
1001
0002
0000
0000
1003
0000
0000
,
2001
0000
0000
0000
3001
0000
0100
0101
,
0000
1001
2000
0000
0000
3001
0000
0000
,
1002
0000
0000
0000
0023
0000
0230
1000
,
0000
1300
0001
0000
1001
0000
0001
0100
,
0002
2003
3002
0023
,
0130
0110
0000
0100
1100
0000
1000
0001
,
1002
0000
2003
3020
,
0030
1000
0000
0010
1010
0000
1000
0000
,
0002
0000
2003
3020
,
0030
1000
0000
0010
1010
0000
1000
0001
,
2000
0000
3002
0023
,
0000
0031
0000
0100
0101
0000
0001
0000
,
1000
0100
0010
0001
,
0011
0000
0001
0010
0001
0010
0100
1000
,
1100
0000
1001
0000
0002
0000
0103
0010
,
0000
1000
0002
0000
0000
0023
0000
0030
,
0011
0000
1001
0000
2000
0000
3010
0100
,
0000
0001
2000
0000
0000
3200
0000
0300
,
1100
0000
0011
0000
0002
0000
0103
0010
,
0000
1000
0002
0000
0000
2003
0000
3000
,
0200
0320
0032
2003
,
3020
0000
0000
0000
1030
0010
0100
0001
,
0101
0000
1001
0000
2000
0000
3100
0010
,
0000
0001
2000
0000
0000
3020
0000
0030
,
1010
0000
1001
0000
0002
0000
0013
0100
,
0000
1000
0002
0000
0000
0203
0000
0300
,
0101
0000
1010
0000
2000
0000
3100
0010
,
0000
0001
2000
0000
0000
3002
0000
0000
,
0103
0010
1000
0010
0001
0010
1000
0010
,
0100
0010
1000
0010
0001
0010
0100
0001
,
0102
0000
1003
0000
0100
0000
0010
0001
,
0000
0011
0000
0001
1000
0000
0010
0000
,
2010
0000
3001
0000
0010
0000
0100
1000
,
0000
1100
0000
1000
0001
0000
0010
0000
,
0012
0000
1003
0000
0010
0000
0100
0001
,
0000
0101
0000
0001
1000
0000
0100
0000
,
2100
0000
3001
0000
0100
0000
0010
1000
,
0000
1010
0000
1010
1000
0010
0100
0001
,
0101
0002
0203
0320
,
2030
0000
0000
0010
0000
0000
3001
0000
,
1001
2000
3200
0320
,
0032
0000
0000
0010
0000
0000
1003
0000
,
1001
0002
0023
0230
,
2300
0000
0000
0100
0000
0000
3001
0000
,
1001
2000
3020
0230
,
0302
0000
0000
0103
0001
1000
0100
0010
;

//---------------dance-single - Itsugo----------------
#NOTES:
     dance-single:
     Itsugo:
     Beginner:
     3:
     0.245,0.350,0.203,0.138,0.000:
0000
0000
0000
0000
,
0000
0000
0000
0000
,
0000
0000
0000
0000
,
0000
0000
0000
0000
,
1000
0000
1010
0000
,
0000
0000
0010
0000
,
0000
0000
0100
0000
,
0110
0000
0100
0000
,
0101
0000
0001
0000
,
0000
0000
1000
0000
,
0000
0000
0100
0000
,
1100
0000
1000
0000
,
1001
0000
0001
0000
,
0000
0000
0100
0000
,
0000
0000
0010
0000
,
0110
0000
0010
0000
,
1010
0000
0000
0000
,
1000
0000
0000
0000
,
0010
0000
0000
0000
,
0100
0000
0000
0000
,
0001
0000
0000
0000
,
1000
0000
0000
0000
,
0100
0000
0000
0000
,
0010
0000
0000
0000
,
0110
0000
0000
0000
,
0010
0000
0000
0000
,
0001
0000
0000
0000
,
1000
0000
0000
0000
,
0010
0000
0000
0000
,
0100
0000
0000
0000
,
0001
0000
0000
0000
,
1000
0000
0000
0000
,
1001
0000
0001
0000
,
0001
0000
1000
0000
,
0001
0000
0001
0000
,
0020
0000
0032
0000
,
1003
0000
1000
0000
,
0010
0000
1000
0000
,
1000
0000
0001
0000
,
0002
0000
0023
0000
,
0130
0000
0100
0000
,
1000
0000
0100
0000
,
0100
0000
1000
0000
,
0002
0000
0203
0000
,
0310
0000
0010
0000
,
1000
0000
0010
0000
,
0100
0000
0000
0000
0001
0000
0000
0101
,
0000
0000
0000
0000
,
0002
0000
1003
0000
,
0001
0000
1000
0000
,
0200
0000
1300
0000
,
0001
0000
1000
0000
,
0020
0000
0130
0000
,
0001
0000
1000
0000
,
0100
1000
0100
0000
,
1000
0001
1000
0000
,
0002
0000
0203
0000
,
0310
0000
1000
0000
,
0200
0000
0320
0000
,
0031
0000
1000
0000
,
0020
0000
0230
0000
,
0301
0000
1000
0000
,
0100
0010
0001
1000
,
0100
0000
0000
1000
0000
0000
0001
0000
,
1001
0000
0001
0000
,
0100
0000
0010
0000
,
0110
0000
0100
0000
,
0001
0000
1000
0000
,
1001
0000
0001
0000
,
0010
0000
0100
0000
,
1000
0100
1000
0001
,
0010
0000
0000
0001
0000
0000
1000
0000
,
1001
0000
0001
0000
,
0010
0000
0100
0000
,
0110
0000
0010
0000
,
0001
0000
1000
0000
,
1001
0000
0001
0000
,
0010
0000
0100
0000
,
1000
0001
0100
0010
,
1000
0000
0000
0001
0000
0000
0010
0000
,
0011
0000
0001
0000
,
1000
0000
0010
0000
,
1010
0000
1000
0000
,
0001
0000
0100
0000
,
0101
0000
0001
0000
,
1000
0000
0100
0000
,
1100
0000
1000
0000
,
0001
0000
1000
0010
,
1010
0000
1000
0000
,
0000
0000
0001
0000
,
0000
0000
0010
0000
,
0011
0000
0001
0000
,
1001
0000
1000
0000
,
0000
0000
0010
0000
,
0000
0000
0100
0000
,
0110
0000
0000
0000
2002
0000
0000
3003
;
