#TITLE:罠;
#SUBTITLE:機動戦士ガンダム00;
#ARTIST:THE BACK HORN;
#TITLETRANSLIT:Wana;
#SUBTITLETRANSLIT:Kidou Senshi Gundam 00;
#ARTISTTRANSLIT:The Back Horn;
#GENRE:Anime;
#CREDIT:Itsugo15;
#BANNER:Wana-bn.png;
#BACKGROUND:Wana-bg.png;
#JACKET:Wana-Jacket.png;
#LYRICSPATH:Wana.lrc;
#CDTITLE:Itsugo15 SimifileS.png;
#MUSIC:wana.mp3;
#OFFSET:-0.700;
#SAMPLESTART:70.239;
#SAMPLELENGTH:30.000;
#SELECTABLE:YES;
#LISTSORT:;
#DISPLAYBPM:198.000;
#BPMS:0.000=99.000,4.000=198.000,68.000=396.000,82.000=99.000,84.000=396.000,98.000=198.000,102.000=99.000,118.000=396.000,132.000=99.000,134.000=396.000,142.000=99.000,150.000=198.000,238.000=49.500,252.000=99.000;
#STOPS:68.000=0.470
,69.000=0.450
,70.000=0.470
,71.000=0.430
,72.000=0.470
,73.000=0.430
,74.000=0.470
,75.000=0.470
,76.000=0.470
,77.000=0.430
,78.000=0.470
,79.000=0.450
,80.000=0.470
,81.000=0.430
,84.000=0.470
,85.000=0.450
,86.000=0.470
,87.000=0.430
,88.000=0.470
,89.000=0.450
,90.000=0.470
,91.000=0.450
,92.000=0.470
,93.000=0.430
,94.000=0.470
,95.000=0.450
,96.000=0.470
,97.000=0.430
,118.000=0.470
,119.000=0.430
,120.000=0.470
,121.000=0.450
,122.000=0.470
,123.000=0.430
,124.000=0.470
,125.000=0.450
,126.000=0.470
,127.000=0.430
,128.000=0.470
,129.000=0.450
,130.000=0.470
,131.000=0.430
,134.000=0.470
,135.000=0.430
,136.000=0.470
,137.000=0.430
,138.000=0.470
,139.000=0.430
,140.000=0.470
,141.000=0.435
;
#TICKCOUNT:0.000=6;
#BGCHANGES:4.000=Wana-bg1.jpg=1.000=1=1=0,
35.000=Wana-VD1.avi=1.000=1=1=0,
101.500=Wana-bg2.jpg=1.000=1=1=0,
119.000=Wana-VD2.avi=1.000=1=1=0,
222.000=Wana-bg3.jpg=1.000=1=1=0,
237.000=Wana-VD3.avi=1.000=1=1=0,
255.000=Wana-bg.jpg=1.000=1=1=0,
99999=-nosongbg-=1.000=0=0=0 // don't automatically add -songbackground-
;
#KEYSOUNDS:;
#ATTACKS:;

//---------------dance-single - Itsugo15----------------
#NOTES:
     dance-single:
     Itsugo15:
     Hard:
     9:
     0.615,0.666,0.737,0.246,0.114:
0000
0000
0000
0000
,
1000
0100
0010
0001
1000
0010
0100
0001
,
0100
0010
1000
0001
0010
0100
0100
0110
,
0000
0010
0001
1000
0010
0100
0001
0100
,
0010
1000
0001
0010
0100
0010
0010
0110
,
0000
0100
1000
0001
0100
0010
1000
0001
,
0010
0100
1000
0001
1000
0001
0001
1001
,
0000
1000
0010
0100
0001
1000
0100
0010
,
0001
0010
0100
1000
0001
1000
1000
1001
,
0000
0001
0100
0010
1000
0100
0010
0100
,
1000
0001
0100
0010
1000
0001
0010
0011
,
0000
0001
0010
0100
0010
0001
1000
0010
,
0100
0001
0100
0010
1000
0001
0100
0101
,
0000
0001
1000
0010
0100
0001
0100
0010
,
1000
0100
0010
0001
1000
0010
1000
1010
,
0000
0010
0100
0001
1000
0100
0010
0001
,
1000
0010
0100
0001
0001
1000
1000
0001
,
1001
0101
0110
1010
,
1100
1010
0101
1010
,
0101
0011
0110
1100
,
0101
0000
0000
0000
1100
0000
0000
0000
0101
0001
0100
0010
1000
0100
0010
0001
,
0011
1010
0110
0101
,
0011
0101
1010
0101
,
1010
1100
0110
0011
,
1010
0000
0011
0000
0001
0100
1000
0100
,
0001
1000
0100
0010
0120
0000
0032
0000
,
1003
0010
0100
0010
1000
0100
0010
0100
2000
0000
0000
0000
3002
0000
0000
0000
,
0103
0010
1000
0001
0020
0000
0130
1000
,
0002
0000
0000
0000
0203
0000
0000
0000
0310
1000
0000
0000
1000
0001
0000
0000
,
0001
0010
0000
0000
0100
0000
1000
0000
1100
0000
0000
0000
0101
0000
0000
0000
,
1001
1100
0011
1010
,
0011
0101
1010
0110
,
0101
1001
1100
0110
,
0010
0001
1000
0010
0100
0001
0100
0010
0110
0000
0000
0000
1100
0000
0000
0000
,
1010
0101
1001
0110
,
1001
0000
0000
0000
0101
0000
0000
0000
2001
0000
0000
3002
2000
0000
3000
2003
,
0002
0000
0003
3002
0200
0000
0303
0100
0010
0000
0110
0000
0100
0000
0001
0000
,
0101
0000
0001
0100
0001
0100
0001
0100
0020
0000
0000
0000
1030
0000
0001
0000
,
0010
0100
0010
0001
2000
0000
3001
1000
,
0010
1000
0001
0010
0200
0000
1300
0100
,
0010
0100
1000
0001
0200
0000
0310
1000
,
0001
1000
0010
0100
0002
0000
0103
0001
,
1000
0001
0010
0001
2000
0000
3010
0100
,
0010
1000
0001
0010
0200
0000
1300
0100
,
0010
0100
1000
0001
0200
0000
0310
1000
,
0001
0001
1000
1000
1001
0000
0001
0100
,
0010
0100
0001
1000
0200
0000
1300
0100
,
1000
0010
0100
0010
2000
0000
3010
1000
,
0001
1000
0010
0100
0002
0000
0103
0001
,
0010
0001
0100
0010
0002
0000
0013
0100
,
0001
1000
0100
0010
0002
0000
0013
0100
,
1000
0100
0010
0001
0000
0011
0000
0000
,
1001
0000
0000
1010
0000
0000
0101
0000
,
1001
0000
1100
0000
0000
0110
0000
0000
,
0011
0000
0000
1001
0000
0000
1010
0000
,
0101
0000
1001
0000
1000
0100
1000
0010
,
0100
0010
1000
0001
0010
0100
0010
0001
,
0100
0010
0100
0001
0101
0000
0000
1001
,
0000
0000
1100
0000
0000
0110
0000
0000
,
0011
1001
1010
0010
,
0100
0000
0000
0000
0000
0110
0000
0000
0101
0000
0000
0000
0001
0000
0000
0000
,
1000
0000
0000
0000
0000
1001
0000
0000
1100
0000
0000
0000
0100
0000
0000
0000
,
0010
0000
0000
0000
0002
0013
0000
0000
1001
0000
0000
0000
2000
0010
0000
3001
;

//---------------dance-single - Itsugo15----------------
#NOTES:
     dance-single:
     Itsugo15:
     Beginner:
     1:
     0.087,0.133,0.017,0.008,0.000:
0000
0000
0000
0000
,
1000
0000
0000
0000
,
0000
0000
0000
0000
0000
0000
0000
0010
,
0000
0000
0000
0000
,
0000
0000
0000
0000
0000
0000
0000
0100
,
0000
0000
0000
0000
,
0000
0000
0000
0000
0000
0000
0000
0001
,
0000
0000
0000
0000
,
0000
0000
0000
0000
0000
0000
0000
1000
,
0000
0000
0000
0000
,
0000
0000
0000
0000
0000
0000
0000
0100
,
0000
0000
0000
0000
,
0000
0000
0000
0000
0000
0000
0000
0010
,
0000
0000
0000
0000
,
0000
0000
0000
0000
0000
0000
0000
0001
,
0000
0000
0000
0000
,
0000
0000
0000
0000
,
1000
0000
0000
0000
,
0100
0000
0000
0000
,
0010
0000
0000
0000
,
0001
0000
1000
0010
,
0100
0000
0000
0000
,
0010
0000
0000
0000
,
1000
0000
0000
0000
,
0001
0000
0010
0000
,
0100
0000
1000
0000
,
0001
0000
0100
0000
,
0010
0000
1000
0000
,
0001
0000
0010
0000
,
0100
0000
1000
0000
,
0000
0000
0100
0000
,
0000
0000
0010
0000
,
0000
0000
0001
0000
,
1000
0010
0100
0000
,
0000
0000
0010
0000
,
0000
0000
1000
0000
,
0001
0000
0010
0000
,
0100
0000
1000
0000
,
0000
0000
1000
0000
,
0000
0000
0001
0000
,
0000
0000
0001
0000
,
0000
0000
0100
0000
,
0000
0000
0100
0000
,
0000
0000
0010
0000
,
0000
0000
0010
0000
,
0000
0000
0110
0000
,
0000
0000
0100
0000
,
0000
0000
0001
0000
,
0000
0000
0001
0000
,
0000
0000
1000
0000
,
0000
0000
1000
0000
,
0000
0000
0200
0000
,
0000
0000
0000
0000
,
0000
0000
0310
0000
,
0000
0000
0001
0000
,
0000
0000
1000
0000
,
0010
0000
0100
0000
,
0001
0000
0101
0000
,
0000
0001
0000
0000
,
1000
0000
0001
0000
,
0100
0000
0000
0000
,
0010
0000
0000
0000
,
1000
0000
0000
0000
,
0001
0000
0000
0000
;

//---------------dance-single - Itsugo15----------------
#NOTES:
     dance-single:
     Itsugo15:
     Easy:
     4:
     0.168,0.213,0.025,0.051,0.000:
0000
0000
0000
0000
,
1000
0000
0000
0000
,
0010
0000
0000
0000
0000
0000
0000
0100
,
0000
0000
0000
0000
,
0001
0000
0000
0000
0000
0000
0000
1000
,
0000
0000
0000
0000
,
0100
0000
0000
0000
0000
0000
0000
1000
,
0000
0000
0000
0000
,
0010
0000
0000
0000
0000
0000
0000
0100
,
0000
0000
0000
0000
,
0001
0000
0000
0000
0000
0000
0000
0010
,
0000
0000
0000
0000
,
0100
0000
0000
0000
0000
0000
0000
0010
,
0000
0000
0000
0000
,
0001
0000
0000
0000
0000
0000
0000
0100
,
0000
0000
0000
0000
,
0010
0000
0000
0000
,
1000
0000
0001
0000
,
1000
0000
0100
0000
,
1000
0000
0001
0000
,
0100
0000
0020
1000
,
0130
0000
0001
0000
,
1000
0000
0100
0000
,
0010
0000
0001
0000
,
1000
0000
0020
0000
,
0100
0000
1030
0000
,
0001
0000
0010
0000
,
0100
0000
1000
0000
,
0100
0000
0010
0001
,
1000
0010
0100
0000
,
0001
0000
0010
0000
,
0001
0000
1000
0000
,
0010
0000
1000
0000
,
0200
0010
1300
0000
,
0001
0000
0100
0000
,
0001
0000
1000
0100
,
0010
0001
1000
0000
,
0010
0100
0110
0000
,
0010
0000
1000
0000
,
0100
0000
0010
0000
,
0001
0000
0100
0000
,
0010
0000
1000
0000
,
1000
0000
0001
0000
,
0010
0000
0100
0000
,
0010
0000
0001
0000
,
2000
0000
3001
0000
,
0100
0000
0010
0000
,
1000
0000
0001
0000
,
0010
0000
0100
0000
,
0100
0000
1000
0000
,
0010
0000
0100
0000
,
0001
0000
0000
0000
2000
0100
0000
0000
,
0100
0000
0000
0100
0000
0000
0100
0000
,
0100
0000
3100
0000
0020
0001
0000
0000
,
0001
0000
0000
0001
0000
0000
0001
0000
,
0001
0000
0031
0000
1000
0000
0000
0010
,
0000
0000
0100
0000
0000
0001
0000
0000
,
0100
0000
0010
0000
0110
0000
0000
0100
,
0000
0000
0001
0000
0000
1000
0000
0000
,
1001
0001
0010
0100
,
1000
0000
0100
0010
,
0001
0000
1000
0010
,
0100
0000
0001
1000
,
0100
0000
0000
0000
;

//---------------dance-single - Itsugo15----------------
#NOTES:
     dance-single:
     Itsugo15:
     Medium:
     7:
     0.409,0.507,0.296,0.093,0.089:
0000
0000
0000
0000
,
1000
0010
0010
0000
,
0100
0000
0000
0000
0001
0000
0000
0101
,
0000
0100
0100
0000
,
0010
0000
0000
0000
1000
0000
0000
1010
,
0000
0010
0010
0000
,
1000
0000
0000
0000
0001
0000
0000
1001
,
0000
1000
1000
0000
,
0100
0000
0000
0000
0010
0000
0000
0110
,
0000
0100
0100
0000
,
1000
0000
0000
0000
0001
0000
0000
1001
,
0000
1000
1000
0000
,
0010
0000
0000
0000
0100
0000
0000
0110
,
0000
0010
0010
0000
,
0100
0000
0000
0000
0001
0000
0000
0101
,
0000
0100
0100
0000
,
0010
0000
1000
0000
0001
1000
0001
1000
,
0010
0100
0001
1000
,
0100
0010
0110
0110
,
0100
1000
0001
0100
,
0010
0000
0000
0000
1000
0000
0000
0000
0010
1000
0010
1000
0010
1000
0010
0100
,
0001
1000
0100
0010
,
0001
1000
1001
1001
,
0001
0100
0010
1000
,
0001
0000
0010
0000
0100
0010
0100
0010
,
0100
1000
0100
0010
0002
0000
0010
0000
,
0013
0001
0100
0010
2000
0000
0010
0000
,
3001
1000
0100
0010
0002
0000
0013
0001
,
2000
0000
0000
0000
3020
0000
0000
0000
0130
0100
0000
0000
0001
0001
0000
0000
,
1000
1000
0000
0000
0100
0000
0010
0000
0110
0000
0000
0000
0100
0000
0000
0000
,
1000
0001
0100
0010
,
0110
0110
0100
0001
,
1000
0100
0010
0001
,
0010
0001
0010
0001
0010
0001
0010
0100
1000
0000
0000
0000
0001
0000
0000
0000
,
0100
0010
1000
0001
,
0010
0000
0000
0000
0100
0000
0000
0000
0110
0000
0000
0010
0001
0000
0000
0001
,
1000
0000
0000
1000
0010
0000
0000
0010
0100
0000
0001
0000
1000
0000
0100
0000
,
1100
0000
1000
0100
0010
0001
0010
0100
1000
0000
0000
0000
0001
0000
0000
0000
,
0100
0010
0110
0100
,
0001
1000
1001
0001
,
0010
0100
0110
0010
,
0100
1000
1100
0100
,
1000
0001
1001
1000
,
0001
0100
0101
0001
,
0100
0010
0110
1001
,
1000
0001
1000
0001
1000
0000
0010
0000
,
0100
0001
0101
0100
,
0001
1000
1001
0001
,
1000
0100
1100
1000
,
0100
0010
0110
0100
,
0010
0001
0011
0010
,
0002
0000
2003
0000
3010
1000
0000
1000
,
0001
0000
0001
0010
0000
0010
0100
0000
,
0110
0000
1100
0000
0100
1000
0000
1000
,
0001
0000
0001
0100
0000
0100
0010
0000
,
0110
0000
1001
0000
1000
0100
1000
0001
,
0100
0001
0010
0001
1000
0010
1000
0001
,
0010
0100
1000
0100
0020
0000
0031
0002
,
0000
1003
2000
0000
3010
0020
0000
0130
,
0001
0000
0101
0000
1001
1000
0001
1000
,
0100
0000
0010
0000
0000
0010
0000
0000
0001
0000
1000
0000
0001
0000
1000
0000
,
0010
0000
0100
0000
0000
0100
0000
0000
0001
0000
1000
0000
0100
0000
0010
0000
,
0001
0000
1000
0000
0000
0010
0000
0000
1000
0000
0001
0000
0010
0000
0100
0000
,
1000
0000
0000
0000
;

//---------------dance-single - Itsugo15----------------
#NOTES:
     dance-single:
     Itsugo15:
     Challenge:
     11:
     0.736,1.000,1.000,0.296,0.212: // measure 1
0000
0000
0000
0000
,  // measure 2
1000
0010
1010
0000
1010
0000
0010
0100
,  // measure 3
0110
0000
0110
0000
0200
0001
0301
0101
,  // measure 4
0000
0000
0101
0000
0101
0000
0001
1000
,  // measure 5
1001
0000
1001
0000
1000
0100
0010
0011
,  // measure 6
0000
0000
1001
0000
1001
0000
1000
0010
,  // measure 7
1010
0000
1010
0000
0020
0100
0130
0110
,  // measure 8
0000
0000
0101
0000
0101
0000
0001
1000
,  // measure 9
1001
0000
1001
0000
0001
0010
0100
1100
,  // measure 10
0000
0000
0101
0000
0101
0000
0100
0010
,  // measure 11
0110
0000
0110
0000
0020
1000
1030
1010
,  // measure 12
0000
0000
1010
0000
1010
0000
1000
0001
,  // measure 13
1001
0000
1001
0000
0001
0010
0100
1100
,  // measure 14
0000
0000
1001
0000
1001
0000
0001
0100
,  // measure 15
0101
0000
0101
0000
0200
0010
0310
0110
,  // measure 16
0000
0000
1010
0000
1010
0000
1000
0001
,  // measure 17
1001
0000
1001
0000
1000
1000
0100
0100
,  // measure 18
1100
0110
0011
0101
,  // measure 19
1010
0011
0111
0111
,  // measure 20
1100
1001
0101
0110
,  // measure 21
1010
0000
0000
0000
1001
0000
0000
0000
0101
0001
0100
1000
0100
0001
1000
0100
,  // measure 22
1100
1001
1101
1101
,  // measure 23
1001
0011
1011
1011
,  // measure 24
1001
0101
0110
1010
,  // measure 25
0011
0000
1100
0000
0011
0010
0001
0100
,  // measure 26
0010
1000
0001
0010
0400
0000
4300
0000
,  // measure 27
3002
0203
0320
2030
3200
2300
3020
0230
0304
0000
0000
0000
0043
0000
0000
0000
,  // measure 28
0430
4300
3040
0430
0304
0000
0000
4003
,  // measure 29
3400
0000
0000
0000
4300
0000
0000
3000
1100
1100
0000
0000
1001
1001
0000
0000
,  // measure 30
0101
0101
0000
0000
0020
0000
2000
3030
1010
0000
0000
0000
0101
0000
0000
0000
,  // measure 31
1100
0011
1010
0101
,  // measure 32
1101
1101
1100
0110
,  // measure 33
0011
1001
1010
0110
,  // measure 34
0101
0100
0001
1000
0100
0001
0100
1000
1100
0000
0000
0000
1001
0000
0000
0000
,  // measure 35
0101
0111
0110
1010
,  // measure 36
1001
0000
0000
0000
1011
0000
0000
0000
0022
0000
0003
0032
2000
0000
3000
2003
,  // measure 37
0020
0000
0030
3020
0200
0000
0300
0130
0001
0000
0101
0000
1001
0000
1100
0000
,  // measure 38
0110
0000
0010
0001
0010
0100
1000
0001
0100
0000
0010
0000
1000
0000
0100
0000
,  // measure 39
0001
0100
1000
0010
0100
0001
0100
1000
,  // measure 40
0100
0010
1000
0001
0010
0100
1000
0100
,  // measure 41
0010
0001
0100
0010
1000
0100
1000
0010
,  // measure 42
0100
0001
1000
0100
0010
0001
0010
0100
,  // measure 43
1000
0001
0100
0010
1000
0100
1000
0010
,  // measure 44
0100
0001
0100
0010
1000
0010
0100
0001
,  // measure 45
1000
0100
0010
0001
1000
0100
0010
0002
,  // measure 46
1000
1000
1003
1000
0010
0100
0001
0010
,  // measure 47
1000
0010
0001
0100
0010
1000
0010
0001
,  // measure 48
0010
0100
0001
1000
0100
0010
0001
0010
,  // measure 49
0100
1000
0010
0100
0001
0010
0001
0100
,  // measure 50
0010
1000
0001
0010
0100
1000
0100
0010
,  // measure 51
0001
1000
0010
0100
0001
0010
0001
0100
,  // measure 52
0010
1000
0100
0010
0001
0011
0000
0001
,  // measure 53
1001
0000
1000
1010
0000
0010
0110
0000
,  // measure 54
0101
0000
1100
0000
0100
0110
0000
0010
,  // measure 55
0011
0000
0001
1001
0000
1000
1010
0000
,  // measure 56
0110
0000
0101
0000
1001
1000
1000
1100
,  // measure 57
0100
0100
0110
0010
0010
0011
0001
0001
,  // measure 58
1001
0000
1010
0000
0101
0000
1001
1001
,  // measure 59
0000
1100
1100
0000
0110
0110
0000
0011
,  // measure 60
0011
0000
0000
0000
1100
0000
0000
0000
0101
0001
0001
0001
0101
0100
0100
0100
,  // measure 61
0110
0010
0010
0010
0010
1010
1000
1000
1001
0001
0001
0001
0011
0010
0010
0010
,  // measure 62
0110
0100
0100
0100
0100
1100
1000
1000
1001
0001
0001
0001
0101
0100
0100
0100
,  // measure 63
0110
0010
0010
0010
1010
1001
0001
0001
1001
1000
1000
1000
1100
0110
0010
0001
,  // measure 64
1000
0000
0000
0000
;
