#TITLE:Touch Tap Baby;
#SUBTITLE:ハッカドール THE・あにめーしょん;
#ARTIST:ハッカドール;
#TITLETRANSLIT:Touch Tap Baby;
#SUBTITLETRANSLIT:Hacka Doll ~The Animation~;
#ARTISTTRANSLIT:Hacka Doll Girls;
#GENRE:Otaku's Dream 4th Mix (Pad);
#CREDIT:Itsugo15;
#BANNER:Touch Tap Baby-bn.png;
#BACKGROUND:Touch Tap Baby-bg.png;
#JACKET:ouch Tap Baby-Jacket.png;
#LYRICSPATH:Touch Tap Baby.lrc;
#CDTITLE:Itsugo15 SimifileS.png;
#MUSIC:Touch Tap Baby.mp3;
#OFFSET:0.300;
#SAMPLESTART:52.180;
#SAMPLELENGTH:30.000;
#SELECTABLE:YES;
#LISTSORT:;
#BPMS:0.000=162.000;
#STOPS:;
#TICKCOUNT:0.000=6;
#BGCHANGES:0.813=Touch Tap Baby.avi=1.000=1=1=0,
243.000=Touch Tap Baby-bg.png=1.000=1=0=1,
99999=-nosongbg-=1.000=0=0=0 // don't automatically add -songbackground-
;
#KEYSOUNDS:;
#ATTACKS:;

//---------------dance-single - Itsugo15----------------
#NOTES:
     dance-single:
     Itsugo15:
     Hard:
     9:
     0.641,0.599,0.477,0.643,0.022: // measure 1
0000
0000
0000
0000
,  // measure 2
0000
0000
0000
0000
,  // measure 3
0000
0000
0000
0000
,  // measure 4
1000
0000
0010
0100
0000
0001
0100
0000
,  // measure 5
0010
0000
2000
0000
0000
0000
3100
0000
0010
0000
0100
0000
1000
0000
0100
0010
,  // measure 6
0002
0003
0100
0010
0000
0100
0001
0020
,  // measure 7
0000
0130
1000
0100
0020
0000
0030
0001
,  // measure 8
0011
0000
0001
0100
0000
0100
0010
0000
,  // measure 9
0010
0000
2000
0000
3000
0000
1000
0000
0100
0000
0010
0000
0100
0000
1000
0001
,  // measure 10
0200
0300
0000
0101
0000
0000
1010
1000
,  // measure 11
0000
1000
0100
0010
0001
0000
1001
0000
,  // measure 12
1000
0100
0010
0100
1000
0000
0001
0200
,  // measure 13
0000
0310
0100
0001
0020
0000
0130
0000
,  // measure 14
0110
0000
1100
0000
0100
0010
0000
0002
,  // measure 15
0000
0103
0010
0100
0001
0010
0100
0000
,  // measure 16
0110
0000
0100
0010
0002
0000
0103
0020
,  // measure 17
0000
1030
0100
0010
0200
0000
1300
0000
,  // measure 18
1100
0000
0101
0000
1001
1001
0000
1000
,  // measure 19
0000
0100
0010
0001
0100
0010
1000
0000
,  // measure 20
0002
0000
0203
0000
2300
0000
3100
0020
,  // measure 21
0030
1000
0100
0010
0002
0000
0013
0000
,  // measure 22
0012
1003
0012
1003
,  // measure 23
0011
0101
1010
0010
,  // measure 24
0110
0000
0010
0000
0100
0000
0001
0020
,  // measure 25
0000
0130
1000
0001
0200
0000
0310
0000
,  // measure 26
0110
1000
0110
0001
,  // measure 27
0110
0100
0010
1000
0001
0000
0010
0000
,  // measure 28
0011
0000
1100
0000
1001
0000
0001
0100
,  // measure 29
0000
0010
2000
0000
3001
0000
1001
0000
,  // measure 30
2000
0000
3000
1000
0020
0000
0030
0010
,  // measure 31
0100
0110
0101
1100
,  // measure 32
2001
0010
0001
0100
,  // measure 33
3002
0010
1000
0100
,  // measure 34
2003
0000
0010
0000
0100
0000
3001
0200
,  // measure 35
0000
0301
1000
0100
0020
0000
0002
0030
,  // measure 36
1003
0010
0100
0001
2000
0000
3200
0300
,  // measure 37
1100
0000
0100
0010
0000
0001
0100
0020
,  // measure 38
0000
1030
0100
0000
1100
0000
0011
0000
,  // measure 39
1001
0000
0001
0100
0000
0010
1000
0002
,  // measure 40
0000
0013
0001
0100
0010
1000
0001
0010
,  // measure 41
0200
0000
1300
0200
0000
0320
0000
0032
,  // measure 42
1000
0000
2003
0000
3010
0100
0002
0000
,  // measure 43
2003
0000
3100
0020
0000
0032
0000
2003
,  // measure 44
0010
0010
3010
0000
0101
0000
0011
0000
,  // measure 45
1100
0000
0100
0010
0000
0001
0100
0020
,  // measure 46
0000
0130
0001
0010
0100
0000
1000
0000
,  // measure 47
1100
0000
0100
0020
0030
0001
0100
0010
,  // measure 48
0000
0100
0001
0010
0100
1000
0100
0010
,  // measure 49
0002
0000
0103
0020
0000
2030
0000
3001
,  // measure 50
0020
0030
0002
0000
2003
0000
3020
0000
,  // measure 51
0130
0001
0100
0010
1000
0001
0010
0100
,  // measure 52
1000
0000
0000
0100
0000
0000
0010
0000
0001
0000
1000
0000
0010
0000
0100
0000
,  // measure 53
0110
0110
0000
0000
1001
1001
0000
0001
,  // measure 54
0000
0010
0000
0100
1000
0000
1100
0000
,  // measure 55
0100
0000
0010
0001
0000
0100
0010
0000
,  // measure 56
0100
0000
0002
0000
0003
0000
0010
0000
0100
0000
1000
0000
0100
0000
0010
0001
,  // measure 57
1000
0000
0010
0100
0000
0001
0010
0200
,  // measure 58
0000
1300
0100
0010
0001
0010
0100
1000
,  // measure 59
0002
0003
0000
0110
0000
0000
1001
2000
,  // measure 60
3000
0100
0010
0001
0200
0000
0000
0000
,  // measure 61
0300
0000
0000
0000
;

//---------------dance-single - Itsugo15----------------
#NOTES:
     dance-single:
     Itsugo15:
     Beginner:
     2:
     0.168,0.200,0.033,0.078,0.000:
0000
0000
0000
0000
,
0000
0000
0000
0000
,
0000
0000
0000
0000
,
1000
0000
0010
0000
,
0100
0000
0001
0000
,
1000
0000
0100
0000
,
0010
0000
0001
0000
,
1000
0000
0010
0000
,
0100
0000
0001
0000
,
0100
0000
0000
0010
0000
0000
1000
0000
,
0000
0000
0001
0000
,
0010
0000
0000
0000
,
0001
0000
0000
0000
,
0100
0000
0010
0000
,
1000
0000
0001
0000
,
0010
0000
0000
0000
,
0100
0000
0000
0000
,
1000
0000
0001
0000
,
0010
0000
0001
0000
,
1000
0000
1000
0000
,
0010
0000
0010
0000
,
0200
0300
0000
0000
,
0100
0000
0001
0000
,
1000
0000
0100
0000
,
1000
0000
0010
0000
,
0200
0300
0000
0000
,
0001
0000
0010
0000
,
0001
0000
0000
0000
,
1000
0000
0000
0000
,
0010
0000
0000
0000
,
0100
0000
0000
0000
,
0001
0000
1000
0000
,
0100
0000
0010
0000
,
0100
0000
0000
0000
1000
0000
0000
0001
,
0000
0000
0100
0000
,
0010
0000
1000
0000
,
1010
0000
0010
0000
,
2000
3000
0000
0000
,
0001
0000
0010
0000
,
0200
0300
0000
0000
,
1000
0000
0001
0000
,
0100
0000
0001
0000
,
1000
0000
0000
0000
,
0001
0000
0000
0000
,
1001
0000
1000
0000
,
0020
0030
0000
0000
,
0100
0000
0001
0000
,
0020
0030
0000
0000
,
0001
0000
0001
0000
,
1000
0000
1000
0000
,
0010
0000
0100
0000
,
0001
0000
0000
0000
,
1000
0000
0000
0000
,
0001
0000
0010
0000
,
0011
0000
0010
0000
,
0100
0000
1000
0000
,
0001
0000
0100
0000
,
0010
0000
1000
0000
,
0001
0000
0000
0010
0000
0000
0100
0000
,
0000
0000
2000
0000
,
3000
0000
0000
0000
;

//---------------dance-single - Itsugo15----------------
#NOTES:
     dance-single:
     Itsugo15:
     Easy:
     4:
     0.200,0.231,0.111,0.044,0.000:
0000
0000
0000
0000
,
0000
0000
0000
0000
,
0000
0000
0000
0000
,
1000
0000
0010
0000
,
0100
0000
0010
0000
,
1000
0000
0001
0000
,
0010
0000
0100
0000
,
0010
0000
0001
0000
,
0100
0000
0010
0000
,
0110
0000
0000
0000
,
1001
0000
0001
0000
,
1000
0000
1000
0000
,
0100
0000
0010
0000
,
0001
0000
0001
0000
,
0010
0000
0100
0000
,
1000
0000
0010
0000
,
0100
0000
0001
0000
,
1000
0000
1000
0000
,
0001
0000
0010
0000
,
0100
0000
0100
0000
,
1000
0000
1000
0000
,
0001
0000
0100
0000
,
0010
0000
1000
0000
,
0001
0000
0001
0000
,
0010
0000
0010
0000
,
0100
0000
1000
0000
,
0001
0000
0100
0000
,
0001
0000
0101
0000
,
0001
0000
0100
0000
,
0010
0000
0010
0000
,
0100
0000
0100
0000
,
0002
0000
0000
0000
,
2003
0000
0000
0000
,
3200
0000
0000
0000
0000
0000
0000
0310
,
0000
0000
0010
0000
,
0001
0000
1000
0000
,
1001
0000
1000
0000
,
0001
0000
0010
0000
,
0011
0000
0010
0000
,
0100
0000
1000
0000
,
1100
0000
1000
0000
,
0001
0000
0100
0000
,
0010
0000
1000
0000
,
0001
0000
0010
0000
,
0011
0000
0001
0000
,
1000
0000
0010
0000
,
1010
0000
1000
0000
,
1001
0000
0001
0000
,
1000
0000
0001
0000
,
0010
0000
0100
0000
,
1000
0000
0001
0000
,
0100
0000
0010
0000
,
1000
0000
1000
0000
,
0001
0000
0010
0000
,
0011
0000
0001
0000
,
0100
0000
0010
0000
,
1000
0000
0001
0000
,
0010
0000
0100
0000
,
1000
0000
0000
0001
0000
0000
0100
0010
,
0000
2000
0000
0000
3001
0000
0000
0000
;

//---------------dance-single - Itsugo15----------------
#NOTES:
     dance-single:
     Itsugo15:
     Medium:
     7:
     0.540,0.499,0.333,0.399,0.000:
0000
0000
0000
0000
,
0000
0000
0000
0000
,
0000
0000
0000
0000
,
1000
0000
0010
0100
0000
0100
0010
0000
,
1000
0001
0010
0001
0100
0010
1000
0100
,
0010
0000
0010
0001
0000
0001
0010
0200
,
0000
1300
0010
0100
0001
0000
1000
0000
,
1001
0000
1000
0001
0000
0001
1000
0000
,
0100
0010
0000
0001
0010
0100
1000
0001
,
1001
0000
0000
0101
0000
0000
0100
0010
,
0000
1000
0001
0010
0200
0000
1300
0000
,
0100
1000
0100
1000
0001
0000
1000
0010
,
0000
0100
0001
0010
0100
0000
1000
0000
,
1100
0000
1001
0000
0001
0100
0000
0010
,
0000
1000
0010
0100
0001
1000
0100
0000
,
0020
0000
0031
1000
0020
0000
0130
0002
,
0000
1003
0100
1000
0001
0000
0100
0000
,
0101
0000
1010
0000
1000
1001
0000
0002
,
0000
0013
0001
1000
0010
0100
0001
0000
,
0102
0000
2003
0000
3200
0000
0310
0002
,
0000
0013
0100
1000
0002
0000
0003
0000
,
1001
0000
0100
1000
1001
0000
0100
1000
,
1001
0001
0100
0010
,
2000
0000
3020
0000
0230
0000
0301
2000
,
0000
3001
0010
0100
2000
0000
3000
0000
,
1001
0000
1000
0001
1001
0000
1000
0001
,
0010
0100
1000
0100
0020
0000
0031
0000
,
1000
0000
1001
0000
0101
0000
0001
0100
,
0000
0010
1000
0001
0020
0000
0030
0000
,
0011
0000
0000
0001
1001
0000
0000
1000
,
1010
0010
0200
0301
,
0101
0000
0001
2000
0000
0000
3100
0020
,
0000
0030
0001
0000
1000
0000
0010
0000
,
1010
0000
1000
0020
0000
0030
0100
0002
,
0003
1000
0001
1000
0001
0000
0010
0000
,
0100
1000
0001
0100
0010
0000
1000
0000
,
1010
0000
1000
0010
0000
0100
0000
0001
,
0000
0020
0000
0030
0011
0000
1001
0000
,
1000
0000
0010
0100
0000
0001
0000
0010
,
0000
0200
0000
0300
1000
0001
0100
0010
,
1000
0000
0010
0100
0000
0002
0000
2003
,
0000
3000
0100
0000
0010
0001
0010
0000
,
0001
0000
1000
0010
0000
0100
0000
0002
,
0000
0003
1000
0100
,
1100
0000
0100
1000
0000
0010
0000
0100
,
0000
0002
0000
0003
1000
0000
0100
0000
,
1100
0000
1000
0001
0000
0100
0000
0010
,
0000
2000
0000
3000
0001
0000
0010
0000
,
0011
0000
0001
1000
0000
0100
0000
0020
,
0000
0030
0001
0000
1000
0000
0010
0000
,
0200
0000
0000
0000
0000
0300
0001
0200
,
0000
0000
0000
0000
0300
0000
0000
0010
,
1000
0001
0010
0000
0001
1000
0010
0100
,
0000
0001
0000
1000
0100
0000
1100
0000
,
1000
0000
0010
0100
0000
0100
0001
0000
,
0001
2000
0000
3001
0010
0100
1000
0001
,
0100
0000
0010
1000
0000
0100
0010
0001
,
0000
0010
0100
1000
0002
0000
0103
0000
,
0101
0000
0000
1001
0000
0000
1000
0100
,
0000
0010
0001
1000
0020
0000
0000
0000
,
0030
0000
0000
0000
;

//---------------dance-single - Itsugo15----------------
#NOTES:
     dance-single:
     Itsugo15:
     Challenge:
     11:
     0.833,0.763,0.820,0.233,0.188:
0000
0000
0000
0000
,
1100
0101
0000
0000
0101
1100
0000
1001
,
0000
1001
0000
1010
0011
0000
0001
0000
,
0101
0000
0100
0010
1000
0100
1000
0010
,
0100
0000
0001
0000
1000
0000
0100
0000
0001
0000
0100
0000
1000
0000
0001
0010
,
0200
0300
1000
0001
0100
0010
1000
0200
,
1000
2300
0001
3002
0200
0003
0310
0000
,
0110
0000
0100
0001
1000
0100
0010
0001
,
0100
0000
0010
0000
0001
0000
0010
0000
0100
0000
0010
0000
1000
0000
0001
0100
,
0010
0000
0000
0110
0000
0000
1010
0011
,
0000
0000
0001
0010
0001
0000
1000
0000
0020
0000
0000
0000
0130
0000
0000
0000
,
0110
0010
1000
0100
1100
0000
1000
0010
,
0100
0001
0010
0001
1000
0000
1100
0000
,
1010
0000
0101
0000
0101
1100
0000
0110
,
0000
0010
0001
0100
0010
0100
1000
0100
,
0001
0000
1000
0000
0001
0000
0010
0000
0100
0000
1000
0000
0010
0000
0100
0001
,
1000
0000
0100
0000
0001
0000
0100
0000
1000
0100
1000
0000
0001
0000
0000
0000
,
1001
0000
0101
0000
0011
1010
0000
1001
,
0000
0000
0001
0000
0100
0000
0010
0000
1000
0001
1000
0000
0100
0000
1000
0000
,
0010
0010
0100
0100
0001
0100
1000
0100
,
0001
0000
1000
0000
0100
0000
0010
0000
0001
0000
0010
0100
1000
0000
0001
0000
,
0101
0000
1000
1000
1100
0000
0001
0100
,
0101
0000
0001
0000
1001
0000
1000
0000
1100
0000
0100
0010
0002
0000
0013
0000
,
0100
0100
1000
1000
0001
0100
0010
0001
,
0010
0000
0100
0000
0010
0000
1000
0000
0001
0000
0100
0010
1000
0000
0001
0000
,
1001
1000
0001
1000
1001
0001
1000
0001
,
1001
0000
1000
0000
1100
0000
0100
0000
0010
0001
1000
0000
0020
0000
0000
0000
,
0130
0000
0101
0000
0001
0000
1000
1100
,
0000
0000
1001
0000
0000
0000
0001
0000
0101
0000
0001
0100
0010
0000
1000
0001
,
0020
0000
0031
1000
0020
0000
0030
0100
,
0110
0000
0000
0000
0101
0000
0000
0000
0011
0000
0000
0000
0100
1000
0002
0000
,
01M0
0100
0100
0100
01M0
0100
0100
0103
,
M100
0001
01M0
0001
M100
0001
01M0
0001
,
M100
0010
010M
0010
M100
0010
010M
0010
M100
0010
010M
0010
M100
0000
0101
0000
,
0000
0001
1000
0100
0020
0000
0031
0000
,
0001
0010
0100
1000
1100
0000
0101
0000
,
1001
0001
0100
1000
0100
0010
1000
0100
,
0020
0001
0001
0031
1000
0010
0100
0001
,
0101
0100
0001
1000
0100
0010
0001
0010
,
0200
1000
1300
0100
0010
0001
1000
0010
,
1010
0000
1000
0010
0001
0010
0100
0001
,
0010
0001
0100
0010
1000
0100
1000
0010
,
1010
1000
0001
0010
0011
0001
1000
0100
,
1100
0000
1000
0000
0001
0000
0100
0000
0010
1000
0001
1000
0100
0000
0000
0000
,
1100
1000
0001
0100
0010
1000
0100
0010
,
0001
0010
0100
1000
0001
0100
0010
1000
,
1010
0010
0100
0110
0000
0101
0000
1001
,
0000
0000
0001
1000
0100
0000
1000
0000
0100
0010
0001
1000
0010
0000
0100
0000
,
0110
0000
0000
0000
0100
0000
0001
0000
1000
0000
0100
0000
1000
0000
0010
0100
,
0001
0000
0100
0000
0010
0000
1000
0000
0001
0000
0001
0000
0010
0000
0010
0100
,
1000
0000
1000
0000
0100
0000
0100
0000
0010
0001
0010
0100
1000
0001
0100
0000
,
0101
0000
0000
1001
0000
0000
1100
0000
0100
0000
0010
0000
0011
0000
0000
0000
,
1001
0110
0000
0000
0110
1001
0000
0011
,
0000
1100
0000
1100
0101
0000
0100
0000
,
0010
0000
1000
0001
0010
0000
0100
0000
1000
0000
0010
0000
1000
0000
0100
0000
,
0010
0000
0001
0000
1000
0000
0010
0000
0001
0000
0010
0000
1000
0000
0001
0100
,
0020
0030
1000
0001
0010
0100
1000
0020
,
0100
0000
0230
0000
0001
0000
0302
0000
1000
0000
1003
0000
0100
0000
0010
0001
,
2000
0000
3000
1100
0000
0000
1100
1001
,
0000
0000
0001
0100
0010
0000
0110
0000
2002
0000
0000
0000
0000
0000
3003
0000
;
