#TITLE:トキヲ・ファンカ;
#SUBTITLE:TOKIO FUNKA E.P.;
#ARTIST:Takamatt feat. グミ;
#TITLETRANSLIT:Tokio Funka;
#SUBTITLETRANSLIT:Tokio Funka E.P.;
#ARTISTTRANSLIT:Takamatt Feat. GUMI;
#GENRE:Vocaloid;
#CREDIT:Itsugo15;
#BANNER:Tokio Funka-bn.png;
#BACKGROUND:Tokio Funka-bg.png;
#JACKET:Tokio Funka-Jacket.png;
#LYRICSPATH:Tokio Funka.lrc;
#CDTITLE:Itsugo15 SimifileS.png;
#MUSIC:Tokio Funka.ogg;
#OFFSET:0.880;
#SAMPLESTART:55.820;
#SAMPLELENGTH:30.000;
#SELECTABLE:YES;
#LISTSORT:;
#BPMS:0.000=120.000;
#STOPS:4.000=0.500
,5.000=0.500
,6.000=0.240
,6.500=0.240
;
#TICKCOUNT:0.000=6;
#BGCHANGES:3.875=Tokio Funka-vd1.avi=1.000=0=1=0,
174.500=Tokio Funka-vd2.avi=1.000=0=1=0,
304.000=Tokio Funka-bg.png=1.000=0=1=0,
99999=-nosongbg-=1.000=0=0=0 // don't automatically add -songbackground-
;
#KEYSOUNDS:;
#ATTACKS:;

//---------------dance-single - Itsugo15----------------
#NOTES:
     dance-single:
     Itsugo15:
     Easy:
     4:
     0.276,0.397,0.029,0.105,0.005:
0000
0000
0000
0000
,
1000
0000
0001
0000
1000
1000
0001
0000
,
1000
0001
0000
0010
,
0000
0100
0000
1000
,
0000
0001
0000
0010
,
0000
0100
0000
1000
,
0000
0001
0000
1000
,
0000
0010
0000
0100
,
0000
0001
0000
1000
,
0000
0010
0000
0100
,
0001
2000
0000
0000
,
0000
3002
0000
0000
,
0000
0023
0000
0000
,
0000
0230
0000
0000
,
0000
1300
1000
0001
,
0001
0100
0100
0010
,
0010
1000
0001
0010
,
0100
2000
0000
0000
,
0000
0000
0000
0000
,
0000
0000
0000
0001
3000
0000
0000
0000
0000
0000
0000
0000
0100
0000
0000
0000
,
0000
0010
0000
0000
,
0000
1000
0000
0001
,
0000
0010
0000
0000
,
0000
0100
0000
1000
,
0000
0001
0000
0000
,
0000
0100
0000
0010
,
0000
1000
0000
0002
,
0000
0000
0003
1000
,
0000
0010
0000
0100
,
0000
0001
0000
1000
,
0000
0100
0000
0010
,
0000
0001
1000
0001
,
0000
0100
0000
0010
,
0000
1000
0000
0001
,
0000
0010
0000
0100
,
0000
1000
0001
1000
,
0000
0100
0000
0010
,
0000
0001
0010
0100
,
0000
1000
0000
0001
,
0000
0100
0010
2000
,
0000
3001
0000
0010
,
0000
0100
1000
0001
,
0000
0100
0000
0020
,
0000
1000
1030
0001
,
0010
1000
0100
0001
,
0010
1000
0100
1100
,
1000
0001
0200
0010
,
0010
0010
0310
1000
,
0010
0001
0100
1000
,
0010
0001
0100
0101
,
0001
1000
0200
0010
,
0010
0010
0310
0110
,
0100
1000
0000
0001
,
0100
0010
0000
1000
,
0001
0010
0000
0100
,
1000
0001
0000
0100
,
0100
0010
0000
1000
,
1000
0001
0000
0001
,
0001
0010
0000
0100
,
0100
1000
0000
1000
,
0010
0100
0000
0001
,
0010
0100
0000
1000
,
0001
0100
0000
0001
,
1000
0100
0000
0010
,
0001
0100
0000
0010
,
1000
0100
0000
0010
,
0001
1000
0000
0010
,
1000
0001
0000
0010
,
0000
0100
0000
1000
,
0000
0001
0000
1000
,
0000
0010
0000
0100
,
0000
0001
0000
0010
,
0000
0010
0000
0010
,
0000
0010
0010
0100
,
0000
0100
0000
0100
,
0000
0100
2000
3000
;

//---------------dance-single - Itsugo15----------------
#NOTES:
     dance-single:
     Itsugo15:
     Challenge:
     12:
     1.000,1.000,0.648,1.000,1.000:
0000
0000
0000
0000
,
1001
0000
0000
0000
0110
0000
0000
0000
1001
0000
0110
0000
1001
0000
1000
0001
,
1000
0001
1000
0010
0100
0000
0001
0100
0001
0100
0001
0100
0001
0000
1000
0001
,
1000
0001
1000
0001
1000
0000
0100
1000
0100
1000
0100
1000
0100
0000
0010
0100
,
0010
0100
0010
0100
0010
0000
0001
0010
0100
1000
0100
0010
0001
0000
1000
0100
,
0010
0000
0001
0000
0010
0000
0100
0000
1000
0000
0000
0000
0001
0000
0100
0000
0010
0000
1000
0000
0010
0000
0100
0000
0001
0000
0000
0000
2000
3000
0020
0030
,
0200
0300
0002
0003
0200
0300
0020
0030
2000
3000
0000
0000
0010
0000
1000
0000
0001
0000
1000
0000
0100
0000
1000
0000
0001
0000
0000
0000
0010
0000
0001
0000
,
1000
0001
0100
0001
1000
0000
0100
0010
0100
0001
0100
0010
0100
0000
0010
0001
,
0010
0100
0010
1000
0010
0000
0100
1000
0100
0000
1000
0001
1000
0000
0010
1000
,
0010
0000
0000
0000
0100
0000
0010
0000
0100
0000
0000
0000
0001
0000
0100
0000
0001
0000
0000
0000
1000
0000
0001
0000
1000
0000
0000
0000
0200
0300
0020
0030
,
0002
0003
0020
0030
0200
0300
2000
3000
0002
0000
0000
0000
0000
0000
0400
0000
0000
0000
0000
0000
0000
0000
0000
0000
0000
0000
0000
0000
0000
0000
0000
0000
,
0000
0000
0300
0000
0203
0000
0000
0040
0000
0000
0000
0000
0000
0000
0000
0000
,
0000
0000
0030
0000
0320
0000
0000
4000
0000
0000
0000
0000
0000
0000
0000
0000
,
0000
0000
3000
0000
2030
0000
0000
0040
0000
0000
0000
0000
0030
0000
3010
1000
,
0001
0100
0010
1000
1010
0000
0010
0100
0001
0000
1000
0000
1100
0000
0001
0000
,
0011
0000
1000
0000
1100
0000
1000
0100
0010
0000
0001
0000
0011
0000
0001
0000
,
0101
0000
0001
0000
0011
0000
0010
0100
1000
0000
0010
0100
0001
0000
1000
0010
,
0001
0000
1000
0100
0002
0000
0000
0400
0000
0300
0040
0000
0000
0000
0030
0400
,
0000
0000
0000
0000
0000
0000
0300
0000
40M0
0M00
00M0
0M00
00M0
0M00
00M0
0M00
00M0
0M00
00M0
0M00
00M0
0M00
00M0
0M00
00M0
0M00
00M0
0M00
00M0
0M00
00M0
0M00
,
00M0
0000
0M00
0000
00M0
0000
0M00
0000
00M0
0000
0M00
0000
30M0
0000
2000
0000
0003
0000
0000
0000
0000
0000
0000
0000
0000
0000
0000
0000
0000
0000
0000
0000
0000
0000
0000
0000
0000
0000
0020
0000
0000
0000
0000
0000
3030
0000
0000
0000
1010
0000
0000
0000
0000
0000
0000
0000
0000
0000
0000
0000
0000
0000
0000
0010
,
0100
0000
0101
0000
0001
2000
0000
3100
,
0010
0000
0001
0000
0011
0000
0000
1001
0000
0000
1000
0010
0100
0000
0110
0000
,
0001
0110
1000
0110
0001
0110
1000
0110
,
0001
0000
0000
0000
0000
0000
0000
0000
0110
0000
0000
0000
0000
0000
0000
0000
1000
0000
0000
0000
0000
0000
0000
0000
0110
0000
0000
0000
0000
0000
0000
0000
0001
0000
0000
0000
0000
0000
0000
0000
0010
0000
0000
0000
1000
0000
0000
0000
1010
0000
0000
0000
0000
0000
0000
0000
0000
0000
0000
0000
0000
0000
0000
1000
,
0001
0000
0011
0000
0010
0200
0000
1300
,
0001
0100
0010
1000
0100
0010
0001
0011
,
0100
0000
1010
0000
0100
0000
0011
0000
0100
0000
1010
0000
2000
0001
0001
0000
,
0001
0000
0000
0000
0001
0000
0000
0000
3001
0000
0000
0000
2000
3000
0002
0003
2000
3000
0002
0003
2000
3000
0002
0003
2000
3000
0000
0000
0010
0000
0100
0000
,
0001
0010
0100
0010
0001
0100
0010
1000
0001
0010
0100
1000
0100
0001
0100
0010
,
1000
0010
0100
1000
0001
0010
0100
0010
0001
1000
0100
0000
0010
0001
0010
0100
,
1000
0001
0100
0010
0001
0010
0100
0010
1000
0001
1000
0100
1000
0010
0100
0001
,
0010
0000
0001
0000
0100
0000
0010
0000
1000
0000
0100
0000
0020
0030
0002
0003
0020
0030
0002
0003
0020
0030
0002
0003
1000
0000
0000
0000
0001
0000
0100
0000
,
0010
1000
0100
0001
0100
0010
0001
1000
0010
0001
0010
0100
0010
1000
0001
0100
,
0010
1000
0100
0010
0100
1000
0001
0010
0100
0000
0010
0001
0010
0100
1000
0010
,
1000
0100
0010
0001
1000
0010
0100
0001
0010
0100
1000
0000
0100
0010
0001
1000
,
0100
0000
0010
0000
0001
0000
0010
0000
0100
0000
1000
0000
0002
0003
2000
3000
0002
0003
2000
3000
0002
0003
2000
3000
0020
0000
0000
0000
0000
0000
0230
0000
,
0000
0000
0302
0000
0403
0000
0000
0000
0340
0000
0000
0000
1030
0000
0020
0030
,
0100
0000
0020
0030
0001
0000
0020
0030
1000
0000
0001
0000
0100
0000
0010
0000
,
1000
0000
0200
0300
0200
0300
0010
0000
1000
0000
0010
0000
0200
0300
0200
0300
,
0001
0000
0000
0000
0100
0000
0000
0000
1000
0000
0010
0000
0100
0000
1000
0000
0100
0000
0010
0000
1000
0000
0001
0000
4000
0004
0000
0000
0000
0000
0000
0000
,
0000
0000
3003
M00M
0MM0
M00M
0MM0
M00M
1002
0000
0000
0000
0100
0000
0000
0000
0103
0000
0000
0000
0010
0000
0000
0000
0110
0000
0000
0000
0100
0000
0000
0000
,
0001
0101
1001
1000
0100
0001
0101
0100
,
0010
0000
0001
0000
0011
0000
0002
0003
2000
3000
0020
0030
0100
0001
0020
0000
,
0000
0000
1000
1000
0000
0001
0001
0030
0010
0100
1000
0001
0100
0000
0010
1000
,
0000
0000
1010
0000
1001
0000
0010
1000
0000
0000
1010
0000
1001
0000
0010
1000
,
0000
0000
1010
0000
1000
0001
0000
0001
0010
0000
0011
0000
0002
0000
0023
0000
,
2030
0000
3020
0000
0130
1000
0001
0010
0200
0000
2300
0000
3100
0010
1000
0010
,
0100
1000
0010
0100
1000
0100
0010
1000
0100
0010
0001
1000
0010
0000
0100
0001
,
0000
0000
0101
0000
1001
0000
0100
0001
0000
0000
0101
0000
1001
0000
0100
0001
,
0000
0000
0101
0000
0001
1000
0000
1000
0100
0000
1100
0000
2000
0000
3200
0000
,
0302
0000
0203
0000
0310
0001
1000
0100
0020
0000
0032
0000
0013
0100
0001
0100
,
0010
0001
0100
0010
0001
0010
0100
0001
0010
0100
1000
0100
0020
0030
0002
0003
,
0200
0300
2000
3000
0002
0000
0000
0000
0023
0030
0200
0300
0002
0003
0020
0030
,
2000
3000
0002
0003
0200
0010
0300
1000
0001
0000
0400
0300
0040
0030
4000
3000
,
0400
0300
4000
3000
0010
0100
0001
0010
0200
0000
1300
0000
0100
1000
0010
0100
,
0001
0010
0100
1000
0100
0010
0001
1000
0010
0100
0001
1000
0200
0300
2000
3000
,
0020
0030
0002
0003
2000
0000
0000
0000
3200
0300
0020
0030
2000
3000
0200
0300
,
0002
0003
2000
3000
0020
0100
0030
0001
1000
0000
0040
0030
0400
0300
0004
0003
,
0040
0030
0004
0003
0100
0010
1000
0100
0020
0000
0031
0000
0010
0001
0100
0010
,
1000
0100
0010
0001
0010
0100
1000
0001
0100
0010
1000
0100
0010
0000
0001
0000
,
1000
0000
0100
0000
0020
0000
0000
0001
0000
0000
0031
0000
0010
0000
0100
0000
,
1000
0000
0001
0000
0100
0010
0000
0010
1000
0000
0001
0000
0010
0000
1000
0000
,
0010
0000
0100
0000
2000
0000
0000
0100
3000
0000
1000
0000
0001
0000
0100
0000
,
1000
0000
0100
0000
0010
1000
0000
1000
0001
0000
0010
0000
0100
0000
1000
0000
,
0001
0000
0010
0000
0200
0000
0000
1000
0000
0000
1300
0000
0100
0000
0010
0000
,
0001
0000
1000
0000
0010
0100
0000
0100
0001
0000
1000
0000
0100
0000
0001
0000
,
0100
0000
0010
0000
0002
0000
0000
0010
0003
0000
0001
0000
1000
0000
0010
0000
,
0001
0000
0010
0000
0100
0001
0000
0001
1000
0000
0100
0000
0010
0000
0000
0110
,
0000
0000
0110
0000
1000
0000
0000
1100
0000
0000
1100
0000
0001
0000
0000
1001
,
0000
0000
1001
0000
0001
0100
0000
0010
1000
0000
1010
0000
1001
0000
0000
0011
,
0000
0000
0011
0000
1000
0000
0000
1001
0000
0000
1001
0000
0010
0000
0000
1010
,
0000
0000
1010
0000
0100
0001
0000
1000
0100
0000
1100
0000
1000
0000
0001
0000
,
0100
0000
0010
0000
1000
0000
0000
1010
0000
0000
1010
0000
1000
0000
0010
0000
,
0100
0000
0001
0000
1000
0100
0000
1100
0000
0000
1001
0000
0001
0000
0100
0000
,
0010
0000
1000
0000
0001
0000
0000
1001
0000
0000
1001
0000
0001
0000
0010
0000
,
0100
0000
1000
0000
0100
0010
0001
0010
0100
0001
0100
1000
0000
0000
0000
0000
;

//---------------dance-single - Itsugo15----------------
#NOTES:
     dance-single:
     Itsugo15:
     Hard:
     10:
     0.943,1.000,0.343,0.486,0.624: // measure 1
0000
0000
0000
0000
,  // measure 2
1001
0000
0101
0000
1100
0101
1100
0000
,  // measure 3
0200
0000
0310
0001
0100
0010
2000
0000
,  // measure 4
3010
0100
0002
0000
0013
0100
2000
0000
,  // measure 5
3001
0010
0200
0000
0310
0001
0200
0000
,  // measure 6
0310
0000
1000
0000
0020
0000
0000
0000
1030
0000
0001
0000
0010
0000
0001
0010
,  // measure 7
0001
0010
0001
0010
0002
0000
0000
0000
1003
0000
0100
0000
0020
0000
0000
0000
,  // measure 8
0031
0100
0020
0000
1030
0001
0020
0000
,  // measure 9
0031
1000
0100
0010
0000
0001
0000
0100
,  // measure 10
0000
0000
0010
0000
0000
0000
1000
0000
0000
0000
0100
0000
0010
0000
0001
0010
,  // measure 11
0001
0010
0001
0010
0001
0000
0000
0010
0000
0000
0010
0000
0100
0000
0000
1000
,  // measure 12
0000
0000
0100
0000
1100
0000
0000
1000
0000
0000
0001
0000
1000
0000
0000
0010
,  // measure 13
0000
0000
0100
0000
0110
0000
0000
0010
0000
0000
1000
0000
0100
0000
0000
0010
,  // measure 14
0000
0000
0001
0000
0011
0000
0000
0010
0000
0000
0001
0000
1000
0000
0001
1000
,  // measure 15
0001
1000
0001
0100
0010
0000
1000
0000
1010
0000
1000
0000
1001
0000
1000
0000
,  // measure 16
1100
1000
1001
0001
0011
0001
1001
0001
,  // measure 17
0101
0000
0100
0000
0110
0000
0010
1000
0010
0000
0100
0001
0010
0000
0100
1000
,  // measure 18
0100
0000
0010
0001
1000
0000
0000
0010
0000
0000
0200
0000
0000
0000
0000
0000
,  // measure 19
0302
2000
0000
0000
,  // measure 20
0000
0000
0000
3023
0000
0000
0000
0000
0000
1030
0000
0000
1010
0000
0000
0000
,  // measure 21
1001
0000
0020
0000
0130
2000
3000
0001
,  // measure 22
0100
0010
2000
3000
0001
0010
0100
0110
,  // measure 23
0010
0011
0001
1001
1000
1010
0010
0110
,  // measure 24
0100
0000
0101
0000
0001
0000
1001
0000
1000
0000
0100
0010
0001
0000
0000
0000
,  // measure 25
0010
0000
0200
0300
1000
0200
0300
0010
,  // measure 26
0100
1000
0010
0100
0001
1000
0100
1100
,  // measure 27
0001
0000
0101
0000
1000
0000
1100
0000
0001
0000
0100
0000
0010
1000
0001
0000
,  // measure 28
0001
0000
0001
0000
1001
0000
1000
0001
1000
0010
0100
0001
1000
0000
0100
0010
,  // measure 29
0001
0010
0100
0010
0001
1000
0010
0100
0001
0000
1000
0000
0100
0010
0100
1000
,  // measure 30
0010
0100
0010
1000
0001
0010
0100
1000
0001
0000
0100
0000
0010
1000
0010
2000
,  // measure 31
0000
0000
3001
0000
0001
1000
0001
2000
0000
0000
3100
0000
0100
1000
0001
0000
,  // measure 32
0100
0001
1000
0000
0100
0010
0001
0010
0100
1000
0100
0010
0001
0000
1000
0010
,  // measure 33
0100
0001
1000
0100
0010
0001
0010
0100
1000
0000
0100
0000
0010
0001
1000
0010
,  // measure 34
1000
0001
0010
0100
1000
0001
0100
0010
1000
0000
0001
0000
1000
0100
0010
0001
,  // measure 35
1000
0010
1000
0010
0100
0001
0010
0100
1000
0000
0001
0000
0100
0001
0010
0100
,  // measure 36
1000
0100
0010
0001
1000
0010
0100
0001
1000
0001
0100
0010
1000
0000
0000
0001
,  // measure 37
0000
0010
0011
0000
0002
0000
0013
0100
,  // measure 38
2000
0000
3100
0010
0001
1000
0010
0100
,  // measure 39
0001
0010
0100
0100
1000
0020
0030
0100
,  // measure 40
0001
1000
0100
0040
0000
0000
0034
0000
,  // measure 41
2003
3010
0010
0100
0002
0013
0010
0100
,  // measure 42
2000
3100
1100
1000
0002
0003
1000
0010
,  // measure 43
0100
0000
0001
0000
1000
0000
0100
0000
0020
0000
0031
0000
0001
0010
0200
0000
,  // measure 44
0000
0000
2000
3000
0000
0002
0003
0000
2300
3000
0001
0000
1001
0000
0000
0001
,  // measure 45
0000
0000
0100
0000
0101
0000
0000
0001
0000
0000
1000
0000
1001
0000
0000
0001
,  // measure 46
0000
0000
1000
0000
0100
0010
0000
0010
0100
0000
1000
0000
0001
0000
0010
0000
,  // measure 47
0100
0000
1000
0000
0200
0000
0000
0000
0320
0000
0000
0000
0031
0010
0001
0010
,  // measure 48
0001
1000
0001
1000
0001
1000
0010
0100
0001
0100
0010
1000
0001
0000
0000
1000
,  // measure 49
0000
0000
0010
0000
1010
0000
0000
1000
0000
0000
0001
0000
1001
0000
0000
1000
,  // measure 50
0000
0000
0001
0000
0010
0100
0000
0100
0010
0000
0001
0000
1000
0000
0100
0000
,  // measure 51
0010
0000
0001
0000
0020
0000
0000
0000
0230
0000
0000
0000
1300
0100
1000
0100
,  // measure 52
1000
0001
1000
0001
1000
0001
0100
0010
1000
0010
0100
0001
1000
0000
0100
0000
,  // measure 53
0010
0001
0020
0000
0130
1000
0100
0010
,  // measure 54
0001
0000
1000
0000
0010
0100
0000
0100
0010
0000
1000
0000
0001
0000
0010
0000
,  // measure 55
0100
1000
0200
0000
1300
0001
0100
0010
,  // measure 56
1000
0100
0020
0001
0031
0010
0001
0010
,  // measure 57
0100
1000
0200
0000
0310
0001
0010
0100
,  // measure 58
1000
0000
0001
0000
0100
0010
0000
0010
0100
0000
0001
0000
1000
0000
0100
0000
,  // measure 59
0010
0001
0020
0000
0031
1000
0010
0100
,  // measure 60
0001
0010
0200
1000
1300
0001
0100
0010
,  // measure 61
1000
0100
0020
0000
0130
1000
0001
0100
,  // measure 62
0010
0000
1000
0000
0001
0010
0000
0001
1000
0000
0100
0000
0010
0000
0001
0000
,  // measure 63
1000
0010
0200
0000
0301
1000
0100
0010
,  // measure 64
0001
0000
1000
0000
0010
0100
0000
0100
0001
0000
1000
0000
0100
0000
0010
0000
,  // measure 65
0100
1000
0002
0000
1003
0100
0010
0001
,  // measure 66
1000
0000
0010
0000
0100
0001
0000
0001
1000
0000
0100
0000
0010
0000
0100
0000
,  // measure 67
1000
0001
0200
0000
0310
1000
0001
0010
,  // measure 68
0100
0000
1000
0000
0001
0010
0000
0001
1000
0000
0010
0000
0100
0000
0000
0001
,  // measure 69
0000
0000
0001
0000
1000
0000
0000
0001
0000
0000
0001
0000
0010
0000
0000
0001
,  // measure 70
0000
0000
0001
0000
1000
0010
0000
0100
0001
0000
1000
0000
0100
0000
0000
0010
,  // measure 71
0000
0000
0010
0000
0001
0000
0000
0010
0000
0000
0010
0000
0100
0000
0000
0010
,  // measure 72
0000
0000
0010
0000
0001
1000
0000
1000
0010
0000
0100
0000
0001
0000
0010
0000
,  // measure 73
0001
0100
0010
0000
1000
0100
0010
0100
,  // measure 74
1000
0000
0010
0000
0100
0001
0000
1000
0100
0000
0010
0000
0001
0000
0010
0000
,  // measure 75
0100
0010
0001
0000
0010
0100
1000
0010
,  // measure 76
0100
0000
0001
0000
1000
0100
0000
0010
0001
1000
0010
0200
0000
0000
0000
0000
,  // measure 77
0300
0000
0000
0000
;

//---------------dance-single - Itsugo15----------------
#NOTES:
     dance-single:
     Itsugo15:
     Beginner:
     2:
     0.150,0.180,0.000,0.048,0.000:
0000
0000
0000
0000
,
0001
0000
0001
0000
0001
1000
0001
0000
,
0000
1000
0000
0000
,
0000
0010
0000
0000
,
0000
0100
0000
0000
,
0000
0001
0000
0000
,
0000
0100
0000
0000
,
0000
0010
0000
0000
,
0000
1000
0000
0001
,
0000
0010
0000
0200
,
0000
1300
0000
0000
,
0000
1000
0000
0000
,
0000
0001
0000
0000
,
0000
0001
0000
0000
,
0000
0100
0000
0010
,
0000
1000
0000
0000
,
0000
0001
0000
0010
,
0000
0200
0000
0000
,
0000
0000
0000
0000
,
0000
0300
0000
1000
,
0000
0001
0000
0000
,
0000
0100
0000
0010
,
0000
1000
0000
0000
,
0000
0001
0000
0010
,
0000
0100
0000
0000
,
0000
0010
0000
0001
,
0000
1000
0000
0020
,
0000
0000
0030
0100
,
0000
0001
0000
1000
,
0000
0000
0000
0001
,
0000
1000
0000
0100
,
0000
0000
0000
0100
,
0000
1000
0000
0010
,
0000
0000
0000
0010
,
0000
0100
0000
0001
,
0000
0000
0000
1000
,
0000
0000
0000
1000
,
0000
0000
0000
0001
,
0000
0000
0000
0001
,
0000
0000
0000
0010
,
0000
0100
0000
0000
,
0000
0100
0000
0000
,
0000
0010
0000
0002
,
0000
0000
0000
1003
,
0000
0010
0000
1000
,
0000
0001
0000
0010
,
0000
0000
0000
0010
,
0000
0001
0000
1000
,
0000
0010
0000
1000
,
0000
0001
0000
0000
,
0000
0001
0000
0010
,
0000
0100
0000
1000
,
0000
1000
0000
1000
,
0000
0001
0000
0001
,
0000
0001
0000
0001
,
0000
0010
0000
0100
,
0000
0100
0000
0100
,
0000
0010
0000
0010
,
0000
0010
0000
0010
,
0000
0001
0000
1000
,
0000
0000
0000
1000
,
0000
0000
0000
0001
,
0000
0000
0000
0001
,
0000
0000
0000
0100
,
0000
0000
0000
0100
,
0000
0000
0000
0010
,
0000
0000
0000
0010
,
0000
0000
0000
1000
,
0000
0000
0000
1000
,
0000
0000
0000
0001
,
0000
0000
0000
0001
,
0000
0000
0000
0010
,
0000
0000
0000
0010
,
0000
0000
0000
0100
,
0000
0000
0000
0100
,
0000
2000
0000
3000
;

//---------------dance-single - Itsugo15----------------
#NOTES:
     dance-single:
     Itsugo15:
     Medium:
     8:
     0.680,0.869,0.410,0.200,0.067:
0000
0000
0000
0000
,
0101
0000
1100
0000
0101
1010
0011
0000
,
0001
0000
1000
0010
1000
0010
0100
0000
,
0001
0100
0001
0000
1000
0100
1000
0000
,
0010
0100
0001
0000
0010
0100
1000
0000
,
0001
0100
0010
0000
1000
0001
0010
0200
,
0000
0300
1000
0100
0010
0001
1000
0000
,
0001
0010
0100
0000
1000
0100
1000
0000
,
0001
0100
0001
0100
0000
1000
0000
0100
,
0000
0010
1000
0001
0000
0010
0000
0100
,
0000
0000
1000
0000
1100
0000
0000
0100
0000
0000
0000
0000
0010
0000
0000
0001
,
0000
0000
1000
0000
1001
0000
0000
0001
0000
0000
0000
0000
0100
0000
0000
0010
,
0000
0000
1000
0000
1010
0000
0000
0010
0000
0000
0000
0000
0100
0000
0000
0001
,
0000
0000
1000
0000
1001
0000
0000
0001
0000
0000
0000
0000
0010
0000
0000
0100
,
0000
1000
1100
0001
0011
1000
1010
0001
,
0011
0100
0101
0010
1010
1000
1100
0100
,
0110
0010
0011
0001
1001
1000
1010
0010
,
0110
0100
0101
0000
0100
0020
0000
0000
,
2030
3002
0000
0000
,
0000
0000
1003
0000
0000
0100
1100
0000
,
1000
0000
0001
0000
0100
0010
0000
0100
,
0001
1000
0100
0000
0010
0100
1000
0002
,
1003
0200
1300
0002
1003
0200
1300
0002
,
1003
0200
1300
0002
0103
0010
1000
0000
,
1010
0000
1000
0000
0001
0100
0000
0010
,
1000
0001
0010
0000
0100
1000
0010
1000
,
1000
0100
0100
0010
0010
0001
0020
0100
,
0000
0100
0000
0100
0000
0130
1000
0010
,
0100
0010
1000
0100
0010
0100
1000
0100
,
1000
0100
0010
0100
1000
0100
0010
0001
,
0100
0010
0100
0001
0010
0100
1000
0100
,
0010
0001
1000
0100
0010
0001
1000
0010
,
0100
0010
1000
0001
0010
0000
0001
0010
,
0001
0100
0010
1000
0100
0000
1000
0100
,
1000
0001
0100
0001
0010
0000
0001
0100
,
0010
1000
0100
0010
0001
0010
0100
0000
,
1000
0000
0002
0000
1003
0000
0010
0100
,
0001
0000
1000
0100
0010
0001
1000
0000
,
0010
0100
0001
0000
0100
0000
0010
1000
,
0001
0010
0100
2000
0000
0000
0100
0000
,
3001
0000
0001
0100
0010
0000
0100
0001
,
0010
0000
0100
1000
0100
0000
1000
0001
,
0100
0010
1000
1020
,
0000
0130
0001
0101
,
1000
1100
0001
0101
,
1000
1100
0100
0010
,
0001
0000
1000
0100
0010
0000
0001
0010
,
0100
0010
0001
0010
0100
1000
0100
0000
,
1100
1000
1001
0001
,
0101
0000
0100
0000
0110
0000
0010
1000
,
0100
0000
0100
1000
0010
0000
0100
0001
,
0010
0100
1000
0100
0010
0001
1000
0010
,
0100
0001
0020
0030
0001
0100
0010
1000
,
0001
0010
0200
0300
0110
0000
0001
1000
,
0010
0100
0002
0003
1000
0100
0010
0001
,
0010
0100
0010
0001
0100
0010
1000
0001
,
0010
0100
2000
3000
0001
0100
0010
1000
,
0010
0100
0001
1000
0100
0010
0010
0001
,
1000
0010
0200
0300
0100
0010
1000
0100
,
0010
0001
0100
0010
1000
0001
0010
0000
,
0011
1000
1010
0001
,
0011
0000
0001
0100
0010
0000
1000
0000
,
1010
0001
0011
1000
,
1100
0000
0100
0010
0001
0000
1000
0000
,
0010
0100
0001
0010
,
0100
0000
1000
0001
0100
0010
1000
0000
,
1010
0001
0101
0100
,
0110
0000
0000
0000
0010
0000
1000
0000
0100
0000
0010
0000
0001
0000
0000
1000
,
0000
0000
1000
0000
0000
0000
0000
0001
0000
0000
0001
0000
0000
0000
0000
0100
,
0000
0000
0100
0000
0010
0000
0000
0000
1000
0000
0000
0000
0001
0000
0000
0010
,
0000
0000
0010
0000
0000
0000
0000
0100
0000
0000
0100
0000
0000
0000
0000
1000
,
0000
1000
0001
0100
0010
1000
0001
0000
,
0010
0100
1000
0100
,
0010
0000
0001
0010
0100
1000
0001
0000
,
0100
0010
1000
0001
,
0010
0000
0100
1000
0010
0200
0000
0000
,
0300
0000
0000
0000
;
