#TITLE:スパイス;
#SUBTITLE:食戟のソーマ;
#ARTIST:東京カランコロン;
#TITLETRANSLIT:Spice;
#SUBTITLETRANSLIT:Shokugeki no Souma;
#ARTISTTRANSLIT:Tokyo Karankoron;
#GENRE:Anime;
#CREDIT:Huzure & Itsugo;
#BANNER:Spice-bn.png;
#BACKGROUND:Spice-bg.png;
#JACKET:Spice-Jacket.png;
#LYRICSPATH:Spice.lrc;
#CDTITLE:Collab.png;
#MUSIC:Spice.mp3;
#OFFSET:-0.447;
#SAMPLESTART:52.562;
#SAMPLELENGTH:23.900;
#SELECTABLE:YES;
#LISTSORT:;
#BPMS:0.000=130.000;
#STOPS:;
#TICKCOUNT:0.000=6;
#BGCHANGES:-1.125=Shokugeki no Souma ED.avi=1.000=1=0=0,
191.000=Spice-bg.png=1.000=1=0=0,
99999=-nosongbg-=1.000=0=0=0 // don't automatically add -songbackground-
;
#KEYSOUNDS:;
#ATTACKS:;

//---------------dance-single - Huzure----------------
#NOTES:
     dance-single:
     Huzure:
     Challenge:
     10:
     0.725,0.716,0.733,0.289,0.433: // measure 1
0000
0000
0000
0000
,  // measure 2
0001
0000
0000
0000
0000
0110
0000
0011
,  // measure 3
0000
0000
0000
0000
,  // measure 4
1000
0000
0000
0000
0000
0110
0000
1100
,  // measure 5
0000
0000
0000
0000
,  // measure 6
0010
0001
1000
0100
0000
1100
0000
0101
,  // measure 7
0000
1000
0000
0200
0000
1000
1300
0000
,  // measure 8
0010
1000
0001
0100
0000
1001
0000
0120
,  // measure 9
0000
0000
2030
0000
0000
0000
3002
0000
1000
0000
0003
1000
0000
0000
0001
0000
,  // measure 10
1000
0001
0100
1000
0100
0101
0000
0011
,  // measure 11
0100
0000
1000
0000
0000
0000
0200
0000
0010
0000
0000
0010
0000
0000
0310
0000
,  // measure 12
0001
0100
0010
1000
0000
0101
0000
0110
,  // measure 13
0000
0000
0001
0000
1000
0000
1100
0000
0110
0000
1100
0000
0001
1000
0001
0000
,  // measure 14
1000
0000
1100
0110
1100
0002
1000
0023
,  // measure 15
1000
0000
1030
0100
0010
0001
0100
0010
1000
0100
1000
0010
0100
0001
1000
0001
,  // measure 16
0100
0000
0101
1100
0101
2000
0010
3200
,  // measure 17
0001
0000
0301
0100
0010
1000
0100
0010
0100
1000
0001
0010
0100
1000
0010
0100
,  // measure 18
0001
0000
0011
0110
1100
0020
0100
2030
,  // measure 19
0100
0000
3100
0010
0001
0010
0100
1000
1000
0001
0010
0100
1000
0100
0010
0001
,  // measure 20
1000
0100
0010
0001
1000
0011
0000
0110
,  // measure 21
1000
0010
1000
0001
0101
1010
0101
1010
,  // measure 22
0101
0000
1000
0100
0001
0100
1000
0000
0001
0100
1000
0100
0002
0000
0000
0000
,  // measure 23
0000
0000
0000
0000
1003
0010
1000
0010
1000
0000
0001
0000
0100
0001
0100
0000
,  // measure 24
0101
0000
0001
0010
0001
0000
0011
0000
0010
0100
0010
0000
0100
1000
0100
0000
,  // measure 25
1000
0000
0010
1000
0010
0000
0110
0000
1001
0000
1000
0000
0001
1000
0010
0100
,  // measure 26
0001
0000
0100
1000
0100
0001
0100
0000
0010
0001
0010
1000
0020
0000
1000
0000
,  // measure 27
1000
0000
0030
0000
0110
0000
0000
0010
0001
0000
1100
0000
0010
0010
0000
0000
,  // measure 28
1001
0010
0100
1001
0010
0010
0200
0000
,  // measure 29
0300
0000
0000
0000
,  // measure 30
1100
0000
0000
0000
0001
0000
0001
0000
0001
0000
0010
0200
1000
0000
0010
0000
,  // measure 31
0310
0000
0000
0000
1000
0000
1000
0000
1000
0000
0100
0020
0001
0000
0130
0010
,  // measure 32
0100
0000
0010
0010
0100
0200
0010
0310
,  // measure 33
1001
0000
0000
0000
1000
0000
1000
0000
0100
0000
0010
0000
0001
0000
0001
1000
,  // measure 34
0001
0000
0000
0000
0010
0000
0010
0000
0010
0000
0001
0020
0001
0000
0100
0000
,  // measure 35
0130
0000
0000
0000
0010
0000
0010
0000
0010
0000
0100
2000
0100
0000
3001
1000
,  // measure 36
0001
0000
0000
0000
0100
0000
0100
0000
0100
0000
0001
0020
0100
0000
1000
0000
,  // measure 37
1030
0000
0010
0000
0001
0100
0000
1000
0100
0000
0001
0000
0010
0001
1000
0100
,  // measure 38
0010
0000
0000
0000
0110
0000
0011
0000
1100
0000
0010
0200
0001
0000
1300
0100
,  // measure 39
1000
0000
0000
0000
0101
0000
0110
0000
1001
0000
0001
2000
0010
0000
3001
1000
,  // measure 40
0010
0000
0000
0000
1010
0000
1100
0000
0110
0000
0001
0020
0100
0000
0130
1000
,  // measure 41
0001
0000
0000
0000
0110
0000
0110
0000
1001
0000
1001
0000
0110
0000
1000
0001
,  // measure 42
1000
0000
0000
0000
1010
0000
1010
0000
1010
0000
0001
0020
0100
0000
0130
0100
,  // measure 43
1000
0000
0000
0000
0110
0000
0110
0000
0110
0000
1000
0200
0010
0000
0310
0010
,  // measure 44
0001
0000
0000
0000
0110
0000
1001
0000
0110
0000
1000
0001
1000
0000
1000
0001
,  // measure 45
1000
0000
0010
0000
0100
0001
0010
0001
0100
0000
0010
0000
1000
0001
0100
0010
,  // measure 46
1000
0000
0000
0000
0001
0000
0110
0000
0101
0000
1000
0010
0100
0000
0001
0010
,  // measure 47
0100
1000
0000
0000
0001
0010
0000
0000
0001
0000
0001
0000
1000
0100
1000
0001
,  // measure 48
0200
0000
0000
0300
;

//---------------dance-single - Huzure----------------
#NOTES:
     dance-single:
     Huzure:
     Medium:
     5:
     0.356,0.424,0.111,0.211,0.000:
0000
0000
0000
0000
,
1000
0000
0000
0000
0000
0100
0000
0010
,
0000
0000
0000
0000
,
0001
0000
0000
0000
0000
0010
0000
0100
,
0000
0000
0000
0000
,
1000
0000
0000
0000
0000
0001
0000
1000
,
0000
0000
0000
0000
,
0010
0000
0000
0000
0000
0100
0000
0001
,
0000
0000
0000
0000
,
0010
0000
0000
0000
0000
0001
0000
1000
,
0000
0000
0000
0000
,
0100
0000
0000
0000
0000
0010
0000
0100
,
0000
0000
0000
1000
0002
1003
0002
0003
,
0100
0000
0001
0100
0000
0001
0000
1000
,
0100
1000
0000
0001
0000
0001
0100
0000
,
0001
0000
0010
0100
0000
1000
0000
0010
,
0100
0001
0000
2000
0000
0000
3010
0000
,
1000
0000
0100
0100
0000
0010
0000
0001
,
0000
2000
0000
3020
0000
0130
0001
0000
,
1000
0100
0010
0002
0000
0003
1000
0010
,
0100
0002
0000
0003
0010
0100
0010
0100
,
0010
0001
1000
0100
,
0010
0100
1000
0001
,
0011
0000
0000
0110
0000
0000
1100
0000
,
0000
1000
0001
0100
0010
0000
1010
0000
,
0101
0000
0001
0100
0001
0000
0100
0000
,
0020
2030
3200
2300
,
3010
0100
0001
1000
0010
0100
0002
0000
,
0003
0000
0000
0000
,
1100
0000
1000
0001
1000
0000
0001
0000
,
1000
0000
0010
1000
0010
0000
1000
0000
,
0001
0000
0100
0001
0100
0000
0001
0000
,
0100
0000
0001
0010
0100
1000
0100
0020
,
0000
0030
0001
1000
0001
0000
1000
0000
,
0010
0000
0100
0010
0100
0000
0010
0000
,
1000
0000
0100
0010
0001
0000
1000
0000
,
0001
0000
0010
0100
2000
0000
3000
0000
,
1001
0000
0001
0100
0001
0100
0001
0100
,
0001
0000
1000
0100
1000
0100
1000
0100
,
1000
0000
0010
1000
0001
0100
0010
1000
,
0001
0000
1000
0100
0010
0001
0010
0200
,
0000
0300
1000
0010
1000
0010
0100
0010
,
1000
0000
0001
0100
0001
0010
0100
0010
,
0001
0000
1000
0001
1000
0001
0100
0001
,
1000
0002
0023
0230
,
1300
0110
1001
0110
,
0001
0100
0010
1000
,
0002
0000
0000
0003
;

//---------------dance-single - Huzure----------------
#NOTES:
     dance-single:
     Huzure:
     Beginner:
     1:
     0.075,0.106,0.022,0.067,0.000:
0000
0000
0000
0000
,
0000
0000
0000
0000
,
0000
0000
0000
0000
,
0000
0000
0000
0000
,
0000
0000
0000
0000
,
1000
0000
0000
0000
0000
0000
0000
0001
,
0000
0000
0000
0000
,
0001
0000
0000
0000
0000
0000
0000
1000
,
0000
0000
0000
0000
,
0010
0000
0000
0000
0000
0000
0000
0100
,
0000
0000
0000
0000
,
0100
0000
0000
0000
0000
0000
0000
0010
,
0000
0000
0000
0000
,
1000
0000
0000
0000
,
0100
0000
0000
0000
,
1000
0000
0000
0000
,
0001
0000
0000
0000
,
1000
0000
0000
0000
,
0010
0000
0000
0000
,
1000
0000
0000
0000
,
0001
0000
0000
0000
,
0020
0000
0000
0000
,
0000
0000
0000
0030
,
0200
0000
0000
0000
,
0000
0000
0000
0300
,
2000
0000
0000
0000
,
0000
0000
0000
3000
,
0002
0000
0000
0003
,
0000
0000
0000
0000
,
1001
0000
0000
0000
,
1000
0000
0000
0000
,
0010
0000
0000
0000
,
1000
0000
0000
0000
,
1001
0000
0000
0000
,
0001
0000
0000
0000
,
0100
0000
0000
0000
,
0001
0000
0000
0000
,
1000
0000
0000
0000
,
1000
0000
0000
0000
,
0100
0000
0000
0000
,
0100
0000
0000
0000
,
0010
0000
0000
0000
,
0010
0000
0000
0000
,
0001
0000
0000
0000
,
0001
0000
0000
0000
,
0200
0000
0000
0300
,
0010
0000
0000
0000
,
2000
0000
0000
3000
;

//---------------dance-single - Itsugo15----------------
#NOTES:
     dance-single:
     Itsugo15:
     Hard:
     9:
     0.654,0.690,0.845,0.478,0.106:
0000
0000
0000
0000
,
1001
0000
0000
0000
0000
0110
0000
1001
,
0000
0000
0000
0000
,
0110
0000
0000
0000
0000
1001
0000
0110
,
0000
0000
0000
0000
,
1010
0010
1000
0100
0000
1100
0000
1001
,
0000
0002
0003
0200
0000
0001
0301
0000
,
0101
0100
0001
0010
0000
0011
0000
0110
,
0000
0000
0200
0000
0300
0000
2000
0000
0001
0000
0000
0001
0000
0000
3001
0000
,
1001
1000
0001
0010
0100
0110
0000
1001
,
0001
0000
2000
0000
0000
0000
3020
0000
0100
0000
0000
0100
0000
0000
0130
0000
,
0110
0100
0001
0020
0030
0011
0000
2001
,
0000
0000
0001
0000
3001
0000
1000
0000
1100
0000
0001
0000
0100
0001
0100
0000
,
0101
0001
0101
0100
0101
0001
1001
1000
,
1100
0100
1100
1000
1100
0100
0110
0010
,
0011
0001
0011
0010
0011
0001
1001
1000
,
1010
0010
1010
1000
1010
0010
0110
0100
,
0101
0001
0101
0100
0110
0010
1010
1000
,
1001
0001
0011
0010
0110
0100
1100
1000
,
1001
0001
0100
1000
0000
1100
0000
0102
,
0000
0100
0103
0001
1001
1000
0100
0000
,
2200
3000
0020
0300
0002
0030
2000
0003
,
0020
3000
0400
0030
0004
0300
2000
3003
,
1001
0001
0100
0101
0001
0010
0022
0000
,
0000
0000
0000
0033
0000
0000
0001
0000
0010
0000
0100
0000
1000
0000
0100
0000
0010
0000
0001
0000
1000
0000
0100
0000
,
2200
0300
0020
3000
0200
0030
0002
0300
,
2000
0003
0200
3000
0040
0300
0004
0033
,
0011
0011
1001
1001
1010
1010
0110
0000
,
0000
0000
0000
0000
0040
0000
4030
0000
3004
0000
0043
0000
0430
0000
4300
3000
,
1100
0000
0000
0000
0100
0000
1000
0000
0001
0000
0100
0010
0100
0000
0001
0000
,
0101
0000
0000
0000
0001
0000
1000
0000
0100
0000
0010
0001
0010
0000
0100
0000
,
0110
0000
0100
1000
0001
0100
1000
0100
,
0001
0000
1000
0100
0001
0010
1000
0100
,
1100
0000
0000
0000
1000
0000
0001
0000
0100
0000
0010
1000
0010
0000
0100
0000
,
0110
0000
0000
0000
0010
0000
1000
0000
0001
0000
0010
0100
0010
0000
0001
0000
,
0011
0000
0000
0000
0010
0000
0100
0000
1000
0000
0001
0100
0010
0000
1000
0000
,
1010
0000
1010
1000
1002
1000
0100
0013
,
0011
0000
0000
0000
0010
0000
0001
0000
1000
0000
0010
0100
0010
0000
1000
0000
,
1010
0000
0000
0000
1000
0000
0001
0000
0010
0000
0100
1000
0100
0000
0010
0000
,
0110
0000
0010
0001
1000
0010
0001
0010
,
1000
0000
0001
0010
1000
0100
0001
0010
,
0011
0000
0000
0000
0001
0000
1000
0000
0010
0000
0100
0001
0100
0000
0010
0000
,
0110
0000
0000
0000
0100
0000
0001
0000
1000
0000
0100
0010
0100
0000
1000
0000
,
1100
0000
0000
0000
0100
0000
0010
0000
0001
0000
1000
0010
0100
0000
0001
0000
,
0101
0001
2000
0000
3200
0000
0320
0030
,
0110
0100
1000
0100
0001
0100
0010
0001
,
0100
0010
2000
0000
3020
0000
0230
0000
,
0302
0000
0000
0003
;

//---------------dance-single - Itsugo15----------------
#NOTES:
     dance-single:
     Itsugo15:
     Easy:
     3:
     0.171,0.239,0.056,0.111,0.000:
0000
0000
0000
0000
,
1000
0000
0000
0000
0000
0000
0000
0001
,
0000
0000
0000
0000
,
0010
0000
0000
0000
0000
0000
0000
0100
,
0000
0000
0000
0000
,
1000
0000
0000
0000
0000
0001
0000
0001
,
0000
0000
0000
0000
,
0100
0000
0000
0000
0000
0010
0000
0010
,
0000
0000
0000
0000
,
1000
0000
0000
0000
0000
0001
0000
0010
,
0000
0000
0000
0000
,
0100
0000
0000
0000
0000
1000
0000
0001
,
0000
0000
0100
0010
,
1000
1000
1000
0000
,
0001
0001
0001
0000
,
0010
0010
0010
0000
,
0100
0100
0100
0000
,
1000
0100
1000
0000
,
0001
0100
0001
0000
,
1000
0010
0100
0001
,
1000
0100
0010
0001
,
2000
0000
3000
0000
,
0020
0000
0030
0000
,
0200
0000
0300
0000
,
0002
0000
0003
0000
,
2000
0000
3200
0000
,
0320
0000
0032
0000
,
1003
0001
1000
0002
,
0003
0000
0000
0000
,
0110
0000
0010
0000
,
1000
0000
0100
0000
,
1000
0000
0001
0000
,
0100
0000
0010
0000
,
0110
0000
0100
0000
,
0001
0000
1000
0000
,
0100
0000
0010
0000
,
0001
0000
1000
0000
,
1001
0000
0001
0000
,
0010
0000
0100
0000
,
1000
0000
0001
0000
,
0100
0000
0010
0000
,
0110
0000
0100
0000
,
0001
0000
1000
0000
,
0100
0000
0010
0000
,
0001
0000
1000
0000
,
1001
0000
0001
0000
,
1000
0000
0010
0000
,
0200
0000
0000
0300
;
