#TITLE:千本桜;
#SUBTITLE:刀語;
#ARTIST:黒うさP feat. 柿チョコ;
#TITLETRANSLIT:Senbonzakura;
#SUBTITLETRANSLIT:Katanagatari;
#ARTISTTRANSLIT:KurousaP Feat. Kakichoco;
#GENRE:Otaku's Dream 4th Mix (Pad);
#CREDIT:Itsugo15;
#BANNER:Senbonzakura-bn.png;
#BACKGROUND:Senbonzakura-bg.png;
#JACKET:Senbonzakura-Jacket.png;
#LYRICSPATH:Senbonzakura.lrc;
#CDTITLE:Itsugo15 SimifileS.png;
#MUSIC:Senbonzakura.ogg;
#OFFSET:0.975;
#SAMPLESTART:56.160;
#SAMPLELENGTH:30.000;
#SELECTABLE:YES;
#LISTSORT:;
#DISPLAYBPM:154.000;
#BPMS:0.000=154.000,484.000=77.000,500.000=154.000;
#STOPS:;
#TICKCOUNT:0.000=6;
#BGCHANGES:2.438=Senbonzakura.avi=1.000=1=1=0,
599.500=Senbonzakura-bg.png=1.000=0=1=0,
99999=-nosongbg-=1.000=0=0=0 // don't automatically add -songbackground-
;
#KEYSOUNDS:;
#ATTACKS:;

//---------------dance-single - Itsugo15----------------
#NOTES:
     dance-single:
     Itsugo15:
     Challenge:
     12:
     1.000,1.000,1.000,0.838,1.000:
0000
0000
0000
0000
,
0000
0000
0000
0000
,
0000
0000
0000
0000
,
0000
0000
0000
0000
,
0000
0000
0000
0000
,
1000
0000
0001
0000
0100
0010
0100
0010
0100
0000
0001
0000
0010
0100
0010
0100
,
0010
0000
0000
0000
0001
0000
0000
0000
0100
0000
0010
0000
0100
0000
0010
0000
0100
0000
0000
0000
0001
1000
0001
0000
0010
0000
0000
0000
0100
0000
0000
0000
,
0110
0000
0010
0000
0001
1000
0001
1000
0001
0000
0100
0000
1000
0001
1000
0001
,
1000
0000
0100
0000
0001
0000
1000
0000
0100
0010
0001
0010
0100
0000
1000
0000
,
1100
0000
0100
0000
0010
0001
1000
0001
0010
0000
0100
0000
1000
0001
1000
0010
,
1000
0000
0000
0000
0010
0000
0000
0000
0100
0000
0001
0000
1000
0000
0001
0000
0100
0000
0000
0000
0001
0100
0001
0000
1000
0000
0000
0000
0100
0000
0000
0000
,
1100
0000
0100
0010
0001
0000
1000
0010
0100
0000
0001
0100
0010
0000
1000
0001
,
1001
0000
0000
0110
0000
0000
1001
0000
1101
0000
0000
0000
0001
0000
0010
0000
,
0100
0000
1000
0000
0010
0100
0010
0100
0010
0000
1000
0000
0100
0010
0100
0010
,
0100
0000
0000
0000
1000
0000
0000
0000
0010
0000
0100
0000
0010
0000
0100
0000
0010
0000
0000
0000
1000
0001
1000
0000
0100
0000
0000
0000
0010
0000
0000
0000
,
0110
0000
0100
0000
1000
0001
1000
0001
1000
0000
0010
0000
0001
1000
0001
1000
,
0001
0000
0010
0000
1000
0000
0001
0000
0010
0100
1000
0100
0010
0000
0001
0000
,
0011
0000
0010
0000
0100
1000
0001
1000
0100
0000
0010
0000
0001
1000
0001
0100
,
0001
0000
0000
0000
0100
0000
0000
0000
0010
0000
1000
0000
0001
0000
1000
0000
0010
0000
0000
0000
1000
0010
1000
0000
0001
0000
0000
0000
0010
0000
0000
0000
,
0011
0000
0010
0100
1000
0001
0100
0010
1000
0001
0010
0000
0011
0000
0001
0000
,
1001
0000
0000
0110
0000
0000
1001
0000
2002
0000
3003
0000
0101
0000
0000
0000
,
1100
0000
0000
0000
0110
0000
0000
0010
0001
0000
1000
0000
0010
0000
0100
0000
,
0110
0000
0000
0000
0101
0000
0000
0001
1000
0000
0100
0000
0010
0000
0001
0000
,
0011
0000
0000
0000
1100
0000
0000
1000
0001
0000
0100
0000
0010
0000
1000
0000
,
2M10
3000
10M2
0003
M021
0030
021M
0300
,
1101
0000
0000
1000
0001
0000
0000
0001
0100
0000
0010
0000
1000
0000
0001
0000
,
1001
0000
0000
1000
0100
0000
0000
0010
0001
0000
1000
0000
0010
0000
0100
0000
,
0110
0000
0000
0100
0001
0000
0010
0000
1000
0000
0010
0000
0100
0000
1000
0000
,
210M
3000
M012
0003
02M1
0300
1M20
0030
,
1011
1010
0101
0011
,
1100
0000
1000
0001
0100
0000
0010
0000
1000
0000
0000
0000
1010
0000
0000
0000
,
1001
0000
0001
0000
0020
0000
0000
0000
0230
0000
0000
0000
2300
0000
0000
3000
,
1100
1000
0100
0010
0001
1000
0010
0100
,
0110
0101
1001
1100
,
0110
0000
0010
0001
1000
0000
0010
0000
0200
0000
0000
0000
0301
0000
1000
0000
,
1001
1001
0000
0001
2000
0000
3200
0000
,
0310
0001
0011
4004
0000
0000
0000
3003
,
1001
0000
0000
1000
0010
0000
0100
0000
0010
0000
1000
0000
0001
0000
0010
0000
,
0011
0001
1001
1000
1100
0100
1000
0001
,
1001
0000
0000
0001
0100
0000
0010
0000
1000
0000
0001
0000
0010
0000
0100
0000
,
0110
0100
1100
1000
1001
0001
1000
0100
,
1100
0000
0000
1000
0100
0000
0010
0000
0001
0000
1000
0000
0010
0000
0100
0000
,
0110
0010
1010
1000
1001
0001
0010
0100
,
0110
1001
0110
1001
,
0110
0010
0001
1000
0010
M00M
0100
0001
,
0101
0000
0000
0101
0000
0000
1001
0000
0200
0000
0000
0000
0300
0000
1000
0000
,
0010
0100
0001
1000
0100
M00M
0010
0001
,
0011
0000
0000
0011
0000
0000
1001
0000
0020
0000
0000
0000
0030
0000
1000
0000
,
0010
0100
0001
0010
0100
00MM
1000
0001
,
1001
0000
0000
1001
0000
0000
0101
0000
2000
0000
0000
0000
3000
0000
0001
0000
,
0100
0010
1000
0100
0010
MM00
0001
1000
,
1001
M00M
0110
0MM0
1001
M00M
0110
0MM0
,
0001
0010
0100
2000
0002
0000
0010
3003
,
1000
0000
0001
0000
0100
0010
0100
0010
0100
0000
0001
0000
0010
0100
0010
0100
,
0010
0000
0000
0000
0001
0000
0000
0000
0100
0000
0010
0000
0100
0000
0010
0000
0100
0000
0000
0000
0001
1000
0001
0000
0010
0000
0000
0000
0100
0000
0000
0000
,
0110
0000
0010
0000
0001
1000
0001
1000
0001
0000
0100
0000
1000
0001
1000
0001
,
1000
0000
0100
0000
0001
0000
1000
0000
0100
0010
0001
0010
0100
0000
1000
0000
,
1100
0000
0100
0000
0010
0001
1000
0001
0010
0000
0100
0000
1000
0001
1000
0010
,
1000
0000
0000
0000
0010
0000
0000
0000
0100
0000
0001
0000
1000
0000
0001
0000
0100
0000
0000
0000
0001
0100
0001
0000
1000
0000
0000
0000
0100
0000
0000
0000
,
1100
0000
0100
0010
0001
1000
0010
0100
0001
1000
0100
0000
1100
0000
1000
0000
,
1001
0000
0000
0110
0000
0000
1001
0000
2002
0000
3003
0000
1010
0000
0000
0000
,
0011
0000
0000
0000
0110
0000
0000
0100
1000
0000
0001
0000
0100
0000
0010
0000
,
0110
0000
0000
0010
1000
0000
0000
1000
0001
0000
0010
0000
0100
0000
1000
0000
,
1100
0000
0000
0000
0011
0000
0000
0001
1000
0000
0010
0000
0100
0000
0001
0000
,
01M2
0003
2M01
3000
120M
0300
M120
0030
,
1011
0000
0000
0001
1000
0000
0000
1000
0010
0000
0100
0000
0001
0000
1000
0000
,
1001
0000
0000
0000
0011
0000
0000
0100
1000
0000
0001
0000
0100
0000
0010
0000
,
0110
0000
0000
0010
1000
0000
0100
0000
0001
0000
0100
0000
0010
0000
0001
0000
,
M012
0003
210M
3000
1M20
0030
02M1
0300
,
1101
0101
1010
1100
,
0011
0000
0001
1000
0010
0000
0100
0000
0002
0000
0000
0003
0101
0000
0000
0000
,
1001
0000
1000
0000
0100
0000
0010
0000
0002
0000
0000
0000
2003
0000
0000
3000
,
1011
0001
0010
0100
1000
0001
0100
0010
,
0110
1010
1001
0011
,
0110
0000
0100
1000
0001
0000
0100
0000
0020
0000
0000
0000
1030
0000
0001
0000
,
1001
1001
0000
1000
0002
0000
0023
0000
,
0130
1000
1100
4004
0000
0000
0000
3003
,
1001
0000
0000
0001
0100
0000
0010
0000
0100
0000
0001
0000
1000
0000
0100
0000
,
1100
0001
1001
0010
0011
0010
0001
1000
,
1001
0000
0000
1000
0010
0000
0100
0000
0001
0000
1000
0000
0100
0000
0010
0000
,
0110
0001
0011
1000
1001
1000
0001
0010
,
0011
0000
0000
0001
0010
0000
0100
0000
1000
0000
0001
0000
0100
0000
0010
0000
,
0110
0001
0101
1000
1001
1000
0100
0010
,
0110
1001
0110
1001
,
0110
0100
1000
0001
0100
M00M
0010
1000
,
1010
0000
0000
0101
0000
0000
1001
0000
0020
0000
0000
0000
0030
0000
0001
0000
,
0100
0010
1000
0001
0010
M00M
0100
1000
,
1100
0000
0000
0011
0000
0000
1001
0000
0200
0000
0000
0000
0300
0000
0001
0000
,
0100
0010
1000
0100
0010
MM00
0001
1000
,
1001
0000
0000
0110
0000
0000
1010
0000
0002
0000
0000
0000
0003
0000
1000
0000
,
0010
0100
0001
0010
0100
00MM
1000
0001
,
1001
M00M
0110
0MM0
1001
M00M
0110
0MM0
,
1000
0100
0010
0002
2000
0000
0010
3003
,
1001
0000
0001
0000
0001
0000
0001
0000
1001
0000
0001
0000
0001
1000
0001
0000
,
1001
0000
1000
0000
1000
0000
1000
0000
1001
0000
1000
0000
1000
0010
0100
0000
,
0110
0000
0010
0000
0010
0000
0010
0000
0110
0000
0010
0000
0010
0100
0010
0000
,
0110
0000
0000
0000
0000
0000
0100
0000
0000
0001
0000
0000
1000
0000
0000
0100
0000
0000
0010
0000
0000
0001
0000
0000
1000
0000
0001
0000
1000
0000
0010
0000
0000
0100
0000
0000
0001
0000
0000
0010
0000
0000
0100
0000
0000
1000
0000
0000
,
0100
0010
0001
1000
0000
0001
1000
0001
0100
0010
1000
0001
0000
1000
0001
0010
,
0100
1000
0001
0100
0000
0001
0100
0001
1000
0100
0010
0001
0000
0010
0001
1000
,
0100
0010
0001
1000
0000
0001
1000
0100
1000
0010
0100
0001
0000
0100
0001
1000
,
0010
0100
0010
1000
0000
0100
1000
0001
0100
0010
1000
0001
0000
1000
0001
0010
,
0100
0000
0000
1000
0000
0000
0001
0000
0000
0100
0000
0000
0010
0000
0000
1000
0000
0000
0001
0000
0000
0010
0000
0000
0001
0000
0000
0100
0000
0000
0010
0000
0000
1000
0000
0000
0001
0000
1000
0000
0001
0000
1000
0000
0000
0100
0000
0000
,
1000
0000
0000
0001
0000
0000
0010
0000
0000
0100
0000
0000
1000
0000
0000
0100
0000
0000
0010
0000
0000
0001
0000
0000
0100
0000
0000
0001
0000
0000
1000
0000
0000
0001
0000
0000
0010
0000
0100
0000
0010
0000
0100
0000
0000
0010
0000
0000
,
0001
0010
0100
1000
0100
0010
0001
1000
0001
0100
0001
0010
0100
1000
0001
1000
,
0010
0000
0000
0100
0000
0000
0010
0000
0000
1000
0000
0000
0100
0000
0000
0010
0000
0000
0001
0000
0000
1000
0000
0000
0010
0000
0000
0100
0000
0000
0001
0000
0000
1000
0000
0000
0001
0000
0100
0000
0001
0000
1000
0000
0000
0001
0000
0000
,
1000
0001
1000
0001
1000
0001
1000
0010
1000
0010
1000
0010
1000
0001
1000
0001
1000
0001
0010
0001
0010
0001
0010
0001
,
0010
0000
0100
0000
0010
0000
0100
0000
0010
0000
0100
0000
1000
0000
0100
0000
1000
0000
0100
0000
1000
0000
0100
0000
0020
0000
0000
0000
0000
0000
0000
0000
0000
0000
0000
0000
0000
0000
0000
0000
0000
0000
0031
0000
0000
1000
0000
0000
,
0001
0000
0000
0100
0000
0000
0010
0000
0000
1000
0000
0000
0010
0000
0000
0100
0000
0000
0001
0000
0000
1000
0000
0000
0001
0000
0000
0010
0000
0000
0001
0000
0000
1000
0000
0000
0001
0000
1000
0000
0001
0000
1000
0000
0000
0010
0000
0000
,
0200
0000
0302
0400
0000
0000
0000
0303
,
0001
0100
0001
0100
0010
1000
0010
1000
0001
0010
0001
0010
0100
1000
0100
1000
,
0001
0010
0100
0000
1000
0001
0200
0000
0310
1000
0002
0000
0000
0000
1003
0000
,
0100
0000
0000
0000
0010
0000
0000
0000
0100
0000
0000
0000
1000
0000
0000
0010
0000
0000
0100
0000
0000
0001
0000
0000
1000
0000
0000
0010
0000
0000
2000
0000
0000
0000
0000
0000
3001
0000
0000
0010
0000
0000
0100
0000
0000
1000
0000
0000
,
0002
0000
0000
2003
0000
0000
3100
0010
0200
0000
0000
0000
1300
0000
0000
0000
,
1110
0011
1100
1010
,
0101
0000
0001
1000
0100
0000
0010
0000
0001
0000
0000
0000
0011
0000
0000
0000
,
1001
0000
1000
0000
0020
0000
0000
0000
0230
0000
0000
0000
0302
0000
0000
0003
,
0101
0001
0100
0010
1000
0001
0010
0100
,
0110
1100
1001
0101
,
0110
0000
0010
1000
0001
0000
0010
0000
0200
0000
0000
0000
1300
0000
0001
0000
,
1001
1001
0000
1000
0002
0000
0203
0000
,
0310
0110
1010
2002
0000
0000
0000
3003
,
0001
0000
0000
0010
0000
0000
0100
0000
2000
0000
0000
0000
0000
0000
3100
0000
1000
0000
0100
0000
0010
0000
0100
0000
1000
0000
0000
0000
0001
0000
0001
0000
,
1000
0000
0000
0010
0000
0000
0100
0000
0002
0000
0000
0000
0003
0000
0100
0000
0010
0000
1000
0000
0001
0000
0010
0000
0100
0000
0000
0000
0100
0000
0100
0000
,
2200
3300
0001
0000
0202
0303
1000
0000
2020
3030
0001
0000
0022
0033
0010
0100
,
0110
0000
1001
0000
0110
0000
1001
0000
0010
0001
0100
1000
0200
0300
0010
1000
,
1010
0000
0000
0101
0000
0000
1001
0000
0020
0000
0000
0000
0030
0000
0001
0000
,
0100
0010
1000
0001
0010
M00M
0100
1000
,
1100
0000
0000
0011
0000
0000
1001
0000
0200
0000
0000
0000
0300
0000
0001
0000
,
0100
0010
1000
0100
0010
MM00
0001
1000
,
1001
0000
0000
0101
0000
0000
1010
0000
0002
0000
0000
0000
0003
0000
1000
0000
,
0010
0100
0001
0010
0100
00MM
1000
0001
,
1001
M00M
0110
0MM0
1001
M00M
0110
0MM0
,
1000
0100
0010
0002
2000
0000
0100
3003
,
0001
0000
1000
0000
0010
0100
0010
0100
0010
0000
1000
0000
0100
0010
0100
0010
,
0100
0000
0000
0000
1000
0000
0000
0000
0010
0000
0100
0000
0010
0000
0100
0000
0010
0000
0000
0000
1000
0001
1000
0000
0100
0000
0000
0000
0010
0000
0000
0000
,
0110
0000
0100
0000
1000
0001
1000
0001
1000
0000
0010
0000
0001
1000
0001
1000
,
0001
0000
0010
0000
1000
0000
0001
0000
0010
0100
1000
0100
0010
0000
0001
0000
,
0011
0000
0010
0000
0100
1000
0001
1000
0100
0000
0010
0000
0001
1000
0001
0100
,
0001
0000
0000
0000
0100
0000
0000
0000
0010
0000
1000
0000
0001
0000
1000
0000
0010
0000
0000
0000
1000
0010
1000
0000
0001
0000
0000
0000
0010
0000
0000
0000
,
0011
0000
0010
0100
1000
0000
0001
0100
0010
0000
1000
0010
0100
0000
0001
1000
,
1001
0000
0000
0000
0001
1000
0001
0000
0010
0000
0000
0000
0100
0000
0000
0000
2200
0000
0000
0000
3300
0000
0000
0000
1000
0000
0000
0000
0100
0000
0000
0000
,
0010
0000
0001
0000
0100
0010
1000
0001
0010
0000
0001
0000
0010
0100
1000
0001
,
0100
0000
0000
0000
0001
0000
0000
0000
0100
0000
0010
0000
1000
0000
0001
0000
0010
0000
0000
0000
0001
1000
0001
0000
0010
0000
0000
0000
0100
0000
0000
0000
,
0110
0000
0010
0000
0001
1000
0010
0100
0001
0000
0100
0000
0001
1000
0100
0010
,
0001
0000
0100
0000
0001
0000
1000
0000
0100
0010
0001
0010
0100
0000
1000
0000
,
1100
0000
0100
0000
0010
0001
1000
0001
0010
0000
0100
0000
1000
0001
1000
0010
,
1000
0000
0000
0000
0010
0000
0000
0000
0100
0000
0001
0000
1000
0000
0001
0000
0100
0000
0000
0000
0001
0100
0001
0000
1000
0000
0000
0000
0100
0000
0000
0000
,
1100
0000
0100
0010
0001
1000
0010
0100
0001
1000
0100
0000
1100
0000
1000
0000
,
1001
0000
0000
0110
0000
0000
1001
0000
2002
0000
3003
0000
1010
0000
0000
0000
,
0111
0000
0000
1110
0000
0000
1101
0000
2222
0000
0000
0003
0030
0300
3000
0000
;

//---------------dance-single - Itsugo15----------------
#NOTES:
     dance-single:
     Itsugo15:
     Beginner:
     2:
     0.263,0.500,0.057,0.038,0.000:
0000
0000
0000
0000
,
0000
0000
0000
0000
,
0000
0000
0000
0000
,
0000
0000
0000
0000
,
0000
0000
0000
0000
,
0001
0000
0000
0000
,
0001
0000
0000
0000
,
0001
0000
0000
0000
,
0001
0000
0000
0000
,
1000
0000
0000
0000
,
1000
0000
0000
0000
,
1000
0000
0000
0000
,
1000
0000
0000
0000
,
0010
0000
0000
0000
,
0010
0000
0000
0000
,
0010
0000
0000
0000
,
0010
0000
0000
0000
,
0100
0000
0000
0000
,
0100
0000
0000
0000
,
0100
0000
0000
0000
,
0100
0000
0000
0000
,
0001
0000
0000
0000
,
1000
0000
0000
0000
,
0100
0000
0000
0000
,
0010
0000
0001
0000
,
1000
0000
0000
0000
,
0010
0000
0000
0000
,
0100
0000
0000
0000
,
0001
0000
1000
0000
,
1001
0000
0001
0000
,
0010
0000
0000
0000
,
0100
0000
1000
0000
,
0001
0000
0000
0000
,
1000
0000
0010
0000
,
0100
0000
0000
0000
,
0001
0000
1000
0000
,
0200
0000
0300
0000
,
1000
0000
0000
0000
,
0100
0000
0000
0000
,
0010
0000
0000
0000
,
0001
0000
0000
0000
,
1000
0000
0000
0000
,
0010
0000
0000
0000
,
0100
0000
0000
0000
,
0001
0000
0000
0000
,
0101
0000
0000
0000
,
0100
0000
0000
0000
,
0010
0000
0000
0000
,
1000
0000
0000
0000
,
0100
0000
0000
0000
,
0010
0000
0000
0000
,
0001
0000
0000
0000
,
1000
0000
0000
0000
,
0100
0000
0000
0000
,
0100
0000
0000
0000
,
0100
0000
0000
0000
,
0100
0000
0000
0000
,
0010
0000
0000
0000
,
0010
0000
0000
0000
,
0010
0000
0000
0000
,
0010
0000
0000
0000
,
0001
0000
0000
0000
,
1000
0000
0000
0000
,
0010
0000
0000
0000
,
0100
0000
0001
0000
,
1000
0000
0000
0000
,
0100
0000
0000
0000
,
0010
0000
0000
0000
,
0001
0000
1000
0000
,
1001
0000
0001
0000
,
0100
0000
0000
0000
,
0010
0000
1000
0000
,
0001
0000
0000
0000
,
1000
0000
0100
0000
,
0010
0000
0000
0000
,
0001
0000
1000
0000
,
0020
0000
0030
0000
,
1000
0000
0000
0000
,
0010
0000
0000
0000
,
0100
0000
0000
0000
,
0001
0000
0000
0000
,
1000
0000
0000
0000
,
0100
0000
0000
0000
,
0010
0000
0000
0000
,
0001
0000
0000
0000
,
0011
0000
0000
0000
,
0010
0000
0000
0000
,
0100
0000
0000
0000
,
1000
0000
0000
0000
,
0010
0000
0000
0000
,
0100
0000
0000
0000
,
0001
0000
0000
0000
,
1000
0000
0000
0000
,
1001
0000
0000
0000
,
0001
0000
0000
0000
,
0001
0000
0000
0000
,
0001
0000
0000
0000
,
1000
0000
0010
0000
,
0100
0000
0001
0000
,
1000
0000
0100
0000
,
0010
0000
0001
0000
,
0010
0000
0100
0000
,
1000
0000
0001
0000
,
0100
0000
0010
0000
,
1000
0000
0001
0000
,
0010
0000
0000
0000
,
0100
0000
0000
0000
,
1000
0000
0001
0000
,
0100
0000
0000
0000
,
0010
0000
1000
0000
,
0001
0000
0000
0000
,
1000
0000
0100
0000
,
0010
0000
0001
0000
,
1001
0000
1000
0000
,
0010
0000
0000
0000
,
0100
0000
0001
0000
,
1000
0000
0000
0000
,
0001
0000
0010
0000
,
0100
0000
0000
0000
,
1000
0000
0001
0000
,
0200
0000
0300
0000
,
0010
0000
0010
0000
,
1000
0000
1000
0000
,
0001
0010
0100
1000
,
0100
0010
0001
1000
,
0001
0000
0000
0000
,
0100
0000
0000
0000
,
0010
0000
0000
0000
,
1000
0000
0000
0000
,
0001
0000
0000
0000
,
0010
0000
0000
0000
,
0100
0000
0000
0000
,
1000
0000
0000
0000
,
0001
0000
0000
0000
,
0001
0000
0000
0000
,
0001
0000
0000
0000
,
0001
0000
0000
0000
,
1000
0000
0000
0000
,
1000
0000
0000
0000
,
1000
0000
0000
0000
,
1000
0000
0000
0000
,
0010
0000
0000
0000
,
0010
0000
0000
0000
,
0010
0000
0000
0000
,
0010
0000
0000
0000
,
0100
0000
0000
0000
,
0100
0000
0000
0000
,
0100
0000
0000
0000
,
0100
0000
0001
0000
,
1000
0000
0000
0000
0200
0000
0000
0300
;

//---------------dance-single - Itsugo15----------------
#NOTES:
     dance-single:
     Itsugo15:
     Easy:
     4:
     0.476,0.714,0.200,0.095,0.000:
0000
0000
0000
0000
,
0000
0000
0000
0000
,
0000
0000
0000
0000
,
0000
0000
0000
0000
,
0000
0000
0000
0000
,
1000
0000
1000
0000
,
1000
0000
0010
0000
,
0100
0000
0100
0000
,
0100
0000
0001
0000
,
1000
0000
1000
0000
,
1000
0000
0100
0000
,
0010
0000
0001
0000
,
0010
0000
0100
0000
,
1000
0000
1000
0000
,
1000
0000
0010
0000
,
0100
0000
0100
0000
,
0100
0000
0001
0000
,
0010
0000
0010
0000
,
0010
0000
0001
0000
,
0100
0000
0010
0000
,
1000
0000
1010
0000
,
1000
0000
0001
0000
,
0010
0000
0010
0000
,
0001
0000
1000
0000
,
0010
0000
0010
0000
,
0100
0000
0001
0000
,
1000
0000
1000
0000
,
0100
0000
0010
0000
,
0001
0000
0001
0000
,
0011
0000
0001
0000
,
1000
0000
1000
0000
,
0010
0000
0100
0000
,
0001
0000
1000
0000
,
1001
0000
0001
0000
,
1000
0000
1000
0000
,
0100
0000
0010
0000
,
0002
0000
0003
0000
,
1000
0000
0010
0000
,
0100
0000
0100
0000
,
0001
0000
0010
0000
,
0100
0000
0100
0000
,
1000
0000
0001
0000
,
0100
0000
0100
0000
,
0010
0000
1000
0000
,
0001
0000
0010
0000
,
0011
0000
0001
0000
,
0010
0000
0010
0000
,
0001
0000
1000
0000
,
0010
0000
0010
0000
,
0100
0000
0001
0000
,
0010
0000
0010
0000
,
0011
0000
1001
0000
,
1010
0000
1001
0000
,
0001
0000
0001
0000
,
0001
0000
0100
0000
,
0010
0000
0010
0000
,
0010
0000
1000
0000
,
0100
0000
0100
0000
,
0100
0000
1000
0000
,
0010
0000
0100
0000
,
0001
0000
0101
0000
,
0001
0000
1000
0000
,
0100
0000
0100
0000
,
1000
0000
0001
0000
,
0100
0000
0100
0000
,
0010
0000
1000
0000
,
0001
0000
0001
0000
,
0010
0000
0100
0000
,
1000
0000
1000
0000
,
1100
0000
1000
0000
,
0001
0000
0001
0000
,
0100
0000
0010
0000
,
1000
0000
0001
0000
,
1001
0000
1000
0000
,
0001
0000
0001
0000
,
0010
0000
0100
0000
,
2000
0000
3000
0000
,
0001
0000
0100
0000
,
0010
0000
0010
0000
,
1000
0000
0100
0000
,
0010
0000
0010
0000
,
0001
0000
1000
0000
,
0010
0000
0010
0000
,
0100
0000
0001
0000
,
1000
0000
0100
0000
,
1100
0000
1000
0000
,
0100
0000
0100
0000
,
1000
0000
0001
0000
,
0100
0000
0100
0000
,
0010
0000
1000
0000
,
0100
0000
0100
0000
,
1100
0000
1001
0000
,
0101
0000
1001
0000
,
1000
0000
1000
0001
,
1000
0000
1000
0001
,
1000
0000
1000
0001
,
1000
0100
0010
0001
,
0011
0000
0001
0000
,
0100
0000
0010
0000
,
1000
0000
0100
0000
,
1000
0000
0010
0000
,
0100
0100
0001
0001
,
1000
1000
0100
0100
,
0010
0010
0001
0001
,
0010
0010
0100
0100
,
1000
0001
0010
0001
,
0100
0010
2000
0000
,
3001
0001
0010
0100
,
2000
3100
0020
0030
,
0001
0001
1000
1000
,
0010
0100
0002
0000
,
1003
0100
1000
0100
,
0010
0000
0001
0000
,
0011
0000
0001
0000
,
1000
0000
1000
0000
,
0010
0000
0100
0000
,
0001
0000
1000
0000
,
1001
0000
0001
0000
,
1000
0000
1000
0000
,
0100
0000
0010
0000
,
0002
0000
0003
0000
,
1000
0010
1000
0010
,
0100
0010
0100
0001
,
0100
0001
1000
0100
,
0010
0001
1000
0010
,
0100
0000
0100
0000
,
0010
0000
0010
0000
,
1000
0000
0100
0000
,
0010
0000
0010
0000
,
0001
0000
1000
0000
,
0010
0000
0010
0000
,
0100
0000
0001
0000
,
1000
0000
0200
0000
,
1000
0000
1000
0000
,
1300
0000
0010
0000
,
0100
0000
0100
0000
,
0100
0000
0001
0000
,
1000
0000
1000
0000
,
1000
0000
0100
0000
,
0010
0000
0001
0000
,
0010
0000
0100
0000
,
1000
0000
1000
0000
,
1000
0000
0010
0000
,
0100
0000
0100
0000
,
0100
0000
0001
0000
,
0010
0000
0010
0000
,
0010
0000
0001
0000
,
0100
0000
0010
0000
,
1000
0000
1010
0000
,
1000
0000
0000
0000
2002
0000
0000
3003
;

//---------------dance-single - Itsugo15----------------
#NOTES:
     dance-single:
     Itsugo15:
     Medium:
     7:
     1.000,1.000,0.438,0.190,0.005:
0000
0000
0000
0000
,
0000
0000
0000
0000
,
0000
0000
0000
0000
,
0000
0000
0000
0000
,
0000
0000
0000
0000
,
1000
1000
0010
0010
,
1000
1000
0100
0010
,
0001
0001
0010
0010
,
0001
0001
0100
0010
,
1000
1000
0001
0001
,
0010
0010
0100
1000
,
0001
0100
0010
1000
,
1010
1000
1001
0001
,
0010
0010
0100
0100
,
1000
1000
0001
0100
,
0010
0010
1000
1000
,
0001
0001
0010
0100
,
1000
1000
0100
0100
,
0010
0010
0001
0100
,
0010
1000
0001
0010
,
0011
0001
1001
1000
,
0010
0010
0100
0001
,
1000
1000
0100
0010
,
0001
0001
0010
0100
,
0110
0100
1100
1000
,
1001
0001
0100
0100
,
0010
1000
0001
0001
,
0010
0100
1000
0100
,
0110
0010
0011
0001
,
1001
1000
0001
0100
,
0010
1000
0001
1000
0010
0000
0100
0000
,
0001
0100
0001
0000
1000
0000
0100
0000
,
0010
0001
1000
0100
0010
0001
0010
0100
,
1000
1000
0001
0001
,
0100
0010
1000
0100
0010
0000
0100
1000
,
0001
0100
0000
0010
1000
0000
0001
0000
,
0010
0100
1000
0002
0000
0000
0003
0000
,
1001
1000
0001
0100
,
0010
1000
0001
0010
0100
0000
1000
0000
,
0100
0100
0010
0010
,
0001
0100
0010
1000
0100
0000
1000
0001
,
0010
0010
0001
0001
,
1000
0010
0100
0001
1000
0000
0100
0010
,
0110
1000
1100
0001
,
0101
0000
1001
0000
1100
0000
1000
0100
,
0010
0000
0010
0000
0001
0000
0001
0100
,
0010
1000
0001
1000
0010
0000
0100
0000
,
0001
0001
1000
1000
,
1000
0100
0010
0100
1000
0000
0001
0100
,
0010
0010
1000
1000
,
0100
0010
0001
0100
0010
0000
1000
0001
,
0010
0100
1000
0100
,
0010
0001
0100
0010
2000
0000
0001
3000
,
0010
0010
0100
0100
,
1000
1000
0001
0100
,
0010
0010
1000
1000
,
0001
0001
0010
0100
,
1000
1000
0100
0100
,
0010
0010
0001
0100
,
0010
1000
0001
0010
,
0011
0001
1001
1000
,
0010
0010
0100
0001
,
1000
1000
0100
0010
,
0001
0001
0010
0100
,
0110
0100
1100
1000
,
1001
0001
0100
0100
,
0010
1000
0001
0001
,
0010
0100
1000
0100
,
0110
0010
0011
0001
,
1001
1000
0001
0100
,
0010
1000
0001
1000
0010
0000
0100
0000
,
0001
0100
0001
0000
1000
0000
0100
0000
,
0010
0001
1000
0100
0010
0001
0010
0100
,
1000
1000
0001
0001
,
0100
0010
1000
0100
0010
0000
0100
1000
,
0001
0100
0000
0010
1000
0000
0001
0000
,
0010
0100
1000
0002
0000
0000
0003
0000
,
1001
1000
0001
0100
,
0010
1000
0001
0010
0100
0000
1000
0000
,
0100
0100
0010
0010
,
0001
0100
0010
1000
0100
0000
1000
0001
,
0010
0010
0001
0001
,
1000
0010
0100
0001
1000
0000
0100
0010
,
0110
1000
1100
0001
,
0101
0000
1001
0000
1100
0000
1000
0100
,
0010
0000
0010
0000
0001
0000
0001
0100
,
0010
1000
0001
1000
0010
0000
0100
0000
,
0001
0001
1000
1000
,
1000
0100
0010
0100
1000
0000
0001
0100
,
0010
0010
1000
1000
,
0100
0010
0001
0100
0010
0000
1000
0001
,
0010
0100
1000
0100
,
0010
0001
0100
0010
2000
0000
0001
3000
,
0010
0000
0000
0010
0010
0000
0000
0000
,
0001
0000
0000
0001
0001
0000
0000
0000
,
1000
0000
0000
1000
1000
0000
0000
0000
,
0010
0000
0100
0000
0001
0000
1000
0100
,
0010
0100
1000
0000
0001
0100
0010
0000
,
1000
0001
0010
0000
0100
1000
0001
0000
,
0100
0001
1000
0000
0100
0010
0001
0000
,
1000
0010
0100
0000
0001
1000
0100
0010
,
0001
1000
0010
0100
0010
1000
0001
0010
,
0100
1000
0100
0010
0100
1000
0001
0100
,
0010
1000
0100
0010
0001
0010
0100
1000
,
0010
0100
0001
0010
0001
0100
0010
1000
,
0002
0023
0230
2300
,
3200
0320
0032
0000
,
1003
0010
1000
0001
0100
0001
0010
0001
,
0200
0000
0310
1000
0002
0000
2003
0000
,
3100
0100
1000
1000
0010
0010
0100
0001
,
1000
0100
0010
0100
2000
0000
3002
0000
,
0103
0010
1000
0001
0010
0100
0010
0001
,
1000
0000
0000
0010
0000
0000
0100
0000
0110
0000
0000
0000
0101
0000
0000
0000
,
1001
0001
1000
0010
,
0100
0001
1000
0001
0100
0000
0010
0000
,
1000
0010
1000
0000
0001
0000
0010
0000
,
0100
1000
0001
0010
0100
1000
0100
0010
,
0001
0001
1000
1000
,
0010
0100
0001
0010
0100
0000
0010
0001
,
1000
0010
0000
0100
0001
0000
1000
0000
,
0100
0010
0001
2000
0000
0000
3000
0000
,
0010
1000
0001
0000
0010
0100
1000
0000
,
0100
0010
0001
0000
1000
0010
0100
0000
,
0001
0001
1000
1000
0100
0100
0010
0001
,
1000
0010
0001
0100
1000
0001
0200
0301
,
1001
0001
1000
0010
,
0100
0001
1000
0100
0010
0000
0001
0000
,
0010
0010
0100
0100
,
1000
0010
0100
0001
0010
0000
0001
1000
,
0100
0100
1000
1000
,
0001
0100
0010
1000
0001
0000
0010
0100
,
0110
0001
0011
1000
,
1010
0000
1001
0000
1100
0000
0100
0010
,
0001
0001
0100
0100
,
0001
0001
0010
0100
,
1000
1000
0100
0100
,
1000
1000
0010
0100
,
0001
0001
1000
1000
,
0100
0100
0010
0001
,
1000
0010
0100
0001
,
0101
0001
1001
1000
,
0100
0100
0010
0010
,
0001
0001
1000
0010
,
0100
0100
0001
0001
,
1000
1000
0100
0010
,
0001
0001
0010
0010
,
0100
0100
1000
0010
,
0100
0001
1000
0100
,
1100
1000
1001
0001
,
0101
0000
0110
0000
2020
0000
0000
3030
;

//---------------dance-single - Itsugo15----------------
#NOTES:
     dance-single:
     Itsugo15:
     Hard:
     10:
     1.000,1.000,1.000,0.410,1.000: // measure 1
0000
0000
0000
0000
,  // measure 2
0000
0000
0000
0000
,  // measure 3
0000
0000
0000
0000
,  // measure 4
0000
0000
0000
0000
,  // measure 5
0000
0000
0000
0000
,  // measure 6
1000
0000
0010
0000
0100
0001
0100
0000
0010
0000
1000
0000
0001
1000
0001
0000
,  // measure 7
0010
0000
0100
0000
1000
0100
1000
0000
0001
0000
0100
0010
1000
0000
0001
0000
,  // measure 8
0010
0000
0100
0000
1000
0100
1000
0000
0001
0000
0100
0000
0010
1000
0010
0000
,  // measure 9
0100
0000
0001
0000
1000
0000
0100
0000
0010
0001
0010
0100
1000
0000
0001
0000
,  // measure 10
1001
0000
1000
0000
0001
0100
0001
0000
1000
0000
0100
0000
1000
0100
1000
0000
,  // measure 11
0001
0000
0100
0000
0010
1000
0001
0010
0100
0000
1000
0000
0100
0000
0010
0000
,  // measure 12
0001
0000
1000
0010
1000
0000
0001
1000
0001
0000
0010
0001
0010
0000
0001
0000
,  // measure 13
0011
0000
0000
0110
0000
0000
1100
0000
2000
0000
0000
0000
3100
0000
0010
0000
,  // measure 14
0001
0000
0100
0000
0010
1000
0010
0000
0100
0000
0001
0000
1000
0001
1000
0000
,  // measure 15
0100
0000
0010
0000
0001
0010
0001
0000
1000
0000
0010
0100
0001
0000
1000
0000
,  // measure 16
0100
0000
0010
0000
0001
0010
0001
0000
1000
0000
0010
0000
0100
0001
0100
0000
,  // measure 17
0010
0000
1000
0000
0001
0000
0010
0000
0100
1000
0100
0010
0001
0000
1000
0000
,  // measure 18
1001
0000
0001
0000
1000
0010
1000
0000
0001
0000
0010
0000
0001
0010
0001
0000
,  // measure 19
1000
0000
0010
0000
0100
0001
1000
0100
0010
0000
0001
0000
0010
0000
0100
0000
,  // measure 20
1000
0000
0001
0100
0001
0100
0010
1000
0001
1000
0010
0100
0001
0000
1000
0000
,  // measure 21
1001
0000
0000
0011
0000
0000
1100
0000
1000
0000
0000
0000
1001
0000
0000
0000
,  // measure 22
0101
0000
0000
0000
0100
0000
0000
0010
1000
0000
0001
0000
0010
0000
0100
0000
,  // measure 23
0110
0000
0000
0000
0011
0000
0000
0001
1000
0000
0010
0000
0100
0000
0001
0000
,  // measure 24
0101
0000
0000
0000
0110
0000
0000
0010
1000
0000
0010
0000
0100
0000
0001
0000
,  // measure 25
0101
1010
1100
0011
,  // measure 26
1001
0000
0000
1000
0010
0000
0000
0010
0100
0000
0001
0000
0100
0000
0010
0000
,  // measure 27
0110
0000
0000
0100
0001
0000
1000
0000
0100
0000
1000
0000
0001
0000
0100
0000
,  // measure 28
0010
0000
0000
0010
1000
0000
0001
0000
0010
0000
0100
0000
1000
0000
0001
0000
,  // measure 29
1001
1010
0011
1100
,  // measure 30
0101
1010
0101
1010
,  // measure 31
1100
0000
0100
0010
0001
0000
1000
0000
0010
0000
0000
0000
1010
0000
0000
0000
,  // measure 32
1000
0100
0020
0000
0031
0000
0011
0000
,  // measure 33
1001
0001
1000
0010
0100
0001
0100
0010
,  // measure 34
0110
1010
0101
1001
,  // measure 35
0011
0000
0001
0010
0100
0000
1000
0000
0001
0000
0000
0000
1000
0000
0010
0000
,  // measure 36
1010
1010
0000
1000
0002
0000
0013
0000
,  // measure 37
0011
0001
1000
0020
0000
0000
0000
0030
,  // measure 38
1001
0000
0000
1000
0010
0000
0100
0000
0002
0000
0000
0000
1003
0000
0100
0000
,  // measure 39
0010
0100
1000
0100
0020
0030
0001
1000
,  // measure 40
1001
0000
0000
0001
0100
0000
0010
0000
2000
0000
0000
0000
3100
0000
0010
0000
,  // measure 41
0001
0010
0100
1000
1100
0000
0100
0010
,  // measure 42
0110
0000
0000
0100
1000
0000
0001
0000
0200
0000
0000
0000
0310
0000
1000
0000
,  // measure 43
0001
1000
0100
0010
0110
0000
0010
0001
,  // measure 44
0011
1100
0101
0110
,  // measure 45
0010
1000
0001
0010
0011
0000
0100
1000
,  // measure 46
1100
0000
0000
1001
0000
0000
0101
0000
0002
0000
0000
0003
0000
0000
0100
0000
,  // measure 47
0010
1000
0001
0010
0011
0000
0001
1000
,  // measure 48
1001
0000
0000
1010
0000
0000
0101
0000
0002
0000
0000
0000
1003
0000
0100
0000
,  // measure 49
0010
0001
0010
0100
0110
0000
0010
0001
,  // measure 50
0011
0000
0000
0101
0000
0000
1010
0000
2000
0000
0000
0000
3001
0000
0010
0000
,  // measure 51
0100
0010
0001
1000
0010
0000
0100
0001
,  // measure 52
0101
1001
1100
0110
,  // measure 53
0010
0001
1000
0100
0020
0000
0032
0000
,  // measure 54
1003
0000
0010
0000
0100
0001
0100
0000
0010
0000
1000
0000
0001
1000
0001
0000
,  // measure 55
0010
0000
0100
0000
1000
0100
1000
0000
0001
0000
0100
0010
1000
0000
0001
0000
,  // measure 56
0010
0000
0100
0000
1000
0100
1000
0000
0001
0000
0100
0000
0010
1000
0010
0000
,  // measure 57
0100
0000
0001
0000
1000
0000
0100
0000
0010
0001
0010
0100
1000
0000
0001
0000
,  // measure 58
1001
0000
1000
0000
0001
0100
0001
0000
1000
0000
0100
0000
1000
0100
1000
0000
,  // measure 59
0001
0000
0100
0000
0010
1000
0001
0010
0100
0000
1000
0000
0100
0000
0010
0000
,  // measure 60
0001
0000
1000
0010
1000
0010
0100
0001
1000
0001
0100
0010
1000
0000
0001
0000
,  // measure 61
1001
0000
0000
1100
0000
0000
0011
0000
0001
0000
0000
0000
1001
0000
0000
0000
,  // measure 62
1010
0000
0000
0000
0010
0000
0000
0100
0001
0000
1000
0000
0100
0000
0010
0000
,  // measure 63
0110
0000
0000
0000
1100
0000
0000
1000
0001
0000
0100
0000
0010
0000
1000
0000
,  // measure 64
1010
0000
0000
0000
0110
0000
0000
0100
0001
0000
0100
0000
0010
0000
1000
0000
,  // measure 65
1010
0101
0011
1100
,  // measure 66
1001
0000
0000
0001
0100
0000
0000
0100
0010
0000
1000
0000
0010
0000
0100
0000
,  // measure 67
0120
0000
0000
0000
1030
0000
0000
0001
0010
0000
0001
0000
1000
0000
0010
0000
,  // measure 68
0100
0000
0000
0100
0001
0000
1000
0000
0100
0000
0010
0000
0001
0000
1000
0000
,  // measure 69
1001
0101
1100
0011
,  // measure 70
1010
0101
1010
0101
,  // measure 71
0011
0000
0010
0100
1000
0000
0001
0000
0100
0000
0000
0000
0101
0000
0000
0000
,  // measure 72
0001
0000
0010
0000
0100
0000
0100
0000
2000
0000
0000
3000
1100
0000
0000
0000
,  // measure 73
1001
1000
0001
0100
0010
1000
0010
0100
,  // measure 74
0110
0101
1010
1001
,  // measure 75
1100
0000
1000
0100
0010
0000
0001
0000
1000
0000
0000
0000
0001
0000
0100
0000
,  // measure 76
0101
0101
0000
0001
2000
0000
3100
0000
,  // measure 77
1100
1000
0001
0200
0000
0000
0000
0300
,  // measure 78
1001
0000
0000
0001
0100
0000
0010
0000
2000
0000
0000
0000
3001
0000
0010
0000
,  // measure 79
0100
0010
0001
0010
0200
0300
1000
0001
,  // measure 80
1001
0000
0000
1000
0010
0000
0100
0000
0002
0000
0000
0000
0013
0000
0100
0000
,  // measure 81
1000
0100
0010
0001
0011
0000
0010
0100
,  // measure 82
0110
0000
0000
0010
0001
0000
1000
0000
0020
0000
0000
0000
0130
0000
0001
0000
,  // measure 83
1000
0001
0010
0100
0110
0000
0100
1000
,  // measure 84
1100
0011
1010
0110
,  // measure 85
0100
0001
1000
0100
1100
0000
0010
0001
,  // measure 86
0011
0000
0000
1001
0000
0000
1010
0000
2000
0000
0000
3000
0000
0000
0010
0000
,  // measure 87
0100
0001
1000
0100
1100
0000
1000
0001
,  // measure 88
1001
0000
0000
0101
0000
0000
1010
0000
2000
0000
0000
0000
3001
0000
0010
0000
,  // measure 89
0100
1000
0100
0010
0110
0000
0100
1000
,  // measure 90
1100
0000
0000
1010
0000
0000
0101
0000
0002
0000
0000
0000
1003
0000
0100
0000
,  // measure 91
0010
0100
1000
0001
0100
0000
0010
1000
,  // measure 92
1010
1001
0011
0110
,  // measure 93
0100
1000
0001
0100
0020
0000
2030
0000
,  // measure 94
3010
0000
1000
0000
0010
0000
1000
0000
0010
0000
1000
0000
0010
1000
0010
0000
,  // measure 95
0100
0000
0010
0000
0100
0000
0010
0000
0100
0000
0010
0000
0100
0010
0100
0000
,  // measure 96
0001
0000
0100
0000
0001
0000
0100
0000
0001
0000
0100
0000
0001
0100
0001
0000
,  // measure 97
1000
0000
0100
1000
0100
1000
0001
0100
0010
1000
0100
0010
0002
0000
0013
0000
,  // measure 98
0001
0010
0001
0010
0000
0001
1000
0000
0001
1000
0001
1000
0000
0010
0100
0000
,  // measure 99
0010
0100
0010
0100
0000
0010
0100
0000
0001
0100
0001
0100
0000
0010
1000
0000
,  // measure 100
0010
1000
0010
1000
0000
0001
0010
0000
0001
0010
0001
0010
0000
0100
1000
0000
,  // measure 101
0100
1000
0100
1000
0000
0001
0100
0000
0001
0100
0001
0100
0000
0010
1000
0000
,  // measure 102
0001
0010
0001
0010
0001
0000
1000
0000
0010
1000
0010
1000
0010
0000
1000
0000
,  // measure 103
0001
1000
0001
1000
0001
0000
0010
0000
0100
1000
0100
0010
0001
0000
1000
0000
,  // measure 104
0010
0100
0001
0100
0010
0000
1000
0000
0001
0010
0001
1000
0010
0000
0100
0000
,  // measure 105
0001
1000
0100
0010
0001
0010
0100
1000
0001
0100
0010
1000
0020
0000
0000
0000
,  // measure 106
1030
0010
1000
0010
1000
0010
1000
0010
1000
0010
1000
0010
1000
0010
1000
0010
,  // measure 107
1000
0001
1000
0001
1000
0001
1000
0001
0020
0000
0000
0000
0031
0000
1000
0000
,  // measure 108
0010
1000
0010
0000
1000
0001
1000
0000
0001
0010
0001
0000
0100
1000
0001
0000
,  // measure 109
0100
0010
1000
0001
0020
0000
0031
0000
,  // measure 110
0010
0001
0010
0000
0100
1000
0100
0000
1000
0010
1000
0000
0001
0100
0001
0000
,  // measure 111
1000
0000
0100
0000
0010
0000
0100
0000
1000
0001
0200
0000
0000
0000
0000
0000
,  // measure 112
0310
1000
0001
0000
0010
0000
0100
0000
1000
0001
0100
0000
0010
0000
1000
0001
,  // measure 113
0010
0000
0000
0011
0000
0000
1001
0000
1010
0000
0000
0000
0110
0000
0000
0000
,  // measure 114
0101
1010
0101
1010
,  // measure 115
1100
0000
0100
0010
0001
0000
1000
0000
0010
0000
0000
0000
1010
0000
0000
0000
,  // measure 116
1000
0100
0020
0000
0031
0000
0011
0000
,  // measure 117
1001
0001
1000
0010
0100
0001
0100
0010
,  // measure 118
0110
1010
0101
1001
,  // measure 119
0011
0000
0001
0010
0100
0000
1000
0000
0001
0000
0000
0000
1000
0000
0010
0000
,  // measure 120
1010
1010
0000
1000
0002
0000
0013
0000
,  // measure 121
0011
0001
1000
0020
0000
0000
0000
0030
,  // measure 122
1000
0000
0001
0010
0200
0000
0000
0000
1300
0100
0010
0100
1000
0000
0001
0100
,  // measure 123
0010
0000
1000
0000
0001
0000
0010
0000
0100
1000
0100
0010
0001
0000
1000
1000
,  // measure 124
1001
0000
0001
0000
0100
0000
0010
1000
0001
0010
0100
1000
0100
0000
0010
0001
,  // measure 125
0011
0000
1001
0000
1010
0000
1001
0000
0001
0010
0100
1000
0002
0000
1003
0000
,  // measure 126
1001
0000
0000
1000
0010
0000
0100
0000
0002
0000
0000
0000
1003
0000
0100
0000
,  // measure 127
0010
0100
1000
0100
0020
0030
0001
1000
,  // measure 128
1001
0000
0000
0001
0100
0000
0010
0000
2000
0000
0000
0000
3100
0000
0010
0000
,  // measure 129
0001
0010
0100
1000
1100
0000
0100
0010
,  // measure 130
0110
0000
0000
0100
1000
0000
0001
0000
0200
0000
0000
0000
0310
0000
1000
0000
,  // measure 131
0001
1000
0100
0010
0110
0000
0010
0001
,  // measure 132
0011
1100
0101
0110
,  // measure 133
0010
1000
0100
0010
0110
0000
1001
0000
,  // measure 134
0001
0000
0100
0000
0010
1000
0010
0000
0100
0000
0001
0000
1000
0001
1000
0000
,  // measure 135
0100
0000
0010
0000
0001
0010
0001
0000
1000
0000
0010
0100
0001
0000
1000
0000
,  // measure 136
0100
0000
0010
0000
0001
0010
0001
0000
1000
0000
0010
0000
0100
0001
0100
0000
,  // measure 137
0010
0000
1000
0000
0001
0000
0010
0000
0100
1000
0100
0010
0001
0000
1000
0000
,  // measure 138
1001
0000
0001
0000
1000
0010
1000
0000
0001
0000
0010
0000
0001
0010
0001
0000
,  // measure 139
1000
0000
0010
0000
0100
0001
1000
0100
0010
0000
0001
0000
0010
0000
0100
0000
,  // measure 140
1000
0000
0001
0100
0001
0000
1000
0001
1000
0000
0100
1000
0100
0000
1000
0000
,  // measure 141
1100
0000
0000
0110
0000
0000
0011
0000
0002
0000
0000
0000
0013
0000
0100
0000
,  // measure 142
1000
0000
0010
0000
0100
0001
0100
0000
0010
0000
1000
0000
0001
1000
0001
0000
,  // measure 143
0010
0000
0100
0000
1000
0100
1000
0000
0001
0000
0100
0010
1000
0000
0001
0000
,  // measure 144
0010
0000
0100
0000
1000
0100
1000
0000
0001
0000
0100
0000
0010
1000
0010
0000
,  // measure 145
0100
0000
0001
0000
1000
0000
0100
0000
0010
0001
0010
0100
1000
0000
0001
0000
,  // measure 146
1001
0000
1000
0000
0001
0100
0001
0000
1000
0000
0100
0000
1000
0100
1000
0000
,  // measure 147
0001
0000
0100
0000
0010
1000
0001
0010
0100
0000
1000
0000
0100
0000
0010
0000
,  // measure 148
0001
0000
1000
0010
1000
0010
0100
0001
1000
0001
0100
0010
1000
0000
0001
0000
,  // measure 149
1001
0000
0000
1100
0000
0000
0011
0000
0001
0000
0000
0000
1001
0000
0000
0000
,  // measure 150
1010
0000
0000
0110
0000
0000
0101
0000
2002
0000
0000
0000
0000
0000
3003
0000
;
