#TITLE:青春はNon-Stop!;
#SUBTITLE:ショウ・バイ・ロック;
#ARTIST:プラズマジカ;
#TITLETRANSLIT:Seishun wa Non-Stop!;
#SUBTITLETRANSLIT:SHOW BY ROCK!!;
#ARTISTTRANSLIT:Plasmagica;
#GENRE:Otaku's Dream 4th Mix (Pad);
#CREDIT:Huzure & Itsugo;
#BANNER:Seishun-bn.png;
#BACKGROUND:Seishun-bg.png;
#JACKET:Seishun-Jacket.png;
#LYRICSPATH:Seishun wa Non-Stop!.lrc;
#CDTITLE:Collab.png;
#MUSIC:Seishun wa Non-Stop!.mp3;
#OFFSET:-0.395;
#SAMPLESTART:60.436;
#SAMPLELENGTH:24.420;
#SELECTABLE:YES;
#LISTSORT:;
#BPMS:0.000=172.000;
#STOPS:;
#TICKCOUNT:0.000=6;
#BGCHANGES:-1.755=SHOW BY ROCK!! OP.avi=1.000=1=0=0,
253.000=Seishun-bg.png=1.000=1=0=0,
99999=-nosongbg-=1.000=0=0=0 // don't automatically add -songbackground-
;
#KEYSOUNDS:;
#ATTACKS:;

//---------------dance-single - Huzure----------------
#NOTES:
     dance-single:
     Huzure:
     Challenge:
     11:
     0.887,0.948,0.444,0.411,0.433:
0000
0000
0000
0000
,
0000
0000
0000
0000
,
0002
0000
0000
0000
,
0003
1000
0100
0010
0001
1000
2000
0000
,
3000
0100
0100
0100
0100
0010
0100
0000
,
0000
0010
0010
0010
0010
0100
0010
0000
,
2002
0000
0000
0000
0003
0000
3001
1000
0001
0010
0001
0010
0100
1000
0100
1000
,
0002
0000
0000
0000
0013
0010
0100
0010
0001
0100
0010
1000
0200
0000
0000
0000
,
0310
0000
0001
0000
1000
0001
1000
0000
0010
0000
0100
0000
0001
0010
0001
0000
,
0100
0000
1000
0000
0100
0001
0100
0000
0010
0000
0110
0000
0110
0000
0000
0000
,
0010
0000
1000
0000
0010
1000
0100
0000
1000
0000
0001
0000
0100
0001
0100
0000
,
0010
0000
0100
0000
0001
1000
0100
0000
1000
0000
1001
0000
1001
0000
0001
0100
,
0010
0000
1000
0000
0010
0100
0010
0000
1000
0000
0100
0000
1000
0001
1000
0000
,
0001
0010
0100
0200
0000
1300
1100
0010
,
0011
0000
0010
0000
0001
1000
0001
0000
0100
0000
0010
0000
1000
0010
0100
0000
,
0010
0000
1000
0000
0001
0000
0020
0000
0000
0000
0130
0000
0100
1000
0001
1000
,
0100
0000
1000
0000
0000
1000
0100
0000
1000
0000
0001
0000
0000
0100
0001
0000
,
0100
0000
0001
0000
0000
0100
1000
0000
0100
0000
0001
0000
0000
0010
0001
0000
,
0010
0000
0100
0000
0000
0100
1000
0000
0010
0000
0100
0000
0000
0100
0001
0000
,
1000
0000
0001
0000
0000
0010
0100
0000
1000
0000
0100
0000
0110
0000
0100
0000
,
1100
0000
0010
0000
0000
0010
0001
0000
0100
0000
0010
0000
0000
1000
0001
0000
,
0100
0000
0001
0000
0000
0001
1000
0000
0100
0000
1000
0000
1010
0000
1000
0000
,
0101
0000
0001
0000
0000
0010
0001
0000
0100
0000
0001
0000
0000
1000
0100
0000
,
1000
0000
0001
0000
1000
0010
1000
0000
0010
0000
0200
0000
0000
0000
0301
0010
,
0100
0000
0100
0000
1000
0100
1000
0000
0100
0000
0100
0000
0010
0100
0010
0000
,
0100
0000
0100
0000
1000
0001
1000
0000
0100
0000
0010
0000
0001
0000
0020
0000
,
0000
0000
0031
0000
0100
0001
0100
0000
0001
0000
0001
0000
0010
0001
0010
0000
,
0001
0000
0001
0000
1000
0010
2000
0000
3200
0000
0302
0000
0203
0000
2300
0000
,
0000
0000
3001
0000
0010
0001
0100
0000
0010
0000
1000
0000
0100
1000
0010
0000
,
0100
0000
0001
0000
0010
0100
1000
0000
0001
0000
0100
0000
0010
0000
0001
0000
,
0011
0000
0010
0000
1010
0000
1000
0000
1001
0000
0001
0000
1000
0010
0100
0000
,
0001
0000
0010
0000
0001
0010
0100
0000
0100
1000
0001
0000
1000
0000
0010
0100
,
0001
1000
0010
0000
0000
0000
0110
0000
0200
0000
0001
0000
0301
0000
0000
0000
,
1000
0000
1010
0000
0000
0000
0110
0000
1010
0000
1000
0001
0010
0000
0000
0000
,
0010
0110
0000
0011
0210
1000
1300
0001
,
0001
0000
0110
0000
0000
0000
0001
1000
0001
0000
1000
0000
0010
0000
1000
0000
,
0001
0011
0000
1001
1002
0100
0103
0000
,
1000
0000
1100
0000
0000
0000
1010
0000
1010
0000
0010
1000
0100
0000
0000
0000
,
0110
0000
0001
0000
1000
0000
0100
0000
0010
0000
0100
0000
0001
0100
1000
0000
,
0100
0000
1000
0000
0010
0000
1000
0000
0001
0000
1000
0000
0100
1000
0100
0000
,
0000
0000
0010
0000
0010
0000
0001
0000
0001
0000
1000
0010
1000
0000
0001
0000
,
0010
0000
0001
0000
0020
0000
0100
0000
0130
0000
1000
0000
0100
1000
0002
0000
,
0000
0000
0013
0000
0010
0000
0100
0000
0100
0000
1000
0000
1000
0002
2000
0000
,
0000
0000
0000
0000
0000
0000
0000
0000
0000
0003
0000
0000
0100
0000
3200
0000
,
0000
1300
0001
0100
0001
2000
0100
3200
,
0000
0310
0001
0100
0001
0020
0100
0230
,
0000
0000
1300
0000
0001
0000
0100
0000
0010
0000
1000
0000
0001
0100
0001
0000
,
0010
0000
0100
0000
0000
0100
1000
0000
0100
0000
1000
0000
0010
0000
0200
0000
,
0000
0301
0100
1000
0100
0001
0100
0002
,
0000
0013
0001
1000
0100
0010
0100
1000
,
1001
0000
0000
0000
1010
0000
0000
0000
0010
0000
0001
0000
0010
1000
0010
0000
,
0000
0010
0100
0000
0001
0000
1001
0000
0000
0000
1000
0001
0100
0010
2000
0000
,
0000
3100
0110
0010
1001
0002
1000
2003
,
0000
3010
0110
0100
1001
2000
0001
3002
,
0013
0000
0001
0000
0010
0000
1000
0000
0010
0000
0001
0000
0000
0010
0001
0000
,
0100
0000
0010
0000
0000
1000
0100
0000
0010
0000
0001
0000
0000
0000
1000
0000
,
0100
1000
0100
0001
0100
1000
0000
0020
,
0000
0000
0130
0000
0001
0100
0001
0000
1000
0000
0001
0000
0100
0000
0110
0000
,
0000
1010
0000
1000
0100
0010
1000
0010
,
0000
0000
0011
0000
0000
0010
0001
1000
0100
0000
0000
0010
0001
0010
0100
1000
,
0100
0000
0000
0000
0100
0000
0000
0000
1100
0000
0000
0000
1000
0100
1000
0001
,
0100
0000
0001
0100
0010
0000
0100
0000
0000
0010
1000
0100
0010
0000
0000
0000
,
0002
0000
0000
0000
0000
0000
0000
0000
0000
0000
0103
0010
1000
0000
0020
0000
,
0000
0030
0000
0000
;

//---------------dance-single - Itsugo15----------------
#NOTES:
     dance-single:
     Itsugo15:
     Hard:
     9:
     0.742,0.700,0.378,0.589,0.033:
0000
0000
0000
0000
,
0000
0000
0000
0000
,
2000
0000
0000
0000
,
3010
1000
0001
0010
0001
1000
0100
1100
,
0000
0001
0001
0001
1000
0010
0200
0300
,
0000
0010
0100
0100
0100
0001
1000
0000
,
2002
3003
0001
0100
,
0101
0110
1010
1001
,
0001
0010
0001
0010
0001
0100
0001
0100
,
0001
0010
0100
1000
0000
1100
1100
0000
,
1000
0100
1000
0100
1000
0010
1000
0010
,
1000
0010
0100
0001
0000
0101
0101
0000
,
0001
0100
0010
0100
0001
1000
0100
0010
,
0100
0100
1000
2000
0000
0100
3100
0000
,
1000
0100
0010
0100
1000
0001
0100
0010
,
0100
0001
1000
0002
0000
0010
0013
0000
,
0011
0001
1000
0001
1000
0001
1000
0001
,
0100
0010
1000
0010
0100
0001
1000
0100
,
0020
0030
0001
0010
0001
0010
0001
1000
,
0001
1000
0010
0100
0001
1000
0100
0010
,
0002
0003
0010
0001
0010
0001
0010
0100
,
2000
3000
0100
1000
0100
1000
0010
0100
,
0002
0003
0100
0001
0100
0001
0100
0010
,
2000
0000
3000
0000
0010
0000
1000
0000
0010
0000
1000
0000
0100
0000
0010
0001
,
0010
0001
1000
0010
1000
0001
0100
0001
,
0010
0001
1000
0010
0100
0001
1000
0200
,
0020
0330
0010
0100
1000
0001
0100
0010
,
1000
0100
1000
0001
0100
0001
0010
0002
,
2000
3003
1000
0001
0100
0010
1000
0010
,
0200
0300
0100
0001
1000
0100
0010
0001
,
0020
0030
0100
1000
0001
0100
0010
1000
,
0002
0000
0003
0000
0010
0000
0001
0000
2000
0000
3001
1000
0001
0000
0001
1000
,
0001
0100
0000
0101
0200
0010
0310
0000
,
0000
0000
0110
0000
0000
0000
1000
0000
1010
0000
0010
1000
0001
0000
0000
0000
,
0000
1001
0000
0001
0012
1000
1003
0000
,
0000
0000
1001
0000
0000
0000
1000
0000
0010
1000
0010
0000
0100
0000
0001
0000
,
0000
0101
0000
0101
0002
1000
1003
0000
,
0000
0000
1001
0000
0000
0000
1000
0000
1100
0000
1000
0100
0020
0000
0000
0000
,
0031
0010
0001
1000
0001
0010
0100
1000
,
0001
1000
0010
1000
0001
0010
0001
0100
,
0020
1000
0000
1000
0000
1030
0001
0100
,
0001
0010
0100
1000
0001
1000
0010
0200
,
0000
0001
0001
0001
0001
0001
0301
2002
,
0000
0000
0000
0000
0000
0000
3000
2003
,
0000
3010
0100
0010
2000
0001
3001
0002
,
0000
0013
0100
0010
0002
1000
1003
0002
,
0000
0103
0010
0000
1000
0001
0000
2000
,
0000
0000
0002
0003
0002
0003
3002
2003
,
0000
3010
0100
0010
1000
0001
0100
0002
,
0000
0013
0100
0010
0001
1000
0010
1000
,
0002
0000
0203
0000
0310
2000
0000
3001
,
0000
0200
0000
0000
0010
0000
0301
0101
,
0000
0100
0001
0010
0001
2000
0100
3200
,
0000
1300
0001
0010
0001
0200
0010
0320
,
0000
1030
0001
0000
0010
0001
0000
0021
,
0000
0000
0001
0000
0130
1000
0000
1100
,
0000
1000
0001
0000
1000
0010
0000
1010
,
0000
0100
0001
0010
0000
0011
0001
2000
,
0000
0000
3010
0000
0100
0001
0000
0101
,
0000
1001
0000
1100
0100
1000
0001
0010
,
0200
0000
1300
0000
2000
0000
3001
0100
,
0101
0000
1000
1100
0000
0001
0011
0000
,
0220
0000
0000
0000
0000
0000
0001
2000
,
3330
0000
0000
0000
;

//---------------dance-single - Itsugo15----------------
#NOTES:
     dance-single:
     Itsugo15:
     Easy:
     3:
     0.181,0.245,0.022,0.144,0.000:
0000
0000
0000
0000
,
0000
0000
0000
0000
,
1001
0000
0000
0000
,
0000
1000
0100
0010
,
0000
0002
0000
0000
0000
0000
0003
0000
,
0000
2000
0000
0000
0000
0000
3000
0000
,
0001
0000
0100
0000
,
0020
0000
0000
0000
,
1030
0000
0001
0000
,
0010
0000
0000
0000
,
0001
0000
1000
0000
,
0100
0000
0000
0000
,
1000
0000
0010
0000
,
0100
0000
0000
0000
,
0001
0000
0010
0000
,
0100
0000
0000
0000
,
1000
0000
0000
0000
,
1000
0000
0000
0000
,
0001
0000
0000
0000
,
0001
0000
0000
0000
,
0100
0000
0010
0000
,
1000
0000
0001
0000
,
0010
0000
0100
0000
,
1000
0000
0001
0000
,
0100
0000
0000
0000
,
0100
0000
0000
0000
,
0010
0000
0000
0000
,
0010
0000
0000
0000
,
1000
0000
0001
0000
,
0010
0000
0100
0000
,
1000
0000
0001
0000
,
0100
0000
0010
0000
,
0000
2000
0000
0000
0000
3000
0000
0000
,
0000
0002
0000
0000
0000
0003
0000
0000
,
0000
0020
0000
0000
0000
0030
0000
0000
,
0000
0200
0000
0000
0000
0300
0000
0000
,
0000
2000
0000
0000
0000
3000
0000
0000
,
0000
0002
0000
0000
0000
0003
0000
0000
,
0100
0000
0010
0000
,
1000
0000
0001
0000
,
0010
0000
0100
0000
,
0010
0000
0001
0000
,
2000
0000
0000
0000
0000
0000
0000
3002
,
0000
0000
0000
0000
0000
0000
0000
1003
,
0000
0000
0000
0000
0100
0000
0000
0100
,
0000
0000
0000
0000
0010
0000
0000
0010
,
0000
0000
0000
0000
0001
0000
0000
0001
,
0000
0000
0000
0000
0001
0000
0000
1000
,
0000
0000
0000
0000
0010
0000
0000
0010
,
0000
0000
0000
0000
0100
0000
0000
0100
,
0000
0000
0000
0000
0001
0000
0000
0001
,
0000
0000
0000
0000
1000
0000
0000
0100
,
0000
0000
0000
0000
0010
0000
0000
0010
,
0000
0000
0000
0000
0001
0000
0000
0001
,
0000
0000
0000
0000
1000
0000
0000
1000
,
0000
0000
0000
0000
0010
0000
0000
0100
,
0000
0000
0000
0000
0001
0000
0000
1000
,
0000
0000
0000
0100
0000
0000
0000
0010
,
0000
0000
0000
0000
0001
0000
0000
1000
,
0000
0000
0000
0010
0000
0000
0000
0000
,
0100
0000
0001
0000
,
1000
0000
0000
0100
0000
0000
0010
0000
,
0220
0000
0000
0000
,
0330
0000
0000
0000
;

//---------------dance-single - Huzure----------------
#NOTES:
     dance-single:
     Huzure:
     Medium:
     7:
     0.568,0.527,0.122,0.278,0.000:
0000
0000
0000
0000
,
0000
0000
0000
0000
,
2002
0000
0000
0000
,
3003
0001
1000
0001
1000
0001
2000
0000
,
3000
0001
0100
0001
0100
0000
0000
0000
,
0000
1000
0010
1000
0010
0000
0000
0000
,
0200
0000
0000
0000
,
0301
0001
0010
0210
,
1300
0000
0010
0000
1000
0010
1000
0000
,
0010
0001
0010
1000
0000
0010
1000
0000
,
0001
0000
0100
0000
0001
0100
0001
0000
,
0010
0001
0010
0100
0000
1000
0100
0000
,
0010
0000
0001
0000
1000
0001
1000
0000
,
0010
0100
0001
1000
0000
0100
0010
0000
,
0001
0000
0100
0000
0010
0100
0001
0000
,
0010
0001
1000
0100
0000
0010
0002
0000
,
1003
0001
0000
0100
0001
0100
0000
0010
,
0100
0010
0000
0100
0001
0100
0000
0001
,
1000
0100
0000
1000
0010
1000
0000
0100
,
1000
0100
0000
1000
0010
1000
0000
0010
,
0100
0001
0000
0010
0001
0010
0000
0100
,
1000
0001
0000
0100
0001
0100
0000
0010
,
1000
0100
0000
1000
0010
0100
0000
0001
,
1000
0100
1000
0020
0000
0230
0000
0301
,
0010
0100
0000
1000
0100
0010
0000
0100
,
0010
0001
0000
1000
0010
1000
0000
0010
,
0001
0010
0000
1000
0010
1000
0000
0100
,
0001
0100
0000
0010
0001
0010
0000
0100
,
1000
0001
0000
0100
0010
1000
0000
0001
,
1000
0100
0000
0100
0010
0001
0000
1000
,
0010
0100
0000
0100
0010
1000
0000
0001
,
0010
0100
0000
1000
0001
2000
0000
3001
,
0000
0101
0000
0100
0001
0000
0000
0000
,
0000
1010
0000
0010
0100
0200
0000
0300
,
0000
1001
0000
1000
0001
0000
0000
0010
,
0010
0200
0000
0000
1300
0100
0010
0001
,
0000
1100
0000
1000
0100
0000
0000
0000
,
0000
0011
0000
0001
1000
0000
0200
0000
,
0310
0001
0010
0001
0010
0000
0100
1000
,
0100
1000
0100
0000
0010
0001
0100
0010
,
1000
0001
0100
0001
0010
0001
0100
0001
,
0000
1000
0100
0000
1000
0010
0100
0001
,
0000
1000
0100
1000
0001
0010
0001
2000
,
0000
0000
0000
0000
0000
0000
0000
3001
,
0000
0010
0001
0010
0100
1000
0000
0010
,
0000
1000
0100
0010
0100
0010
0000
0001
,
0000
0100
1000
0000
0100
0001
0000
0101
,
0000
1000
0000
0010
1000
0100
0000
0020
,
0000
0031
0010
0100
1000
0001
0000
2000
,
0000
3100
0010
0001
0010
0100
0000
1000
,
0001
0000
1001
0000
0001
1000
0000
0110
,
0000
1000
0000
0010
0001
0010
0001
0020
,
0000
1030
0100
1000
0100
1000
0000
0200
,
0000
0301
0100
0001
0100
0001
0000
0200
,
0000
0310
0100
0000
1000
0001
0000
0100
,
0000
0001
0000
1000
0100
0010
0000
0002
,
0000
1003
0000
0001
0100
0001
0000
1000
,
0000
0010
0100
0010
0000
1000
0001
0010
,
0000
0010
0100
0000
1000
0010
0100
0002
,
0000
0023
0000
0230
0000
2300
0000
3001
,
1000
1000
0011
0001
,
1000
0010
0100
0001
0000
0010
0100
0000
,
2000
0000
0000
0000
0000
3001
0100
0002
,
0000
0003
0000
0000
;

//---------------dance-single - Huzure----------------
#NOTES:
     dance-single:
     Huzure:
     Beginner:
     1:
     0.117,0.246,0.033,0.122,0.000: // measure 1
0000
0000
0000
0000
,  // measure 2
0000
0000
0000
0000
,  // measure 3
2002
0000
0000
0000
,  // measure 4
3003
0000
0000
0002
,  // measure 5
0003
0000
0000
0000
,  // measure 6
0000
0000
0000
0000
,  // measure 7
2200
0000
0300
3000
,  // measure 8
0011
0000
0000
0000
,  // measure 9
0001
0000
0000
0000
,  // measure 10
0100
0000
0000
0000
,  // measure 11
0010
0000
0000
0000
,  // measure 12
0010
0000
0000
0000
,  // measure 13
1000
0000
0000
0000
,  // measure 14
0100
0000
0000
0000
,  // measure 15
0100
0000
0000
0000
,  // measure 16
0010
0000
0000
0000
,  // measure 17
0001
0000
0000
0000
,  // measure 18
1000
0000
0000
0000
,  // measure 19
0010
0000
0000
0000
,  // measure 20
1000
0000
0000
0000
,  // measure 21
0001
0000
0000
0000
,  // measure 22
0010
0000
0000
0000
,  // measure 23
0100
0000
0000
0000
,  // measure 24
0010
0000
0000
0000
,  // measure 25
0001
0000
0000
0000
,  // measure 26
1000
0000
0000
0000
,  // measure 27
1000
0000
0000
0000
,  // measure 28
0100
0000
0000
0000
,  // measure 29
0100
0000
0000
0000
,  // measure 30
0010
0000
0000
0000
,  // measure 31
0001
0000
0000
0000
,  // measure 32
0100
0000
0000
0000
,  // measure 33
0000
0001
0000
0000
0000
0000
0000
0000
,  // measure 34
0000
1000
0000
0000
0000
0000
0000
0000
,  // measure 35
0000
0010
0000
0000
0000
0000
0000
0000
,  // measure 36
0000
2000
0000
0000
0000
0000
3000
0000
,  // measure 37
0000
0001
0000
0000
0000
0000
0000
0000
,  // measure 38
0000
0010
0000
0000
0000
0000
0000
0000
,  // measure 39
0100
0000
0000
0000
,  // measure 40
1000
0000
0000
0000
,  // measure 41
0010
0000
0000
0000
,  // measure 42
0010
0000
0000
0000
0000
0000
0000
0100
,  // measure 43
0000
0000
0000
0000
0000
0000
0000
0002
,  // measure 44
0000
0000
0000
0000
0000
0003
0000
1000
,  // measure 45
0000
0000
0000
0000
0000
0000
0000
0001
,  // measure 46
0000
0000
0000
0000
0000
0000
0000
1000
,  // measure 47
0000
0000
0000
0000
0000
0000
0000
0100
,  // measure 48
0000
0000
0000
0000
0000
0000
0000
0010
,  // measure 49
0000
0000
0000
0000
0000
0000
0000
0100
,  // measure 50
0000
0000
0000
0000
0000
0000
0000
0010
,  // measure 51
0000
0000
0000
0000
0000
0000
0000
0001
,  // measure 52
0000
0000
0000
0000
0000
0000
0000
0100
,  // measure 53
0000
0000
0000
0000
0000
0000
0000
1000
,  // measure 54
0000
0000
0000
0000
0000
0000
0000
0010
,  // measure 55
0000
0000
0000
0000
0000
0000
0000
0001
,  // measure 56
0000
0000
0000
0000
0000
0000
0000
0010
,  // measure 57
0000
0000
0000
0000
0000
0000
0000
0001
,  // measure 58
0000
0000
0000
0000
0000
0000
0000
1000
,  // measure 59
0000
0000
0000
0000
0000
0000
0000
0010
,  // measure 60
0000
0000
0000
0000
,  // measure 61
2000
0000
0000
3000
,  // measure 62
0002
0000
0000
0003
,  // measure 63
0020
0000
0000
0000
0000
0030
0000
0020
,  // measure 64
0000
0030
0000
0000
;
