#TITLE:Raise your flag;
#SUBTITLE:機動戦士ガンダム 鉄血のオルフェンズ;
#ARTIST:MAN WITH A MISSION;
#TITLETRANSLIT:Raise Your Flag;
#SUBTITLETRANSLIT:Kidou Senshi Gundam Tekketsu no Orphans;
#ARTISTTRANSLIT:Man with a Mission;
#GENRE:Otaku's Dream 4th Mix (Pad);
#CREDIT:Huzure & Itsugo;
#BANNER:Ryf-bn.png;
#BACKGROUND:Ryf-bg.png;
#JACKET:Ryf-Jacket.png;
#LYRICSPATH:Raise your flag.lrc;
#CDTITLE:Collab.png;
#MUSIC:Raise your flag.mp3;
#OFFSET:-0.060;
#SAMPLESTART:52.080;
#SAMPLELENGTH:29.960;
#SELECTABLE:YES;
#LISTSORT:;
#BPMS:0.000=145.000;
#STOPS:;
#TICKCOUNT:0.000=6;
#BGCHANGES:-0.250=Kidou Senshi Gundam Tekketsu no Orphans OP.avi=1.000=1=0=0,
216.000=Ryf-bg.png=1.000=1=0=0,
99999=-nosongbg-=1.000=0=0=0 // don't automatically add -songbackground-
;
#KEYSOUNDS:;
#ATTACKS:;

//---------------dance-single - Itsugo15----------------
#NOTES:
     dance-single:
     Itsugo15:
     Beginner:
     2:
     0.109,0.180,0.089,0.011,0.000:
0000
0000
0000
0000
,
0000
0000
0000
0000
,
0000
0000
0000
0000
,
0000
0000
0000
0000
,
1001
0000
0000
0000
,
1000
0000
0000
0000
,
1000
0000
0000
0000
,
0010
0000
0100
0000
,
0001
0000
0000
0000
,
0001
0000
0000
0000
,
1000
0000
0000
0000
,
1000
0000
0100
0000
,
0010
0000
0000
0000
,
0010
0000
0000
0000
,
0001
0000
0000
0000
,
0001
0000
0000
0000
,
1000
0000
0000
0000
,
1000
0000
0000
0000
,
0010
0000
0000
0000
,
0010
0000
0000
0000
,
0100
0000
0000
0000
,
0100
0000
0000
0000
,
0001
0000
1000
0000
,
0100
0000
1000
0000
,
0001
0000
0010
0000
,
0001
0000
1000
0000
,
0010
0000
0100
0000
,
0001
0000
1000
0000
,
0100
0000
0010
0000
,
0001
0000
1000
0000
,
0010
0000
0100
0000
,
0001
0000
0000
0000
,
0101
0000
0000
0000
,
0001
0000
0000
0000
,
1000
0000
0000
0000
,
0100
0000
0000
0000
,
1100
0000
0000
0000
,
1000
0000
0000
0000
,
0001
0000
0000
0000
,
0010
0000
0000
0000
,
0011
0000
0000
0000
,
1001
0000
0000
0000
,
1010
0000
0000
0000
,
0110
0000
0000
0000
,
0101
0000
0000
0000
,
0001
0000
0000
0000
,
1000
0000
0000
0000
,
0100
0000
0000
0000
,
0010
0000
0000
0000
,
0010
0000
0000
0000
,
0001
0000
1000
0000
,
0020
0000
0000
0000
,
0000
0000
0000
0000
,
0000
0000
0000
0000
,
0030
0000
0000
0000
;

//---------------dance-single - Huzure----------------
#NOTES:
     dance-single:
     Huzure:
     Hard:
     10:
     0.830,0.870,0.777,0.211,0.772:
0000
0000
0000
0000
,
0000
0000
0000
0000
,
1000
0100
0010
0001
1000
0100
0010
0001
1000
0100
0010
0001
0010
0100
0010
0001
,
1000
0100
0010
0001
1000
0100
0010
0001
0000
0000
0000
0000
0000
0000
0000
0000
,
1002
0000
0000
1000
0000
0000
1000
0000
0000
0000
0000
0000
0000
0000
0003
0000
,
2100
0000
0000
0100
0000
0000
0100
0000
0000
0000
0000
0000
0000
0000
3000
0000
,
0201
0000
0000
0001
0000
0000
0001
0000
0000
0000
0000
0000
0000
0000
0300
0000
,
0101
0000
0000
0101
0000
0000
0202
0000
0000
0303
0000
0000
1000
0100
0010
0001
,
1000
0000
0001
0010
0000
0000
0011
0000
1000
0000
0001
0010
0000
0000
0011
0000
,
1000
0000
0010
1000
0000
0000
1010
0000
0001
0000
1000
0010
0000
0000
1010
0000
,
0001
0000
0100
0010
0000
0000
0110
0000
1000
0000
0010
0100
0000
0000
0110
0000
,
1001
0000
0001
0001
0000
0001
1000
0000
0010
1000
0000
0010
1000
0000
0010
0000
,
1010
0000
0000
1100
0000
0000
1020
0000
0100
0000
0130
0000
0001
1000
0001
0000
,
0110
0000
0000
0001
0010
0000
0110
0000
1000
0100
0000
1000
0010
0000
1000
0100
,
2000
0001
3000
0001
0100
1000
0100
0001
,
1000
0000
0100
1000
0000
0000
0010
0000
0100
0010
0100
0000
0001
0000
0100
0000
,
0101
0000
1000
0100
0010
0000
0001
0000
0010
0000
0100
0000
0010
0000
0001
0000
,
1000
0000
0100
0010
0000
0000
0100
0000
0010
0001
0010
0000
0100
1000
0010
0100
,
0002
1000
0003
0010
0001
0010
1000
0100
,
0020
0000
0000
0001
0000
0000
0031
0000
1000
0010
1000
0000
0100
0000
1000
0010
,
1000
0000
0100
0010
0001
0000
0100
0000
0010
0000
0001
0000
0010
0000
1000
0000
,
0010
0000
0100
0010
0000
0010
0010
0000
0100
0000
0001
0000
1000
0001
1000
0001
,
1000
0000
1001
0000
1001
0000
0010
0000
0110
0000
0200
0001
0000
0000
0301
0000
,
0120
0000
0000
0100
0000
0000
1000
0000
0130
0000
0100
1000
0000
0000
0001
1000
,
0001
0000
1000
0010
1000
0000
0010
0000
1000
0000
0000
0101
0000
0000
0100
0000
,
0001
0000
0000
1000
0001
0000
0001
0000
1000
0000
0010
0000
1000
0000
0100
1000
,
0010
0000
0000
0100
0010
0000
0110
0000
0001
0000
0000
0010
0100
0000
0110
0000
,
1000
0000
0010
1000
0010
0000
1000
0000
0001
0000
0100
0001
0100
0000
0001
0010
,
0001
0000
2000
0000
0000
0000
0001
0000
0010
0000
3001
0000
0000
0001
1000
0000
,
1010
0000
0010
0110
0000
0100
0010
0000
1000
0000
0100
0000
0010
0001
0010
0100
,
1000
0000
0001
1001
0000
1000
0010
0000
0110
0000
0100
0101
0000
0001
1000
0000
,
1001
0000
0000
1100
0000
0000
1100
0000
0000
0000
0000
0000
0000
0000
0000
0000
,
1001
0000
0001
0100
0000
0100
0001
0000
1000
0000
0100
0010
0000
0010
0001
0000
,
0101
0000
1000
0100
0010
0001
0100
0000
0001
0000
1000
1100
0000
0010
0011
0000
,
1001
0000
0001
0010
0100
1000
0010
0000
0100
0000
0001
0101
0000
0100
0110
0000
,
1010
0000
0010
1000
0000
0010
1000
0000
0001
0010
0100
0000
1000
0010
0100
0001
,
2000
0000
0100
0100
0000
0000
0001
0000
3100
0000
0010
0010
0000
0010
0001
0000
,
1001
0000
1000
0001
0100
0010
1000
0000
0010
0000
1000
0100
0000
0100
0010
0000
,
0011
0000
1000
1100
0000
0100
1000
0000
0001
0000
0010
0100
0000
0100
0010
0000
,
1100
0000
0010
0001
0010
0100
0010
0000
0101
0000
0100
0001
0010
0001
0100
0010
,
1000
0000
0000
1001
0000
0000
0110
0000
1001
0000
0020
1000
0000
0000
1030
0000
,
0010
0000
0000
0101
0000
0000
0101
0000
1010
0000
0001
0010
0001
0000
1000
0000
,
0020
0000
0000
1000
0100
0000
0130
0000
0010
0000
0000
1000
0001
0000
1000
0000
,
0001
0000
0000
0011
0000
0100
1000
0000
1000
0100
0010
0001
1000
0010
0100
0001
,
1000
0000
0010
0001
0000
0000
1010
0000
1000
0000
0100
0001
0000
0000
1100
0000
,
0001
0000
0010
0001
0100
0001
0010
0000
0001
0000
1000
1001
0000
0100
0110
0000
,
0011
0000
0001
0100
1000
0100
0001
0000
1000
0000
0020
1000
0000
1030
0001
0000
,
2001
0000
0100
0100
0000
0001
3100
0000
1002
0000
0010
0010
0000
1000
0013
0000
,
0011
0000
0000
1100
0000
0000
0011
0000
1000
0000
1000
0000
0010
0100
0010
0100
,
0110
0000
0000
1001
0000
0000
0110
0000
0001
0000
1000
0000
0001
0100
0010
1000
,
0001
0000
0000
0101
0000
0000
0001
0000
1100
0000
0000
0110
0000
0000
0001
0000
,
0200
0000
0000
0000
,
0000
0000
0000
0000
,
0000
0000
0000
0000
,
0300
0000
0000
0000
;

//---------------dance-single - Huzure----------------
#NOTES:
     dance-single:
     Huzure:
     Medium:
     6:
     0.479,0.510,0.167,0.211,0.211:
0000
0000
0000
0000
,
0000
0000
0000
0000
,
0000
0000
0000
0000
,
0000
0000
0000
0000
,
2020
0000
0000
3030
,
0202
0000
0000
0303
,
2020
0000
0000
3030
,
0001
0000
0000
0001
0000
0000
0002
0000
0000
0000
0003
0000
0000
0000
0000
0000
,
1001
1000
0000
0100
0000
0010
0001
0010
,
0001
0000
0000
1000
0000
0000
0010
0000
0000
0000
0100
0000
0010
0000
0100
0000
,
0010
0000
0000
1000
0000
0000
0100
0000
0000
0000
0010
0000
0001
0000
0010
0000
,
0001
0000
0000
0010
0000
0000
0100
0000
1000
0000
0000
0100
0000
0000
0010
0000
,
0001
0000
0000
0001
0000
0000
0010
0000
0001
0000
1000
0000
0001
0000
0010
0000
,
0001
0000
0000
1000
0000
0000
0100
0000
1000
0000
0000
0000
0001
0000
0000
0000
,
0100
0020
0000
1030
0010
1000
0010
1000
,
0001
0000
0000
0010
0000
0000
0100
0000
0000
0000
1000
0000
0001
0000
1000
0000
,
0000
0001
0000
0010
0100
0010
0001
1000
,
0100
0000
0000
0010
0000
0000
0001
0000
0200
0000
0000
0000
0310
0000
0000
0000
,
2000
0010
3000
1000
0010
0100
0001
1000
,
0010
0000
0000
0100
0000
0000
0001
0000
0000
0000
0010
0000
0100
0000
1000
0000
,
0000
0010
0100
0010
0100
0001
0010
0100
,
1000
0000
0000
1000
0000
0000
2000
0000
0000
0000
0001
0000
3001
0000
0000
0000
,
0100
0001
0010
0100
0010
0001
0000
0100
,
0200
0000
0320
0000
1030
0010
1000
0000
,
0001
1000
0100
0010
0001
0100
0000
0100
,
0001
0000
2000
0000
3001
0010
0100
1000
,
0010
0100
0001
0100
0001
2000
0000
3001
,
0010
0100
1000
0010
0100
0001
1000
0000
,
0001
0010
0000
0010
0001
0100
0000
0100
,
0010
1000
0000
0100
1000
0010
0100
0001
,
1000
0000
0000
0100
0000
0000
0010
0000
0001
0000
0000
0010
0000
0000
0100
0000
,
1000
0000
0000
1000
0000
0000
1001
0000
0000
0000
0000
0000
0000
0000
0000
0000
,
0101
0100
0000
0001
0000
1000
0100
0010
,
0001
0000
0000
0100
0000
0000
0010
0000
0000
0000
1000
0000
0100
0000
0010
0000
,
0001
0000
0000
0010
0000
0000
0100
0000
0000
0000
0010
0000
0001
0000
1000
0000
,
0010
0000
0000
0110
0000
0000
0100
0000
0002
0000
0000
0010
0000
0000
0013
0000
,
0200
1000
0000
1300
0001
1000
0000
1000
,
0010
0000
0000
0100
0000
0000
0001
0000
0000
0000
1000
0000
0100
0000
0010
0000
,
0001
0000
0000
0010
0000
0000
0100
0000
0000
0000
1000
0000
0010
0000
1000
0000
,
0010
0000
0000
1010
0000
0000
0010
0000
1000
0000
0000
0011
0000
0000
0010
0000
,
0001
0000
0000
0001
0000
0000
0001
0000
0010
0000
0000
0001
0000
0000
0001
0000
,
0100
0000
0000
0001
0000
0000
0001
0000
0010
0000
0000
0001
0000
0000
0001
0000
,
1000
0000
0000
0100
0000
0000
0100
0000
0010
0000
0000
0100
0000
0000
0100
0000
,
1000
0000
0000
1010
0000
0000
0010
0000
0100
0000
0000
0101
0000
0000
0100
0000
,
0002
0100
0000
0103
0000
0001
1000
0010
,
1000
0000
0000
0001
0000
0000
0100
0000
0000
0000
0010
0000
1000
0000
0001
0000
,
0100
0000
0000
0010
0000
0000
1000
0000
0000
0000
0100
0000
0010
0000
0001
0000
,
0100
0000
0000
0001
0000
0000
0010
0000
0100
0000
0000
0010
0000
0000
0001
0000
,
1000
0000
0000
1100
0000
0000
1100
0000
0000
0000
0100
0000
0010
0000
0001
0000
,
0010
0000
0000
0011
0000
0000
0001
0000
0100
0000
0010
0000
1000
0000
0100
0000
,
0010
0000
0000
0010
0000
0000
0010
0000
0001
0000
0000
1001
0000
0000
0001
0000
,
2000
0000
0000
0000
,
0000
0000
0000
0000
,
0000
0000
0000
0000
,
3000
0000
0000
0000
;

//---------------dance-single - Itsugo15----------------
#NOTES:
     dance-single:
     Itsugo15:
     Challenge:
     12:
     0.942,0.930,1.000,0.411,0.683: // measure 1
0000
0000
0000
0000
,  // measure 2
0000
0000
0000
0000
,  // measure 3
1000
0010
0100
0010
1000
0001
1000
0010
0100
0010
1000
0001
0010
0100
1000
0001
,  // measure 4
0100
0001
1000
0100
0010
0001
1000
0010
0200
0000
0000
0000
0002
0000
0000
0303
,  // measure 5
0111
0000
0000
0101
0000
0000
1010
0000
0000
0000
1000
0000
0001
0000
0010
0000
,  // measure 6
0011
0000
0000
0110
0000
0000
1100
0000
0100
0000
1000
0000
0001
0000
0100
0000
,  // measure 7
0101
0000
0000
0110
0000
0000
1010
0000
1000
0000
0001
0000
0010
0000
0100
0000
,  // measure 8
0110
0000
0000
1001
0000
0000
0110
0000
0000
0000
0000
0000
0010
0100
0010
0100
,  // measure 9
0010
0000
1000
0001
0000
0000
1001
0000
0001
0000
0001
0100
0000
0000
0101
0000
,  // measure 10
0110
0000
0010
1000
0000
0000
1010
0000
1000
0000
0001
0010
0000
0000
0011
0000
,  // measure 11
0110
0000
0100
1000
0000
0000
1100
0000
0100
0000
1000
0010
0000
0000
1010
0000
,  // measure 12
0110
0000
0100
0001
0000
1000
1100
0000
0001
0011
0000
1000
0010
0100
0001
0000
,  // measure 13
0101
0000
0000
0101
0000
0000
1001
0000
0002
0000
1000
0000
1003
0100
0010
0000
,  // measure 14
0110
0000
0000
0110
0000
0000
0011
0000
0020
0000
0001
0000
0031
1000
0010
0100
,  // measure 15
0001
0100
0010
1000
0010
0200
0000
0000
0000
0301
0000
0000
0000
0000
0000
0001
0000
0000
0000
0000
0000
0001
0000
0000
,  // measure 16
2000
0000
0001
0000
0000
0000
3001
0000
1000
2000
0001
0000
0000
0000
3001
0000
,  // measure 17
1000
0100
0010
0001
0010
0200
0000
0000
0000
1300
0000
0000
0000
0000
0000
1000
0000
0000
0000
0000
0000
1000
0000
0000
,  // measure 18
0002
0000
1000
0000
0000
0000
1003
0000
0001
0001
1000
0000
0001
1000
0001
1000
,  // measure 19
0001
0010
0100
1000
0100
0020
0000
0000
0000
0031
0000
0000
0000
0000
0000
0001
0000
0000
0000
0000
0000
0001
0000
0000
,  // measure 20
2000
0000
0001
0000
0000
0000
3001
0000
1000
1000
0001
0000
1100
0000
0001
0000
,  // measure 21
1000
0010
0100
0001
0100
0020
0000
0000
0000
1030
0000
0000
0000
0000
0000
1000
0000
0000
0000
0000
0000
1000
0000
0000
,  // measure 22
1100
0000
1000
0001
0000
0001
1000
0000
1010
0000
1000
0000
0001
0001
1000
0001
,  // measure 23
0002
0000
0000
0200
0000
0303
0101
0000
0120
0000
0000
2000
0000
3030
1010
0000
,  // measure 24
1002
0000
0000
0020
0000
0033
0011
0000
0110
0000
0100
1000
0001
0000
0001
1000
,  // measure 25
0200
0000
0000
0020
0000
0330
0110
0000
0012
0000
0000
2000
0000
3003
1001
0000
,  // measure 26
1020
0000
0000
0200
0000
0330
0110
0000
0102
0000
0023
0000
2030
0000
3002
0000
,  // measure 27
0203
0000
0000
1300
0001
0000
0100
0000
0120
0000
0000
1030
0001
0000
0010
0000
,  // measure 28
0012
0000
0000
1003
0001
0000
1000
0000
1020
0030
0002
0003
0020
0030
0200
0301
,  // measure 29
1000
0000
0100
1000
0000
0000
1100
0000
1001
0000
0001
0100
0000
0000
0101
0000
,  // measure 30
0110
0000
0010
1010
0000
0100
0101
0000
1001
0000
0011
0000
0001
0010
0100
1000
,  // measure 31
1100
0000
0000
0101
0000
0000
1010
0000
0011
0000
0000
1001
0000
0000
0110
0000
,  // measure 32
1001
0000
0000
0110
0000
0000
1001
0000
0000
0000
0000
0000
0000
0000
0000
0000
,  // measure 33
1101
0000
0001
1000
0000
0000
1100
0000
1000
0000
0001
0100
0000
0000
0101
0000
,  // measure 34
0110
0000
0010
1000
0000
0000
1010
0000
1000
0000
0001
0010
0000
0000
0011
0000
,  // measure 35
0110
0000
0100
1000
0000
0000
1100
0000
1000
0000
0010
0100
0000
0000
0110
0000
,  // measure 36
0101
0000
0001
1000
0000
0100
0010
0000
0001
0001
1000
1000
0010
0100
0001
0000
,  // measure 37
0101
0000
0100
0001
0000
0000
1001
0000
0001
0000
1000
0100
0000
0000
0110
0000
,  // measure 38
0011
0000
0000
1100
0000
0000
1001
0000
0001
0000
1000
0010
0100
0000
0101
0000
,  // measure 39
1010
0000
0000
1001
0000
0000
0011
0000
0001
0000
0010
0100
1000
0000
1100
0000
,  // measure 40
1001
0000
0000
0101
0000
0000
1010
0000
1001
0000
0001
0001
0001
0001
0010
0000
,  // measure 41
0111
0000
0000
1100
0000
0000
1001
0000
0101
0000
0000
0110
0000
0000
1010
0000
,  // measure 42
1011
0000
0000
1001
0000
0000
0011
0000
0110
0000
0000
1100
0000
0000
1001
0000
,  // measure 43
1101
0000
0000
0101
0000
0000
1001
0000
0101
0000
0000
0110
0000
0000
1010
0000
,  // measure 44
1110
0000
0000
0101
0000
0000
1010
0000
1001
0000
1000
0000
0001
1000
0001
1000
,  // measure 45
1100
0000
0100
1000
0000
0001
0100
0000
0101
0000
1010
0000
0110
0000
0101
0000
,  // measure 46
1001
0000
0000
0101
0000
0000
1001
0000
1000
0000
0001
0010
0100
0000
1100
0000
,  // measure 47
0011
0000
0000
1001
0000
0000
1010
0000
1000
0000
0010
0100
0001
0000
0101
0000
,  // measure 48
1001
0000
0000
1100
0000
0000
0011
0000
1001
0000
0000
1100
0000
0000
1001
0000
,  // measure 49
0111
0000
0000
0101
0000
0000
1001
0000
0001
0000
0100
0000
0001
1000
0100
0000
,  // measure 50
1110
0000
0000
1100
0000
0000
1001
0000
0001
0000
0100
0000
0010
1000
0001
0000
,  // measure 51
1011
0000
0000
1011
0000
0000
1011
0000
1101
0000
0000
1101
0000
0000
1101
0000
,  // measure 52
2002
0000
0000
0000
,  // measure 53
0000
0000
0000
0000
,  // measure 54
0000
0000
0000
0000
,  // measure 55
3003
0000
0000
0000
;

//---------------dance-single - Itsugo15----------------
#NOTES:
     dance-single:
     Itsugo15:
     Easy:
     4:
     0.306,0.450,0.355,0.122,0.000:
0000
0000
0000
0000
,
0000
0000
0000
0000
,
0000
0000
0000
0000
,
0000
0000
0000
0000
,
1001
0000
0000
0000
,
0001
0000
0000
0000
,
1000
0000
0000
0000
,
0100
0000
0010
0000
,
0110
0000
0010
0000
,
0011
0000
0001
0000
,
1001
0000
1000
0000
,
1010
0000
1001
0000
,
0101
0000
0001
0000
,
1001
0000
1000
0000
,
2100
0000
0000
3100
0000
0100
0000
0100
,
0000
0100
0000
0100
0000
0200
0300
0000
,
0210
0000
0000
0310
0000
0010
0000
0010
,
0000
0010
0000
0010
0000
0020
0030
0000
,
0021
0000
0000
0031
0000
0001
0000
0001
,
0000
0001
0000
0001
0000
0002
0003
0000
,
1002
0000
0000
1003
0000
1000
0000
1000
,
0000
1000
0000
1000
0000
1000
0000
1000
,
0010
0000
1000
0000
,
0001
0000
0010
0000
,
0100
0000
1000
0000
,
0001
0000
0100
0000
,
0010
1000
0001
0001
,
1000
0100
0010
0010
,
0100
1000
0001
0100
,
0010
1000
0001
0010
,
0011
0000
1100
0000
,
2002
0000
3003
0000
,
1001
0001
0100
0010
,
0100
0100
0010
1000
,
0100
0100
0010
0001
,
0010
0010
0001
1000
,
1001
0001
0100
0010
,
1000
1000
0100
0010
,
0001
0001
0010
0100
,
1000
0001
0100
0010
,
0110
0001
0101
1000
,
1100
0001
0011
1000
,
1010
0001
0101
0100
,
0110
0010
1010
1001
,
0011
0010
0001
1000
,
1000
0010
0100
0001
,
0001
0100
0010
1000
,
0100
0010
0001
0100
,
0101
0001
0001
1000
,
1001
1000
1000
0100
,
1100
0100
0110
0010
,
0022
0000
0000
0000
,
0000
0000
0000
0000
,
0000
0000
0000
0000
,
0033
0000
0000
0000
;
