#TITLE:プライド革命;
#SUBTITLE:銀魂゜;
#ARTIST:CHiCO with HoneyWorks;
#TITLETRANSLIT:Pride Kakumei;
#SUBTITLETRANSLIT:Gintama°;
#ARTISTTRANSLIT:Chico With HoneyWorks;
#GENRE:Anime;
#CREDIT:Huzure & Itsugo;
#BANNER:Pride-bn.png;
#BACKGROUND:Pride-bg.png;
#JACKET:Pride-Jacket.png;
#LYRICSPATH:Pride Kakumei.lrc;
#CDTITLE:Collab.png;
#MUSIC:Pride Kakumei.mp3;
#OFFSET:-0.178;
#SAMPLESTART:48.108;
#SAMPLELENGTH:20.680;
#SELECTABLE:YES;
#LISTSORT:;
#BPMS:0.000=185.000;
#STOPS:;
#TICKCOUNT:0.000=6;
#BGCHANGES:-0.950=Gintama OP15.avi=1.000=1=0=0,
275.500=Pride-bg.png=1.000=1=0=0,
99999=-nosongbg-=1.000=0=0=0 // don't automatically add -songbackground-
;
#KEYSOUNDS:;
#ATTACKS:;

//---------------dance-single - Itsugo15----------------
#NOTES:
     dance-single:
     Itsugo15:
     Hard:
     9:
     0.767,0.798,0.618,0.397,0.364:
0000
0000
0000
0000
,
0000
0000
0000
0000
,
0000
0000
0000
0000
,
0000
0000
0000
0000
0002
0003
0000
0000
,
0010
0010
0000
0000
0000
0000
0000
0000
,
0100
0100
0000
0000
0000
0000
0000
0000
,
0010
0010
0000
0000
0001
0001
0000
0000
,
2000
0000
0000
0000
,
0002
0000
0000
3003
,
1001
0000
0001
0010
0001
0100
0001
0101
,
0000
0000
0100
0000
0010
0000
1000
0010
1000
0000
0100
0000
1000
0000
0001
0000
,
1001
0000
1000
0010
1000
0001
0010
0011
,
0000
0000
0001
0000
0100
0000
0010
0000
1000
0010
1000
0010
1000
0010
1000
0001
,
0010
0100
0100
0010
0001
0001
1000
0010
,
0200
0302
0023
0230
,
2300
0000
0100
0000
0001
0000
3010
1000
,
0001
1000
0001
1000
0100
0010
0001
1000
,
0010
0001
0010
0200
0000
2300
0000
3100
,
0001
1000
0100
0020
0000
2030
0000
3010
,
0001
2000
0000
3020
0000
0230
0000
0302
,
0000
2000
0000
3203
00M0
0300
000M
M000
,
1001
0000
0000
0000
0000
0000
0000
0000
0000
0000
0000
0000
0000
0000
0000
0000
0001
0000
0000
0000
0000
0000
0000
0000
0000
0000
0000
0000
0000
0000
0000
0001
0010
0000
0000
0000
0000
0000
0000
0000
0000
0000
0000
0000
0000
0000
0000
0000
0010
0000
0000
0000
0000
0000
0000
0000
0100
0000
0000
0000
0000
0000
0000
0000
,
0000
0000
0000
0000
0000
0000
0000
0000
1000
0000
0000
0000
0000
0000
0000
0000
0001
0000
0000
0000
0000
0000
0000
0000
0100
0000
0000
0000
0000
0000
0000
0000
0101
0000
0000
0000
0000
0000
0000
0000
0001
0000
0000
0000
0000
0000
0000
0000
1000
0000
0000
0000
0000
0000
0000
0000
0100
0000
0000
0000
0000
0000
0000
1000
,
0100
0000
0000
0000
1000
0000
0000
0000
1001
0000
0002
0000
0000
0000
0000
0003
,
0101
0000
0000
0000
0200
0000
0000
0000
0310
0000
1000
0000
0200
0000
0000
0300
,
1100
0000
0000
0001
0000
0000
0012
0000
0000
1003
0000
0001
,
1000
0000
1000
0010
0000
0000
1010
0000
0000
0010
0000
1000
,
0001
0000
0001
0010
0000
0000
0011
0000
0000
0001
0000
0000
,
1001
0000
0000
0000
0110
0000
0000
0000
1001
0000
1000
0001
1000
0000
0001
1000
,
0001
0010
0100
0010
1000
0010
0100
0010
,
0001
1000
0010
0100
0010
0001
0010
0100
,
0010
1000
0001
0010
0100
1000
0010
0100
,
0001
1000
0010
0100
0001
1000
0100
0010
0001
0010
0100
1000
,
0001
0000
0000
0000
1001
0000
0000
1000
0010
0000
0100
0000
0001
0000
1000
0000
,
0100
0000
0000
0000
1100
0000
0000
0100
0010
0000
0001
0000
1000
0000
0010
0000
,
2020
0000
0000
0000
,
0M02
0M00
0M00
0M00
0M00
3M33
0000
0000
,
1001
0000
0000
0000
1010
0000
0000
0010
0100
0000
0001
0000
0010
0000
0100
0000
,
1000
0000
0000
0000
1100
0000
0000
0100
0010
0000
0001
0000
1000
0000
0010
0000
,
0100
0000
0000
0000
0110
0000
0000
0100
0001
0000
1000
0000
0100
0000
0010
0000
,
0001
0000
0000
0000
0011
0000
0000
0001
1000
0000
0010
0000
1000
0000
0100
0000
,
1100
0000
0000
0000
0110
0000
0000
0010
0001
0000
1000
0000
0010
0000
0100
0000
,
0110
0000
0000
0000
0101
0000
0000
0001
1000
0000
0100
0000
1000
0000
0010
0000
,
1010
0000
0000
0000
1001
0000
0000
1000
0100
0000
0010
0000
0001
0000
1000
0000
,
1001
0000
0000
0000
1001
0000
0000
0000
0001
1000
0001
0000
1000
0001
1000
0000
,
1001
0000
0000
0000
0011
0000
0000
0010
0001
0000
1000
0000
0010
0000
0100
0000
,
0001
0000
0000
0000
0101
0000
0000
0001
0100
0000
0001
0000
0010
0000
0100
0000
,
1000
0000
0000
0000
1100
0000
0000
1000
0100
0000
1000
0000
0001
0000
0100
0000
,
0010
0000
0000
0000
0110
0000
0000
0010
0100
0000
0010
0000
1000
0000
0001
0000
,
1001
0101
1001
1100
,
1000
0100
1000
0000
0001
0010
0001
1000
,
0010
0000
0000
1000
0000
0000
0010
0000
0000
0000
0000
0000
0100
0000
0000
0000
0000
0000
0001
0000
0000
0100
0000
0000
0001
0000
0000
0100
0000
0000
0001
0000
0000
0000
0000
0000
1000
0000
0000
0000
0100
0000
0000
0000
0010
0000
0000
0000
,
0001
0010
0001
0010
0001
1000
0010
1000
0010
1000
0010
0100
,
0202
0000
0000
0000
0000
0000
0000
0000
0000
0000
0000
0000
0000
0000
0000
0303
,
2002
0000
0000
0000
0000
0000
0000
0000
0000
0000
0000
0000
0000
0000
0000
3003
,
2200
0000
0000
0000
0000
0000
0000
0000
0000
0000
0000
0000
0000
0000
0000
3300
,
0220
0000
0000
0000
0000
0000
0000
0000
0000
0000
0000
0000
0330
0000
0000
0000
0000
0000
0000
0000
0000
0100
0000
0000
1000
0000
0000
0000
0000
0000
0000
0000
0010
0000
0000
0000
0000
0000
0000
0000
0100
0000
0000
0000
0000
0000
0000
0000
,
0001
0100
0000
0100
0010
1000
0000
1000
,
0001
0010
0100
2000
0000
3001
0000
1000
,
1100
0000
0000
0000
1000
0100
1000
0100
1000
0100
1000
0100
1000
0001
0200
0000
,
0000
0000
0000
0000
0000
0000
0000
0000
0000
0000
0000
0000
0000
0000
0000
0300
,
MMMM
0000
1001
0000
0101
0100
0001
1000
,
0100
0000
0000
0000
1100
0000
0000
1000
0100
0000
0010
0000
0001
0000
1000
0000
,
0010
0000
0000
0000
1010
0000
0000
1000
0001
0000
0010
0000
0100
0000
1000
0000
,
1100
0000
0000
0000
0011
0000
0000
0000
0001
1000
0001
1000
0001
1000
0001
0000
,
1001
1000
0001
0000
1001
0001
1000
0000
,
0100
0000
0010
0000
0001
0000
1000
0000
0001
0100
0001
0100
0001
0100
0001
0100
,
0002
0000
0000
0000
0000
0000
0003
0101
,
0000
1000
1010
0010
0100
1001
0010
0100
;

//---------------dance-single - Itsugo15----------------
#NOTES:
     dance-single:
     Itsugo15:
     Beginner:
     2:
     0.109,0.114,0.022,0.033,0.000:
0000
0000
0000
0000
,
0000
0000
0000
0000
,
0000
0000
0000
0000
,
0000
0000
0000
0000
,
1000
0000
0000
0000
,
0001
0000
0000
0000
,
1000
0000
1000
0000
,
0000
0000
0000
0000
,
0000
0000
0000
0000
,
1001
0000
0000
0001
,
0000
0000
0000
0000
,
0100
0000
0000
0010
,
0000
0000
0000
0000
,
1000
0000
0000
0000
,
0010
0000
0000
0000
,
0100
0000
0000
0000
,
0001
0000
0000
0000
,
1000
0000
0000
0000
,
0001
0000
0000
0000
,
0010
0000
0000
0000
0000
0000
0000
0100
,
0000
0000
0000
0000
,
1000
0000
0000
0000
,
1000
0000
0000
0000
,
0001
0000
0000
0000
,
0001
0000
0000
0000
,
0100
0000
0000
0000
,
0100
0000
0000
0000
,
0010
0000
0000
0000
,
0010
0000
0000
0000
,
1000
0000
0000
0000
,
0001
0000
0000
0000
,
0010
0000
0000
0000
,
0100
0000
0000
0000
,
1000
0000
0000
0000
,
0001
0000
0000
0000
,
0200
0000
0000
0000
,
0300
0000
0000
0000
,
0010
0000
0000
0000
,
1000
0000
0000
0000
,
0001
0000
0000
0000
,
0010
0000
0000
0000
,
0100
0000
0000
0000
,
0100
0000
0000
0000
,
1000
0000
0000
0000
,
1000
0000
0000
0000
,
0001
0000
0000
0000
,
0100
0000
0000
0000
,
0010
0000
0000
0000
,
1000
0000
0000
0000
,
0001
0000
0000
0000
,
0001
0000
0000
0000
,
0010
0000
0000
0000
,
0010
0000
0000
0000
,
0100
0000
0000
0000
,
1000
0000
0000
0000
,
0001
0000
0000
0000
,
0100
0000
0000
0000
,
0010
0000
0000
0000
,
0010
0000
0000
0000
,
2000
0000
0000
0000
,
3000
0000
0000
0000
,
0000
1001
0000
0000
,
0001
0000
0000
0000
,
0100
0000
0000
0000
,
0010
0000
0000
0000
,
1000
0000
0000
0000
,
0001
0000
0000
0000
,
0010
0000
0000
0000
0000
0000
0000
0100
,
0000
0000
1000
0000
0000
0002
0000
0003
;

//---------------dance-single - Itsugo15----------------
#NOTES:
     dance-single:
     Itsugo15:
     Easy:
     3:
     0.188,0.228,0.044,0.077,0.000:
0000
0000
0000
0000
,
0000
0000
0000
0000
,
0000
0000
0000
0000
,
0000
0000
0000
0000
,
0001
0000
0000
0000
,
0010
0000
0000
0000
,
0100
0000
1000
0000
,
0000
0000
0000
0000
,
0000
0000
0000
0000
,
1100
0000
1000
0000
,
0001
0000
0100
0000
,
0101
0000
0001
0000
,
1000
0000
0100
0000
,
1000
0000
0000
0000
,
0100
0000
0000
0000
,
0010
0000
0000
0000
,
0001
0000
0000
0000
,
1000
0000
0000
0000
,
0001
0000
0000
0000
,
0100
0000
0000
0000
0000
0000
0000
0100
,
0000
0000
0000
0000
,
0010
0000
1000
0000
,
1000
0000
0001
0000
,
0010
0000
0100
0000
,
0100
0000
0010
0000
,
0001
0000
1000
0000
,
0010
0000
1000
0000
,
0001
0000
0100
0000
,
0001
0000
1000
0000
,
1001
0000
0001
0000
,
0010
0000
0100
0000
,
1000
0000
1000
0000
,
0010
0000
0100
0000
,
0001
0000
0001
0000
,
0010
0000
0010
0000
,
0200
0000
0000
0000
,
2000
0000
0000
3300
,
1000
0000
0010
0000
,
0100
0000
0100
0000
,
0010
0000
1000
0000
,
0001
0000
0001
0000
,
0010
0000
0100
0000
,
0010
0000
0001
0000
,
0100
0000
0010
0000
,
0100
0000
0001
0000
,
1000
0000
1000
0000
,
0100
0000
0100
0000
,
0010
0000
0010
0000
,
0001
0000
0100
0000
,
0010
0000
0010
0000
,
1000
0000
1000
0000
,
0001
0000
0010
0000
,
0200
0000
1000
0000
,
0320
0000
0000
0000
,
0032
0000
0000
0000
,
2003
0000
0000
0000
,
3020
0000
0000
0000
,
0130
0000
0100
0000
,
0001
0000
0001
0000
,
1000
0000
0100
0000
,
0000
0000
0000
0000
,
0000
0110
0000
0000
,
0010
0000
0010
0000
,
0001
0000
0001
0000
,
1000
0000
0010
0000
,
0100
0000
0100
0000
,
0001
0000
0001
0000
,
0010
0000
0000
0000
0000
0000
0000
0010
,
0000
0000
0001
0000
0000
1000
0000
0010
;

//---------------dance-single - Huzure----------------
#NOTES:
     dance-single:
     Huzure:
     Challenge:
     10:
     0.819,0.913,0.563,0.276,0.392:
0000
0000
0000
0000
,
0000
0000
0000
0000
,
0000
0000
0000
0000
,
0000
0000
0000
0000
,
1000
1000
0000
0000
0000
0000
0000
0000
,
0100
0100
0000
0000
0000
0000
0000
0000
,
1000
1000
0000
0000
0001
0001
0000
0000
,
0000
0000
0000
0000
,
0000
0000
0000
0000
,
1001
0101
0000
1000
0000
0001
1001
1010
,
0000
0000
0002
0000
0010
0000
0003
0010
0001
0000
0010
0000
0100
0000
1000
0001
,
1000
0000
1100
0000
0100
1000
0000
0100
1000
0000
0000
0000
1001
0000
0011
0000
,
0000
0000
0200
0000
0000
0000
1300
0000
0001
0010
0100
1000
0100
0010
0001
0010
,
0001
1000
0100
1000
0001
0001
0010
0100
,
1000
0000
0100
0000
1000
0000
0100
0000
0010
0001
0010
0000
0001
0000
1000
0000
,
2001
0010
0100
0010
3001
0000
1001
0110
,
0000
0010
0100
0010
0100
0001
1000
0001
,
1000
0000
0100
0000
0010
0000
0001
0000
1000
0100
1000
0000
0001
0000
1000
0000
,
0001
0001
0010
0100
1000
1000
0010
0100
,
0001
0100
1000
0100
0001
0100
1000
0100
,
0000
0000
0000
0000
0000
0000
0001
1000
0100
0000
1000
0000
0001
0000
1000
0000
,
0100
0000
0000
0000
1100
0000
0000
0000
0110
0000
0000
0000
1000
0000
1000
0100
,
0010
0000
0100
0000
1000
0000
0001
0000
0010
0000
0100
0000
1000
0000
0001
0100
,
0010
0000
0000
0000
1010
0000
0000
0000
0010
0000
0110
0000
0000
0000
0100
0001
,
0100
0101
2000
0000
3002
0000
0103
0000
,
0101
0000
1100
0000
0011
0000
0001
1000
,
0010
0000
1000
0000
0001
0000
0000
0000
0010
0000
0000
0000
0001
0000
1000
0001
,
0010
0001
1000
0000
0011
0100
0000
0100
,
1100
0000
0000
0000
0110
0000
0000
0000
0001
0000
1000
0001
1000
0000
0001
1000
,
0001
0010
0100
0001
0100
1000
0100
0010
,
0100
0000
0001
0000
0100
0000
1000
0000
0010
0100
0010
0000
1000
0000
0001
0000
,
1000
0100
0010
0001
1000
0100
1000
0001
,
0100
0000
0001
0100
0002
0000
1000
0000
0100
0000
0103
0000
0101
0000
0000
0000
,
1000
0000
0000
0000
1100
0000
0000
0100
1000
0000
0001
0000
0100
0000
0001
0010
,
0100
0000
0010
0000
0001
0000
0010
0100
1000
0000
0100
0000
0010
0000
0001
1000
,
0002
0000
0000
0000
,
0003
0000
0000
0000
,
1010
0000
0010
0000
1000
0000
0001
0100
0001
0000
1000
0000
0100
0000
0200
0000
,
0010
0000
1000
0000
1300
0000
0010
0100
0001
0000
0010
0000
0001
0000
2000
0000
,
0001
0000
0001
0000
3010
0000
1000
0010
1000
0000
0001
0000
0010
0000
0100
0000
,
0001
0000
0100
0000
0010
0000
0001
1000
0001
0000
0100
0000
0010
0000
1000
0010
,
0100
0000
0000
0000
0101
0000
0000
0100
0001
0000
0100
0000
1000
0000
0200
0000
,
0000
0000
0301
0000
0100
0000
0010
0100
0010
0000
1000
0000
0100
0000
1000
0001
,
0100
0000
0000
0000
0110
0000
0000
0100
0010
0000
0100
0000
0001
0000
0000
0000
,
1001
0000
0000
0000
0110
0000
0000
0000
1000
0000
0100
1000
0010
0000
0100
0001
,
0010
0000
0100
0000
1000
0000
0010
1000
0010
0000
0001
0000
0010
0000
1000
0000
,
0100
0000
0010
0000
0001
0000
0100
0001
0100
0000
1000
0000
0100
0000
0001
0010
,
0100
0000
0010
0000
0110
0000
0100
1000
0001
0000
0100
0000
0010
0000
2000
0000
,
0100
0000
0100
0000
3100
0000
1000
0100
0010
0000
0001
0000
0010
0000
0100
0001
,
0100
0000
0000
0000
1100
0000
0000
0100
1000
0000
0001
0000
0010
0000
0200
0000
,
0320
0000
0230
0000
0310
0000
0001
1000
0001
0000
0010
0000
0100
0000
0000
0000
,
1000
0000
0100
0010
0001
1000
0100
0000
0010
0001
1000
0100
0010
0000
0001
0010
,
0100
1000
0001
0100
0010
1000
0100
1000
0010
0100
0001
0010
,
0220
0000
0000
0000
0000
0000
0000
0330
,
2002
0000
0000
0000
0000
0000
0000
3003
,
2020
0000
0000
0000
0000
0000
0000
3030
,
0202
0000
0000
0000
0303
0000
1000
0100
0010
0000
0000
0011
0000
0000
1100
0000
,
0001
1000
1000
0100
0010
0001
0000
0010
,
0100
1000
0100
0010
0001
0010
0000
0010
,
0110
0000
0000
0000
1100
0000
1000
0100
1000
0001
0100
0010
0100
0001
1000
0100
,
2000
0000
0000
0000
,
3000
0000
1001
0000
0001
0001
0011
1100
,
0000
0000
0100
0000
1000
0000
0010
0100
0010
0000
1000
0000
0001
0000
0100
0000
,
0010
0000
0000
0000
1010
0000
0000
0010
1000
0000
0001
0000
0010
0000
0100
0000
,
1010
0000
0000
0000
1100
0000
0000
0000
0100
0010
0001
1000
0100
0000
1000
0100
,
1000
0000
1001
0000
0001
0010
0011
1002
,
0100
0000
1000
0000
0100
0000
1003
0000
0001
0010
0100
1000
0001
0010
0100
1000
,
0002
0000
0000
0000
0000
0000
0003
1001
,
0000
1000
1100
0100
1000
0011
0010
1100
;

//---------------dance-single - Huzure----------------
#NOTES:
     dance-single:
     Huzure:
     Medium:
     7:
     0.514,0.570,0.177,0.210,0.000:
0000
0000
0000
0000
,
0000
0000
0000
0000
,
0000
0000
0000
0000
,
0000
0000
0000
0000
,
1000
0100
0000
0000
0000
0000
0000
0000
,
1000
0100
0000
0000
0000
0000
0000
0000
,
1000
0010
0000
0000
1000
0001
0000
0000
,
0000
0000
0000
0000
,
0000
0000
0000
0000
,
0010
0001
0000
1000
0000
0001
0010
0100
,
0000
1000
0000
0001
0100
0010
1000
0000
,
0100
0010
0000
0001
0000
0010
0100
1000
,
0000
0001
0000
1000
0010
1000
0001
0000
,
1000
0100
0000
0100
0010
0001
0000
1000
,
0010
0000
1000
0010
1000
0000
0001
0000
,
2000
0000
0100
0000
0100
0000
3100
0010
,
0000
0010
0001
0000
0100
0010
0100
0000
,
0001
0010
0100
1000
0000
0010
0100
0000
,
0001
1000
0100
0010
0000
0001
1000
0000
,
0010
0100
0001
1000
0000
0100
0000
0110
,
0000
0000
0000
0010
0001
0000
1000
0100
,
1000
0000
1000
0000
0011
0000
0001
0010
,
0000
0010
0001
1000
0010
1000
0001
0000
,
0100
0000
0100
0000
0001
0100
0000
0000
,
0101
2000
3200
0320
,
0031
0000
1000
0000
0100
0000
1000
0001
,
0010
0001
1000
0000
0010
0000
0100
0010
,
0100
0001
0000
0001
0100
0000
0001
1000
,
0001
0000
0110
0000
0001
1000
0001
0000
,
1000
0010
0000
0100
0000
0001
0010
0100
,
0000
1000
0000
0100
0010
0001
0010
0100
,
1000
0010
0000
1000
0000
0001
0100
0010
,
0000
1001
0000
0000
0100
0000
0110
0000
,
1000
0000
0001
0000
0100
0001
0100
0000
,
0001
0100
0001
0000
0100
0001
0100
0000
,
0202
0000
0000
0000
,
0303
0000
0000
0000
,
1000
0001
0010
0001
1000
0100
0000
0010
,
0001
1000
0010
0100
0000
0001
0000
0010
,
0100
1000
0100
0010
0000
0010
0000
0001
,
0100
0010
1000
0001
0000
0010
0000
0001
,
1000
0000
0100
0000
1000
0001
1000
0100
,
0000
0100
1000
0000
0001
0100
0001
0000
,
1000
0000
0001
0000
0010
0001
1000
0000
,
1100
0011
0020
0230
,
1300
0010
1000
0010
0000
0100
0000
0001
,
0010
0001
0000
0100
0000
0010
0000
1000
,
0001
1000
0000
0010
0000
0100
0000
0001
,
0010
0100
1000
0010
0000
0100
0000
0001
,
0010
0000
0001
0000
1000
0100
1000
0001
,
0000
0001
1000
0000
0010
1000
0010
0000
,
1000
0100
0000
1000
0001
0000
1000
0100
,
0020
0000
0031
0000
0001
0010
0001
0000
,
2002
0000
0000
3003
,
0220
0000
0000
0330
,
2002
0000
0000
3003
,
0220
0000
0000
0330
,
1000
0100
0010
0001
,
1000
0100
0010
0001
,
1000
1100
0110
1100
,
0000
0000
0000
0000
,
0000
0000
0001
0000
0100
0010
0100
0010
,
0000
0010
1000
0000
0001
1000
0001
0000
,
1000
0000
0010
0000
0100
0010
0100
0000
,
0001
0010
0001
0000
2000
0000
3000
0001
,
1000
0000
0001
0000
0100
0001
0100
0001
,
0000
0100
0001
0000
1000
0000
0100
0000
,
1000
0000
0000
0000
0000
0000
0000
0002
,
0000
0013
0100
1000
0100
0010
0001
1000
;
