#TITLE:One More Chance!!;
#SUBTITLE:ヘヴィーオブジェクト;
#ARTIST:ALL OFF;
#TITLETRANSLIT:One More Chance!!;
#SUBTITLETRANSLIT:Heavy Object;
#ARTISTTRANSLIT:All Off;
#GENRE:Anime;
#CREDIT:Huzure & Itsugo;
#BANNER:HO-bn.png;
#BACKGROUND:HO-bg.png;
#JACKET:HO-Jacket.png;
#LYRICSPATH:One More Chance!!.lrc;
#CDTITLE:Collab.png;
#MUSIC:One More Chance!!.mp3;
#OFFSET:-0.596;
#SAMPLESTART:48.974;
#SAMPLELENGTH:28.260;
#SELECTABLE:YES;
#BPMS:0.000=205.000;
#STOPS:;
#TICKCOUNT:0.000=6;
#BGCHANGES:-2.500=Heavy Object OP.avi=1.000=1=0=0,
298.000=HO-bg.png=1.000=1=0=0,
99999=-nosongbg-=1.000=0=0=0 // don't automatically add -songbackground-
;

//---------------dance-single - Itsugo15----------------
#NOTES:
     dance-single:
     Itsugo15:
     Hard:
     10:
     0.854,0.827,0.677,0.278,0.061: // measure 1
0000
0000
0000
0000
,  // measure 2
0000
0000
0000
0000
,  // measure 3
0000
0000
0000
0000
,  // measure 4
0000
0000
0000
0000
0000
0000
0000
1001
,  // measure 5
0000
0002
1000
1000
,  // measure 6
1000
1000
1000
1000
,  // measure 7
4000
0000
0000
0000
0000
0000
0000
3003
,  // measure 8
0000
0000
0000
0000
0000
0000
1001
1001
,  // measure 9
0000
0000
0001
0100
1000
0100
0001
0101
,  // measure 10
0000
0001
1000
0100
0001
0100
1000
1100
,  // measure 11
0000
0100
0010
1000
0010
0001
1000
0010
,  // measure 12
0001
1000
0100
0001
1000
0100
0010
0110
,  // measure 13
0000
0100
1000
0010
0001
0010
1000
1010
,  // measure 14
0000
1000
0001
0010
1000
0010
0001
0011
,  // measure 15
0000
0010
0100
0001
0100
1000
0001
0100
,  // measure 16
1000
0001
0010
1000
0001
0010
0100
1000
,  // measure 17
0002
0000
0100
0000
1000
0000
0010
0000
1000
0003
1001
0000
,  // measure 18
0001
1000
0001
1000
0001
1000
0001
1000
0001
0100
0000
0000
0000
0000
0000
0000
,  // measure 19
0101
0000
0100
0010
0100
0001
0100
0010
,  // measure 20
0100
0001
1000
0100
0010
0100
1000
0100
,  // measure 21
0010
0100
1000
0001
0010
0100
1000
0100
,  // measure 22
0010
0001
1000
0010
0100
0001
1000
0100
,  // measure 23
0010
0100
1000
0100
0010
0001
1000
0001
,  // measure 24
1000
0010
0100
0001
1000
0100
0010
0001
,  // measure 25
0011
0000
0001
1001
0000
0001
0101
0000
,  // measure 26
0101
0100
0010
1000
1000
1000
1000
1001
,  // measure 27
0000
0001
0010
0100
0100
0010
0001
1000
,  // measure 28
1000
0001
0100
0010
0010
0100
0001
0101
,  // measure 29
0000
0100
0100
0001
1000
0100
0010
0001
,  // measure 30
0010
0100
1000
0001
0020
0000
0031
0011
,  // measure 31
0000
0010
0010
0001
0100
0100
0010
0010
,  // measure 32
1000
1000
0001
0010
0100
1000
0100
0010
,  // measure 33
0002
0000
1003
0020
0000
0130
0002
0000
,  // measure 34
1003
1001
1001
1100
,  // measure 35
0110
0000
0010
0001
1000
0000
0010
0100
,  // measure 36
0001
0000
0100
0010
1000
0000
0001
0010
,  // measure 37
0100
0000
1000
0100
0020
0000
0031
1000
,  // measure 38
0010
1000
0002
1003
,  // measure 39
1100
1010
0101
0011
,  // measure 40
1010
0101
1100
1001
,  // measure 41
0110
0000
1001
0000
0110
0000
1001
1001
,  // measure 42
0000
0001
1000
0000
0000
0000
0000
0101
,  // measure 43
0000
0001
0100
1000
0100
0001
1000
0100
,  // measure 44
0010
1000
0010
0001
0010
0100
1000
0002
,  // measure 45
0000
0103
0010
1000
0001
1000
0010
0100
,  // measure 46
0001
1000
0100
0010
0001
0010
0100
2000
,  // measure 47
0000
3001
0100
1000
0100
0010
1000
0001
,  // measure 48
0010
0100
1000
0200
0000
0310
0001
0010
,  // measure 49
1000
0010
0100
1000
0001
0100
0010
2000
,  // measure 50
0000
3001
1000
0002
0100
0100
0103
0101
,  // measure 51
0000
0001
1000
0100
0010
0100
1000
1100
,  // measure 52
0000
0100
0020
0000
0031
1000
0010
1010
,  // measure 53
0000
0101
0000
1001
0000
0011
0000
1100
,  // measure 54
0000
1000
0000
0001
0000
0100
0010
2000
,  // measure 55
0000
3001
0010
0001
1000
0010
0100
0002
,  // measure 56
0000
1003
0100
0010
0000
0100
1000
0000
,  // measure 57
1100
0001
1100
0001
1100
0000
1001
0000
,  // measure 58
0101
0000
0001
1000
0100
1000
0010
1010
,  // measure 59
0000
1000
0010
0001
0010
1000
0001
0010
,  // measure 60
0100
0001
0100
1000
0100
0010
0001
2000
,  // measure 61
0000
3010
0100
0001
1000
0001
0100
0010
,  // measure 62
1000
0001
0010
0100
1000
0100
0010
0002
,  // measure 63
0000
1003
0010
0001
0010
0100
0001
1000
,  // measure 64
0100
0000
0010
0000
0001
0000
0020
0000
0000
0000
0130
0010
0100
0010
0100
0000
,  // measure 65
1000
0001
0010
0001
1000
0010
0100
0002
,  // measure 66
0000
0000
1003
0000
0001
0000
1000
0000
0020
0000
0100
0000
0100
0030
0110
0000
,  // measure 67
0000
0100
0001
0010
0100
0010
0001
0011
,  // measure 68
0000
0010
0200
0000
1300
0001
1001
0101
,  // measure 69
0000
1010
0000
1001
0000
1100
0000
0011
,  // measure 70
0000
0001
0000
1000
0000
0010
0100
0002
,  // measure 71
0000
1003
0100
1000
0001
0100
0010
2000
,  // measure 72
0000
3001
0010
0100
0000
0010
0001
0000
,  // measure 73
0011
1000
0011
1000
0011
0000
1001
0000
,  // measure 74
1000
0010
0000
0100
0001
0000
1000
1100
,  // measure 75
0000
0100
0010
0001
1000
0000
0000
0000
;

//---------------dance-single - Huzure----------------
#NOTES:
     dance-single:
     Huzure:
     Challenge:
     12:
     1.000,1.000,0.833,0.366,0.350: // measure 1
0000
0000
0000
0000
,  // measure 2
0000
0000
0000
0000
,  // measure 3
0000
0000
0000
0000
,  // measure 4
0000
0000
0000
0000
0000
0000
0000
1001
,  // measure 5
0000
0000
0000
0000
1000
0100
1000
0100
1000
0100
1000
0100
0010
0001
0010
0001
,  // measure 6
0010
0001
0010
0001
1000
0100
1000
0100
1000
0100
1000
0100
0010
0001
0010
0001
,  // measure 7
0010
0001
0010
0001
1000
0100
1000
0100
0010
0001
0010
0001
1000
0100
0010
0000
,  // measure 8
0000
0000
0000
0000
0000
0000
0000
1001
,  // measure 9
0000
0110
1001
0000
0001
0100
0010
0200
,  // measure 10
0000
0000
1000
0000
0301
0000
0000
0001
1000
0000
0100
0000
0010
0000
0110
0000
,  // measure 11
0000
1001
0110
0000
1000
0010
1000
0002
,  // measure 12
0000
0013
0001
0010
0100
1000
0001
0011
,  // measure 13
0000
0000
0100
0000
0010
0000
0010
1000
0100
0000
1000
0000
0001
0000
0200
0000
,  // measure 14
0000
0000
0010
0000
0001
0000
0310
0100
0010
0000
1000
0000
1010
0000
0200
0000
,  // measure 15
0000
0000
0301
0000
1010
0000
1000
0100
0010
0000
0001
0000
0001
0000
0101
0000
,  // measure 16
0000
0000
0001
0000
1100
0000
0000
0000
0001
0010
0100
1000
0001
0000
1000
0000
,  // measure 17
0020
0000
0200
0030
0002
0300
2000
0003
0020
3000
0200
0030
,  // measure 18
0301
0010
0100
1000
0100
0010
0100
1000
0001
0000
0000
0000
0000
0000
0000
0000
,  // measure 19
0110
0000
0100
0010
0100
0001
0100
0010
,  // measure 20
1000
0100
1000
0010
0100
0002
0203
2300
,  // measure 21
3200
0000
0301
0010
0100
0010
0001
2000
,  // measure 22
0010
3020
0100
0230
0001
0302
1000
1003
,  // measure 23
0110
0100
0010
1000
1000
0100
0100
0010
,  // measure 24
0001
0010
1000
0010
0001
0010
0100
1000
,  // measure 25
0020
0000
0130
0020
0000
1030
0020
0000
,  // measure 26
0130
0001
0100
0000
0001
0000
0001
0000
0001
0000
1001
0000
0100
0000
1001
0000
,  // measure 27
0000
0011
1100
0001
0010
0100
1000
0100
,  // measure 28
0010
0000
0001
0000
1000
0000
0010
0100
0001
0000
1000
0000
0220
0000
0000
0000
,  // measure 29
0330
0000
0001
0000
0010
0000
0001
1000
0001
0000
0100
0000
0010
0000
1000
0001
,  // measure 30
1000
0100
0010
0100
1000
0001
0100
0120
,  // measure 31
0000
0000
1030
0000
0001
0000
0100
0001
0010
0000
0001
0000
0100
0000
0010
1000
,  // measure 32
0100
0001
0100
1000
0010
0001
0010
1000
,  // measure 33
0001
0000
0001
0000
0001
0000
1000
0100
0010
0000
0001
0000
0100
0000
0200
0000
,  // measure 34
0000
0001
0301
0000
1010
0000
0101
0000
,  // measure 35
1001
0000
0000
0100
0000
0000
0100
0000
0011
0000
0000
0100
0000
0000
0100
0000
,  // measure 36
1010
0000
0000
0001
0000
0000
0001
0000
1100
0000
0000
0001
0000
0000
0001
0000
,  // measure 37
0110
0000
0000
1000
0000
0000
0100
0000
0100
0000
0000
0001
0000
0000
0100
0000
,  // measure 38
1000
0000
0001
0000
1001
0000
0000
0000
0001
0100
0010
1000
0100
1000
0010
0100
,  // measure 39
0001
1000
1100
0100
0110
0010
0011
0001
,  // measure 40
1010
0000
0010
0000
0101
0000
0100
0000
1001
0000
0001
0000
1100
0000
0100
0010
,  // measure 41
0001
0100
0101
0000
0101
0000
0001
1100
,  // measure 42
0000
0011
1100
0000
0000
0000
0000
1001
,  // measure 43
0000
1000
0010
0100
0010
1000
0001
0100
,  // measure 44
1000
0100
0001
0010
0001
0100
0010
2000
,  // measure 45
0100
0010
0001
3010
1000
0002
0010
0100
,  // measure 46
1000
0103
0001
1000
1000
0001
0100
0110
,  // measure 47
0010
0100
0001
1000
0100
0010
0001
1000
,  // measure 48
0010
1000
0001
0010
0100
0001
0100
1000
,  // measure 49
0010
0100
0001
0010
0100
0010
0001
1000
,  // measure 50
0100
0010
0001
0000
0100
0011
1001
0011
,  // measure 51
0000
0001
1000
0000
0100
1010
1001
1010
,  // measure 52
0000
0001
0002
0000
0100
0010
1003
0001
,  // measure 53
0000
1001
0010
0100
0000
1010
0100
1010
,  // measure 54
0000
0000
0001
0000
0001
0000
0001
0000
1000
0010
1000
0000
0100
0000
1100
0000
,  // measure 55
0000
0000
1000
0100
0010
0000
0001
0000
1000
0000
0001
0000
0010
0000
0101
0000
,  // measure 56
0000
0100
0010
0101
0000
0001
0001
0000
,  // measure 57
1010
0000
0001
0000
1010
0000
0100
0000
1010
0000
0001
0000
0001
0010
0100
1000
,  // measure 58
0001
0000
1001
1001
0100
0010
0001
2100
,  // measure 59
0000
0001
0010
0001
3010
1000
0001
0100
,  // measure 60
1000
0100
0001
0010
0100
0001
0100
0020
,  // measure 61
0001
0100
0001
0100
0001
0100
0031
1000
,  // measure 62
0010
0100
0001
0010
0100
0010
0001
1000
,  // measure 63
1001
0001
0100
0001
0010
0001
0100
0001
,  // measure 64
1000
0000
0010
0000
0100
0000
0100
0000
0000
0001
1000
0001
0100
0010
1000
0000
,  // measure 65
0000
0100
1100
0101
0000
0001
1001
0110
,  // measure 66
0000
1000
0200
0300
0010
0110
0011
0110
,  // measure 67
0000
0001
1000
0000
0100
0110
1100
0110
,  // measure 68
0000
0001
0002
0000
0100
0010
1003
1100
,  // measure 69
0000
0001
1000
0100
1000
0010
0100
1000
,  // measure 70
0000
0100
0001
0000
0010
0010
0010
0010
,  // measure 71
0001
0000
0010
0100
1000
0000
0010
0000
0001
0000
0010
0000
1000
0000
0010
0000
,  // measure 72
0000
0100
0010
0100
0000
0100
0001
0000
,  // measure 73
0101
0000
1000
0000
0101
0000
0010
0000
0101
0000
1000
0000
0001
0010
0100
1000
,  // measure 74
0001
0000
0000
0000
0000
0000
0000
0200
,  // measure 75
0000
0010
0010
0010
0310
0000
0000
0000
;

//---------------dance-single - Huzure----------------
#NOTES:
     dance-single:
     Huzure:
     Medium:
     8:
     0.684,0.703,0.278,0.255,0.056:
0000
0000
0000
0000
,
0000
0000
0000
0000
,
0000
0000
0000
0000
,
0000
0000
0000
0000
0000
0000
0000
0011
,
0000
1000
0100
1000
,
0100
1000
0100
1000
,
0100
0000
1000
0000
0100
0000
1000
0001
,
0000
0000
0000
0000
0000
0000
0000
1001
,
0000
0000
0100
0000
0001
0100
0000
0002
,
0000
0000
1003
0000
0100
0010
0000
0200
,
0000
0000
0310
0000
0100
1000
0000
0002
,
0000
0000
1003
0000
0001
0010
0100
1000
,
0000
1000
0001
0000
1000
0010
0000
0100
,
0000
0001
0100
0000
0010
1000
0000
0100
,
0000
0010
0001
0000
0100
0010
0000
2000
,
0000
0000
3001
0000
1000
0001
0000
0000
,
2000
0000
0001
0000
0010
0000
0100
0000
0010
0000
3001
0000
,
1000
0100
0010
0100
1000
0000
0000
0000
,
1001
0000
0001
0000
0100
0010
0100
0010
,
0000
1000
0100
0010
0001
0010
0100
0000
,
1000
0000
0001
0000
0100
0001
0100
0000
,
0001
0010
0100
1000
0001
0010
0100
1000
,
0001
0000
1000
0000
0100
0010
0100
0010
,
0000
0001
1000
0001
1000
0010
0100
0010
,
0200
0000
0001
0001
0000
0001
0301
0000
,
1000
0100
0010
0001
1000
0010
0100
0010
,
0000
1000
0010
0100
0010
0001
0010
1000
,
0010
0000
0100
0001
0010
0100
2000
0000
,
3000
0001
1000
1000
0100
0100
0010
0001
,
1000
0001
0000
1000
0010
1000
0001
0001
,
0000
0010
0100
1000
0100
0010
0000
0100
,
1000
0100
0010
0001
0000
1000
0010
0100
,
0002
0000
1003
0020
0000
1030
0200
0000
,
0310
0001
0010
0000
0110
0000
0110
0000
,
1000
0000
0000
0001
0000
0000
0100
0000
0010
0000
0000
1000
0000
0000
0100
0000
,
0010
0000
0000
0001
0000
0000
0010
0000
0100
0000
0000
1000
0000
0000
0001
0000
,
0100
0000
0000
0001
0000
0000
1000
0000
0100
0000
0000
0010
0000
0000
0001
0000
,
0100
0010
1000
0000
0001
1000
0001
0000
,
0011
0011
1100
1100
,
0011
0011
1100
1100
,
0200
0000
0320
0000
0230
0000
0310
0001
,
0000
1000
0100
0000
0000
0000
0000
0110
,
0000
0100
1000
0001
0100
0000
0001
0000
,
1000
0100
0010
0000
0001
0100
0001
1000
,
0000
0001
0010
0000
0001
0100
0010
1000
,
0100
0010
0001
0000
1000
0100
1000
0100
,
0000
0010
0001
0000
0200
0000
0320
0000
,
0230
0000
0010
0310
0000
1000
0010
0100
,
0001
0000
1000
0010
1000
0000
0100
0010
,
0000
0010
0001
0000
1000
0100
0010
0002
,
0000
1000
1003
0000
0001
0010
0100
2000
,
0000
0001
3001
0000
0100
0010
1000
0001
,
0000
0100
0001
0100
0000
0001
0010
0001
,
0000
1000
0000
1000
0000
0100
1000
0001
,
0000
0001
1000
0000
0001
0100
0010
0100
,
0000
0001
0010
0100
0000
0100
1000
0000
,
1010
0000
1100
0000
1001
0000
0001
0001
,
1000
0000
0010
0100
0010
0100
0002
0010
,
0000
0013
0001
0000
1000
0000
0110
0000
,
0100
0000
0001
0000
0010
0100
1000
0100
,
0000
0100
1000
0001
0010
0001
0100
0010
,
1000
0000
0001
0000
0100
0010
1000
0100
,
0000
0100
0010
0000
0001
0000
1100
0000
,
0011
0000
1000
0010
0000
1000
0100
0020
,
0000
0031
1000
0020
0000
0130
0001
0020
,
0000
0031
0001
0010
0100
1000
0100
0010
,
0000
0010
0001
0000
0001
0010
0100
0010
,
0000
0010
0100
0000
1000
0010
1000
0100
,
0000
0010
0000
0110
0000
0001
0000
0011
,
0000
1000
0000
1000
0000
0001
0100
0001
,
0000
1000
1000
0000
0001
0010
0100
1000
,
0000
0010
0100
0010
0000
0100
0010
0000
,
1001
0000
0110
0000
1001
0000
1000
0100
,
0010
0000
0000
0000
0000
0000
0000
0002
,
0000
0013
0100
1000
0100
0000
0000
0000
;

//---------------dance-single - Huzure----------------
#NOTES:
     dance-single:
     Huzure:
     Easy:
     6:
     0.462,0.414,0.089,0.189,0.000:
0000
0000
0000
0000
,
0000
0000
0000
0000
,
0000
0000
0000
0000
,
0000
0000
0000
0000
0000
0000
0000
1100
,
0000
1000
1000
1000
,
1000
1000
1000
1000
,
1000
0000
1000
0000
1000
0000
1000
0001
,
0000
0000
0000
0000
0000
0000
0000
1001
,
0000
0000
1000
0000
0100
0010
0000
0001
,
0000
0000
0010
0000
0100
1000
0000
0001
,
0000
0000
0100
0000
0010
0100
0000
0001
,
0000
0000
1000
0000
0100
1000
0000
0001
,
0000
0000
0010
0000
0100
0010
0000
0001
,
0000
0000
1000
0000
0010
0100
0000
0001
,
0000
0000
0010
0000
0001
0100
0000
0010
,
0000
0000
1000
0000
0100
0010
0000
0000
,
0002
0000
0000
0000
,
2003
0000
3000
0000
,
0001
1000
0100
1000
,
0001
0010
0100
1000
,
0010
0100
0010
0100
,
0001
1000
0100
0010
,
0001
0100
0001
0100
,
0010
1000
0010
1000
,
0002
0000
0000
2003
0000
0000
0010
0000
,
0000
0000
0001
0000
3001
1000
0000
1001
,
0000
0001
1000
0000
0100
0000
0010
0000
,
0001
1000
0010
0200
,
0310
1000
0100
0010
,
0001
0010
0100
2000
,
3001
0010
0100
0010
,
0100
1000
0001
0100
,
0001
0000
0000
0001
0000
0000
0001
0000
,
0000
1000
1001
1001
,
0001
2000
0010
0100
,
0010
0100
0001
0100
,
0001
0100
0010
0100
,
3001
1000
0100
0010
,
0002
0100
1000
0100
,
0010
0100
0010
0100
,
1003
0000
0001
0000
1000
0000
0000
0110
,
0000
0001
1000
0000
0000
0000
0000
1001
,
0000
0001
0010
0100
,
1000
0000
0001
0000
0100
0001
0000
0200
,
0000
0301
1000
0100
,
0010
0000
0100
0000
1000
0001
0000
0200
,
0000
0310
0100
0001
,
0100
0000
0010
0100
0000
0000
0001
0000
,
1000
0000
0100
0000
1000
0000
0001
2000
,
0000
0000
3010
0000
0100
0000
0001
1000
,
0000
0000
0010
0000
1000
0000
0001
0100
,
0000
0000
0010
0000
1000
0000
0100
0010
,
0000
0010
0000
0001
0000
0001
0000
1000
,
0000
1000
0000
0100
0000
0100
0000
0100
,
0000
0000
1000
0000
0001
0000
1000
0100
,
0000
0010
0000
0001
0000
1000
0000
0000
,
0001
0100
0002
0000
,
1003
0000
0000
0000
0100
0010
0000
1001
,
0000
0001
1000
0100
,
0010
0000
0100
0000
1000
0001
0000
0020
,
0000
0130
0010
0001
,
1000
0000
0100
0000
1000
0001
0000
0020
,
0000
0031
0100
0001
,
0010
0000
0100
0010
0000
0000
0100
0000
,
0010
0000
0001
0000
1000
0000
0010
2000
,
0000
0000
3100
0000
1000
0000
0001
0010
,
0000
0000
0100
0000
0010
0000
0001
1000
,
0000
0000
0100
0000
0010
0000
0100
0010
,
0000
0001
0000
0010
0000
0100
0000
0010
,
0000
0001
0000
1000
0000
0100
2000
0000
,
3001
0000
1000
0000
0010
0000
0100
0010
,
0000
1000
0000
0100
0000
1000
0000
0000
,
0100
0010
0020
0000
,
0031
0000
0000
0000
0000
0000
0000
1000
,
0000
0001
0100
0001
0100
0000
0000
0000
;

//---------------dance-single - Huzure----------------
#NOTES:
     dance-single:
     Huzure:
     Beginner:
     3:
     0.287,0.414,0.078,0.178,0.000:
0000
0000
0000
0000
,
0000
0000
0000
0000
,
0000
0000
0000
0000
,
0000
0000
0000
0000
0000
0000
0000
2002
,
0000
0000
0000
0000
,
0000
0000
0000
0000
,
0000
0000
0000
0000
0000
0000
3003
0110
,
0000
0000
0000
0000
0000
0000
0000
1000
,
0000
0000
0001
0000
0000
0000
0000
0100
,
0000
0000
0010
0000
1000
0000
0000
0010
,
0000
0000
0100
0000
0000
0000
0000
0001
,
0000
0000
0010
0000
0100
0000
0000
1000
,
0000
0000
0010
0000
0000
0000
0000
0100
,
0000
0000
0001
0000
1000
0000
0000
0001
,
0000
0000
0010
0000
0000
0000
0000
0100
,
0000
1000
0000
1000
,
0002
0000
0000
0000
,
0023
0000
0030
0000
,
0100
0000
0100
0000
,
1000
0000
0100
0000
,
0010
0000
0010
0000
,
0001
0000
0010
0000
,
0100
0000
1000
0000
,
0100
0000
1000
0000
,
0001
0000
0000
0001
0000
0000
0001
0000
,
1000
0000
0000
0000
0000
0010
0000
0100
,
0000
0001
0000
0001
,
0000
1000
0000
0100
,
0010
0001
0000
1000
,
0000
0000
0001
0000
0000
0000
0010
0100
,
0000
1000
0000
0010
,
0000
1000
0000
0001
,
0200
0000
0000
0320
0000
0000
0230
0000
,
0300
0001
1000
0001
,
2000
0000
0010
3000
,
0002
0000
0100
0003
,
2000
0000
0100
3000
,
0002
0000
0010
0003
,
1000
0001
1000
0001
,
1000
0000
0001
0000
,
0100
0000
0010
0000
0100
0000
0000
0010
,
0000
0100
0010
0000
0000
0000
0000
1010
,
0000
1000
0000
0010
,
0000
1000
0000
0010
,
0100
0001
0000
0010
,
0000
0001
0000
1000
,
0100
0010
0000
0100
,
0000
1000
0000
0001
,
0100
0010
0000
1000
,
0000
0000
0001
0000
0000
0000
0000
1001
,
0000
0000
1100
0000
0100
0000
0000
0011
,
0000
0000
0101
0000
0100
0000
0000
0001
,
0000
0000
0000
1000
0000
0000
0000
0001
,
0000
0000
0000
1000
0000
0000
0000
0020
,
0000
0130
0000
0010
,
0000
0100
0000
0001
,
1000
0100
2000
0000
,
3001
0000
0000
0000
0000
1000
0000
0020
,
0000
0130
0000
0001
,
0000
0100
0000
0001
,
0000
1000
0000
0010
,
0000
0000
1000
0000
0000
0000
0010
0100
,
0000
0010
0000
1000
,
0000
0000
0001
0000
0000
0000
0000
0010
,
0000
0000
0000
0010
0000
0000
0000
0100
,
0000
0000
0000
0100
0000
0000
0000
1000
,
0000
0100
0010
0000
0000
0000
0000
0001
,
0000
0010
0100
0000
0000
0000
0000
1000
,
0000
0000
0000
0010
0000
0000
0000
0100
,
0000
0000
0000
0001
0000
0000
0000
1000
,
0000
0001
0000
0010
,
0000
0100
0000
1000
,
0001
0010
0002
0000
,
1003
0000
0000
0000
0000
0000
0000
0020
,
0000
0000
0030
0000
;
