#TITLE:No differences;
#SUBTITLE:アルドノア・ゼロ;
#ARTIST:AIMEE BLACKSCHLEGER;
#TITLETRANSLIT:No Differences;
#SUBTITLETRANSLIT:Aldnoah.Zero;
#ARTISTTRANSLIT:Aimee Blackschleger;
#GENRE:Anime;
#CREDIT:Itsugo;
#MENUCOLOR:;
#BANNER:No differences-bn.jpg;
#BACKGROUND:No differences-bg.jpg;
#LYRICSPATH:No differences.lrc;
#CDTITLE:Itsugo15 8x1.png;
#MUSIC:no differences.mp3;
#OFFSET:-0.470;
#SAMPLESTART:75.360;
#SAMPLELENGTH:30.000;
#SELECTABLE:YES;
#LISTSORT:;
#BPMS:0.000=128.000;
#STOPS:;
#TICKCOUNT:0.000=6;
#BGCHANGES:0.000=No differences-bg1.jpg=1.000=1=1=0,
32.000=No differences-bg2.png=1.000=1=1=0,
64.000=No differences-bg3.png=1.000=1=1=0,
96.000=No differences-bg4.jpg=1.000=1=1=0,
128.000=No differences-bg5.jpg=1.000=1=1=0,
144.000=No differences-bg6.jpg=1.000=1=1=0,
160.000=No differences-bg7.jpg=1.000=1=1=0,
176.000=No differences-bg8.jpg=1.000=1=1=0,
192.000=No differences-bg9.jpg=1.000=1=1=0,
208.000=No differences-bg11.jpg=1.000=1=1=0,
224.000=No differences-bg10.png=1.000=1=1=0,
240.000=No differences-bg12.jpg=1.000=1=1=0,
256.000=No differences-bg.jpg=1.000=1=1=0,
99999=-nosongbg-=1.000=0=0=0 // don't automatically add -songbackground-
;
#KEYSOUNDS:;
#ATTACKS:;

//---------------dance-single - Itsugo----------------
#NOTES:
     dance-single:
     Itsugo:
     Beginner:
     2:
     0.130,0.152,0.056,0.024,0.000:
0000
0000
0000
0000
,
0000
0000
0000
0000
,
0000
0000
0000
0000
,
0000
0000
0000
0000
,
1000
0000
0000
0000
,
1000
0000
0000
0000
,
0001
0000
0000
0000
,
0001
0000
0000
0000
,
0010
0000
0100
0000
,
1000
0000
0001
0000
,
0100
0000
0010
0000
,
1000
0000
0001
0000
,
0010
0000
0100
0000
,
1000
0000
0001
0000
,
0100
0000
0010
0000
,
1000
0000
0001
0000
,
1001
0000
0001
0000
,
0010
0000
0100
0000
,
1000
0000
0001
0000
,
0010
0000
0100
0000
,
1000
0000
0001
0000
,
0100
0000
0010
0000
,
1000
0000
0100
0000
,
0010
0000
0001
0000
,
0011
0000
0001
0000
,
0001
0000
1000
0000
,
1000
0000
0010
0000
,
0010
0000
0100
0000
,
0100
0000
0001
0000
,
0001
0000
1000
0000
,
1000
0000
0100
0000
,
0100
0000
0010
0000
,
0110
0000
0010
0000
,
0001
0000
0001
0000
,
1000
0000
1000
0000
,
0010
0000
0010
0000
,
0200
0000
0000
0000
,
0302
0000
0000
0000
,
2003
0000
0000
0000
,
3000
0000
0000
0000
,
0001
0000
0010
0000
,
0100
0000
1000
0000
,
0010
0000
0100
0000
,
0001
0000
1000
0000
,
1001
0000
1000
0000
,
0100
0000
0010
0000
,
0001
0000
1000
0000
,
0010
0000
0100
0000
,
0110
0000
0010
0000
,
1000
0000
0001
0000
,
0010
0000
0100
0000
,
1000
0000
0001
0000
,
1001
0000
0001
0000
,
0100
0000
0010
0000
,
1000
0000
0001
0000
,
0010
0000
0100
0000
,
0110
0000
0000
0000
,
0010
0000
0000
0000
,
0001
0000
0000
0000
,
1000
0000
0000
0000
,
0010
0000
0000
0000
,
0100
0000
0000
0000
,
0001
0000
0000
0000
,
1000
0000
0000
0000
;

//---------------dance-single - Itsugo----------------
#NOTES:
     dance-single:
     Itsugo:
     Challenge:
     8:
     0.601,0.619,0.387,0.145,0.056: // measure 1
0000
0000
0000
0000
,  // measure 2
0000
0000
0000
0000
,  // measure 3
0000
0000
0000
0000
,  // measure 4
0000
0000
0000
0000
,  // measure 5
0100
1000
0010
0100
0001
0010
0100
1000
,  // measure 6
0100
1000
0010
0100
0001
0010
0100
1000
,  // measure 7
0100
1000
0010
0100
0001
0010
0100
1000
,  // measure 8
0100
1000
0010
0100
0001
0010
0100
1000
,  // measure 9
1100
1000
0100
0100
0010
0100
1000
1000
,  // measure 10
0100
0010
0100
0100
1000
0100
0010
0010
,  // measure 11
0001
0010
0100
0100
0010
0001
0010
0010
,  // measure 12
0100
0010
0001
0001
0010
0100
0010
0010
,  // measure 13
0001
1000
0010
0010
1000
0001
0010
0010
,  // measure 14
0001
1000
0100
0100
1000
0001
0100
0100
,  // measure 15
0010
0100
0001
0001
0100
0010
0001
0001
,  // measure 16
0010
0000
0100
0000
1000
0000
1000
0000
0100
0000
0010
1000
0001
1000
0100
0000
,  // measure 17
1100
1000
0100
1000
0010
0100
0010
1000
,  // measure 18
1010
0010
1000
0010
0001
0010
0100
0001
,  // measure 19
0101
0001
0100
0001
1000
0100
0010
0001
,  // measure 20
0011
0010
0001
0010
1000
0010
0001
1000
,  // measure 21
1001
0001
0100
1000
0100
0010
1000
0001
,  // measure 22
1001
1000
0100
0001
0100
0010
0001
1000
,  // measure 23
1002
1000
1000
1000
1000
1000
1000
1003
,  // measure 24
2001
0001
0001
0001
0001
0001
0001
3001
,  // measure 25
1002
0000
0010
0000
1000
0000
0013
0001
,  // measure 26
2000
0000
0010
0000
0001
0000
3010
1000
,  // measure 27
0200
0000
0001
0000
1000
0000
0301
0100
,  // measure 28
0020
0000
0001
0000
1000
0000
0031
1000
,  // measure 29
0020
0000
1000
0000
0000
0001
0000
1030
,  // measure 30
0200
0000
1000
0000
0001
0000
0000
0310
,  // measure 31
0002
0000
1000
0000
0000
0010
0000
1003
,  // measure 32
2000
0000
0001
0000
0010
0000
0000
3001
,  // measure 33
1001
1000
0010
0100
0010
1000
0100
0010
,  // measure 34
1000
0010
0100
0110
0010
0001
0100
0010
,  // measure 35
0110
0100
0001
0010
0100
0001
0100
0010
,  // measure 36
0001
0010
0100
0110
0010
0001
1000
0100
,  // measure 37
1200
1000
1000
1000
1000
1000
1000
1300
,  // measure 38
2001
0001
0001
0001
0001
0001
0001
3001
,  // measure 39
0102
0100
0100
0100
0100
0100
0100
0100
,  // measure 40
0203
0000
0000
0000
0020
0000
M33M
0MM0
,  // measure 41
1010
1000
1001
0001
1000
0100
1100
1000
,  // measure 42
0100
0010
0110
0100
1000
0010
1010
0010
,  // measure 43
0100
0001
0101
0100
0001
0010
0011
0001
,  // measure 44
1000
0000
0100
0000
1100
0000
1000
0000
0001
0000
0100
0000
0101
0000
0100
0010
,  // measure 45
1000
0001
0101
0100
0001
0010
0011
0001
,  // measure 46
1000
0100
1100
1000
0001
0100
0101
0001
,  // measure 47
1000
0010
1010
1000
0001
0010
0011
0001
,  // measure 48
1000
0000
0100
0000
1100
0000
0100
0000
0010
0000
0110
0000
0010
0001
0010
0100
,  // measure 49
1000
0001
1001
1000
0001
0010
0011
0001
,  // measure 50
0010
0100
0110
0010
0001
0100
0101
0100
,  // measure 51
0010
1000
1010
0010
1000
0100
1100
1000
,  // measure 52
0001
0000
0010
0000
0011
0000
0001
0000
1000
0000
0010
0000
1010
0000
1000
0001
,  // measure 53
1000
000M
M000
0000
1100
0000
0100
0000
1000
0000
0001
0000
1001
0000
1000
0000
,  // measure 54
0001
0010
0011
0001
1000
0010
1010
1000
,  // measure 55
0001
0000
0100
0000
0101
0000
0001
0000
1000
0000
0100
0000
1100
0000
1000
0100
,  // measure 56
0000
0010
0001
1000
0010
0000
0100
0000
0001
1000
0000
1000
0001
0010
0100
1000
,  // measure 57
0001
0100
0001
0001
0100
0001
0100
0100
,  // measure 58
0010
1000
0010
0010
1000
0010
1000
1000
,  // measure 59
0001
0010
0001
0001
0010
0001
0010
0010
,  // measure 60
0100
1000
0100
0100
1000
0100
1000
1000
,  // measure 61
0001
0100
0010
0010
1000
0010
0100
0100
,  // measure 62
0001
1000
0100
0100
1000
0001
0010
0010
,  // measure 63
0100
1000
0001
0001
0100
0010
1000
1000
,  // measure 64
0001
0010
0100
1000
0100
0020
0002
2000
,  // measure 65
3033
0000
0000
0000
;

//---------------dance-single - Itsugo----------------
#NOTES:
     dance-single:
     Itsugo:
     Hard:
     7:
     0.491,0.542,0.097,0.613,0.032:
0000
0000
0000
0000
,
0000
0000
0000
0000
,
0000
0000
0000
0000
,
0000
0000
0000
0000
,
1000
0010
0100
0010
1000
0010
0100
0010
,
1000
0001
0010
0001
1000
0001
0010
0001
,
1000
0100
0010
0100
1000
0100
0010
0100
,
1000
0001
0100
0001
1000
0001
0010
0100
,
0110
0010
0001
1000
0010
0100
0001
2000
,
0000
3100
1000
0002
0000
0103
0010
1000
,
0001
0010
0100
1000
0100
0010
0001
2000
,
0000
3010
0100
0002
0000
1003
0100
1000
,
0001
0010
0100
2000
0000
3001
0100
0020
,
0000
1030
0001
0020
0000
0130
1000
0100
,
0001
0100
0010
0002
0000
1003
0010
0200
,
0000
0301
0100
0010
1000
0001
0010
0100
,
0110
0100
1000
0001
0100
0010
1000
0002
,
0010
0013
0001
2000
0010
3010
0100
0001
,
1000
0100
0010
0001
0010
0100
1000
0002
,
0100
0103
0010
2000
0001
3001
0010
0001
,
1000
0100
0010
0002
1000
1003
0010
0200
,
0001
0301
1000
0200
0010
0310
0001
0010
,
1000
0010
0100
2000
0001
3001
0100
0020
,
1000
1030
0010
0100
0001
1000
0100
0010
,
0002
0000
1000
0000
1003
0000
1000
0001
,
2000
0000
0001
0000
3001
0000
0001
1000
,
0002
0000
0010
0000
1003
0000
1000
0001
,
2000
0000
0010
0000
3001
0000
0001
1000
,
0002
0000
0010
0000
0000
1003
0000
0000
,
2000
0010
3010
1000
,
0002
0000
0100
0000
0000
1003
0000
0000
,
2000
0100
3100
0001
,
1001
0000
0001
0100
0020
0000
1030
0002
,
0010
0000
0013
0011
0000
0001
1000
0010
,
2010
0000
3001
0020
0000
0130
2000
0000
,
3100
0010
0002
0000
1003
0000
0010
0100
,
0004
0000
0000
0000
,
4003
0000
0000
0000
,
3400
0000
0000
0000
,
0320
0000
0000
0000
0002
0000
0000
0033
,
0011
0001
2000
0000
0010
0000
3100
2100
,
0000
0000
0100
0000
3100
2000
0000
3001
,
0100
0010
2000
0000
0010
0000
3001
1002
,
0000
0000
1003
0000
0200
0000
0020
0330
,
0110
0000
0010
0002
0000
2003
0000
3020
,
0000
0130
0002
0000
1003
0000
0001
0010
,
0100
0000
1000
0020
0000
0130
0001
2000
,
0000
0000
3100
0000
0010
0000
0001
0000
0010
0000
0100
0000
1000
0100
1000
0100
,
1000
0100
2000
0000
0010
0000
3001
1002
,
0000
0000
0100
0000
0103
0002
0000
1003
,
0100
0010
0002
0000
0010
0000
1003
2001
,
0000
0000
3001
0200
0000
0320
0000
1030
,
1010
0000
1000
0000
0002
0000
0013
0200
,
0000
1300
0002
0000
0103
0010
1000
0001
,
0020
0000
0000
0000
1030
0000
0020
0000
0000
0000
0031
0000
1000
0000
0001
1000
,
0000
1000
0001
0000
0010
0000
0100
0000
1000
0100
0000
0010
0001
0010
0001
0010
,
0002
1000
1000
1000
,
2003
0010
0010
0010
,
3020
0100
0100
0100
,
0230
0001
0001
0001
,
0302
0023
0230
2300
,
3001
0100
0010
1000
,
0002
0023
0230
2300
,
3100
0010
0002
2000
,
3003
0000
0000
0000
;

//---------------dance-single - Itsugo----------------
#NOTES:
     dance-single:
     Itsugo:
     Medium:
     6:
     0.385,0.464,0.073,0.105,0.000:
0000
0000
0000
0000
,
0000
0000
0000
0000
,
0000
0000
0000
0000
,
0000
0000
0000
0000
,
1000
0010
0100
0001
,
1000
0010
0100
0001
,
1000
0010
0100
0001
,
1000
0010
0100
0001
,
0101
0100
0001
0100
0001
0100
0001
0100
,
0001
1000
0001
1000
0001
1000
0001
1000
,
0100
1000
0100
1000
0100
1000
0100
1000
,
0100
0010
0100
0010
0100
0010
0100
0010
,
0001
0010
0001
0010
0001
0010
0001
0010
,
0001
1000
0001
1000
0001
1000
0001
1000
,
0010
1000
0010
1000
0010
1000
0010
1000
,
0010
0100
0010
0100
0010
0100
0001
1000
,
1001
0001
1000
1000
0001
1000
0001
0001
,
1000
0010
1000
1000
0010
1000
0010
0010
,
0100
0010
0100
0100
0010
0100
0010
0010
,
0100
0001
0100
0100
0001
0100
0001
0001
,
1000
0001
1000
1000
0001
1000
0001
0001
,
1000
0100
1000
1000
0100
1000
0100
0100
,
0010
0100
0010
0010
0100
0010
0100
0100
,
0010
0001
0010
0010
0001
0010
0100
1000
,
1100
1000
1000
0001
,
1000
0001
0001
0200
,
0310
0100
0020
1030
,
0001
0010
0100
1000
,
0001
0001
0001
1000
,
0001
1000
1000
0020
,
0130
0010
0200
0301
,
1000
0100
0010
0001
,
0021
0001
0001
0001
,
0001
0001
0001
0031
,
0002
1000
1000
1000
,
1000
1000
1000
1003
,
2000
0000
3020
0000
,
0230
0000
0302
0000
,
2000
0000
0000
0000
,
3003
0000
0000
0000
,
1001
0000
1000
0000
0010
0000
0100
0001
,
0100
0010
1000
0001
,
0010
0000
0100
0000
1000
0000
0100
0010
,
0001
1000
0020
0130
,
0110
0000
0100
0001
0100
0000
0001
1000
,
0001
0000
1000
0100
1000
0000
0100
0010
,
0001
0000
0100
0010
1000
0000
0001
0010
,
0100
0000
1000
0100
0010
0001
1000
0001
,
1001
0000
0001
0000
0100
0000
0010
1000
,
0010
0100
0001
1000
,
0100
1000
0100
0000
0010
0001
0010
0000
,
0001
1000
0001
0000
1000
0000
0010
0000
,
1010
0010
1000
0001
,
0010
0100
1000
0001
,
0100
0010
1000
0100
,
0010
0001
0100
0010
1000
0010
0100
0001
,
0101
0001
0001
0001
,
1000
1000
1000
1000
,
0100
0100
0100
0100
,
0010
0010
0010
0010
,
0001
0100
0010
1000
,
0100
0010
0001
0010
,
0100
1000
0001
0100
,
0010
1000
0100
0020
,
0030
0000
0000
0000
;

//---------------dance-single - Itsugo----------------
#NOTES:
     dance-single:
     Itsugo:
     Easy:
     4:
     0.266,0.307,0.129,0.056,0.000:
0000
0000
0000
0000
,
0000
0000
0000
0000
,
0000
0000
0000
0000
,
0000
0000
0000
0000
,
1000
1000
1000
1000
,
0010
0010
0010
0010
,
0100
0100
0100
0100
,
0001
0001
0001
0001
,
0101
0001
1000
0100
,
0010
0100
1000
0001
,
0100
0010
1000
0001
,
0010
0100
1000
0100
,
0010
0001
0100
0010
,
1000
0001
0010
0100
,
1000
0100
0010
0001
,
1000
0010
0100
0001
,
0101
0100
0001
1000
,
0100
1000
0010
0100
,
0001
1000
0100
0010
,
0001
0100
0010
1000
,
0001
0010
0100
1000
,
0100
0010
0001
1000
,
0010
0100
0001
1000
,
0100
0010
0001
1000
,
1001
0001
0002
0000
,
1000
1003
0020
0000
,
0100
0130
0002
0000
,
1000
1003
0200
0000
,
0310
0000
0001
0000
0000
0001
0000
0000
,
1000
0010
0010
1000
,
0001
0000
0010
0000
0000
0001
0000
0000
,
1000
0010
0010
0100
,
0110
0100
0001
0010
,
0001
0000
0001
1000
0000
1000
0001
0000
,
1001
1000
0100
0010
,
0001
0000
1000
0010
0000
0100
0001
0000
,
2000
0000
0000
0000
,
3200
0000
0000
0000
,
0320
0000
0000
0000
,
0031
0000
0000
0000
,
0011
0001
1000
0010
,
1010
1000
0001
0100
,
0101
0001
1000
0100
,
1100
1000
0010
0100
,
0110
0010
0010
1000
,
1000
0001
0001
0010
,
0100
1000
0100
0010
,
0001
1000
0010
0100
,
0110
0010
0100
0001
,
0101
0001
1000
0010
,
1010
1000
0001
0010
,
0011
0001
0100
0010
,
0110
0100
0100
0001
,
0001
1000
1000
0100
,
0010
0001
0010
0100
,
1000
0001
0100
0010
,
0110
0000
0010
0000
,
1000
0000
1000
0000
,
0001
0000
0001
0000
,
0010
0000
0100
0000
,
1000
0000
0001
0000
,
0100
0000
0010
0000
,
1000
0000
0001
0000
,
0010
0000
0100
0000
;
