#TITLE:ナナヒツジ;
#SUBTITLE:すべてがFになる THE PERFECT INSIDER;
#ARTIST:シナリオアート;
#TITLETRANSLIT:Nana Hitsuji;
#SUBTITLETRANSLIT:Subete ga F ni Naru ~The Perfect Insider~;
#ARTISTTRANSLIT:Scenario Art;
#GENRE:Otaku's Dream 4th Mix (Pad);
#CREDIT:Itsugo15;
#BANNER:Nana Hitsuji-bn.png;
#BACKGROUND:Nana Hitsuji-bg.png;
#JACKET:Nana Hitsuji-Jacket.png;
#LYRICSPATH:Nana Hitsuji.lrc;
#CDTITLE:Itsugo15 SimifileS.png;
#MUSIC:Nana Hitsuji.mp3;
#OFFSET:-0.758;
#SAMPLESTART:36.110;
#SAMPLELENGTH:30.000;
#SELECTABLE:YES;
#LISTSORT:;
#DISPLAYBPM:190.000;
#BPMS:0.000=190.000,144.000=95.000,158.000=190.000,185.000=95.000,189.000=190.000;
#STOPS:;
#TICKCOUNT:0.000=6;
#BGCHANGES:-2.020=Nana Hitsuji.avi=1.000=1=1=0,
262.000=Nana Hitsuji-bg.png=1.000=1=0=1,
99999=-nosongbg-=1.000=0=0=0 // don't automatically add -songbackground-
;
#KEYSOUNDS:;
#ATTACKS:;

//---------------dance-single - Itsugo15----------------
#NOTES:
     dance-single:
     Itsugo15:
     Beginner:
     2:
     0.066,0.213,0.033,0.022,0.000:
0000
0000
0000
0000
,
0000
0000
0000
0000
,
0000
0000
0000
0000
,
0000
1000
0000
0000
,
0000
0000
0000
0000
,
0001
0000
0000
0000
,
0000
0000
0000
0010
,
0000
0000
0000
0000
,
0000
0000
0100
0000
,
0000
0000
0000
0000
,
0000
1000
0000
0000
,
0000
0000
0000
0000
,
0001
0000
0000
0000
,
0000
0000
0000
0001
,
0000
0000
0000
0000
,
0000
0000
0100
0000
,
0000
0000
0000
0000
,
0000
0100
0000
0000
,
0000
0000
0000
0000
,
0010
0000
0000
0000
,
0000
0000
0000
0010
,
0000
0000
0000
0000
,
0000
0000
1000
0000
,
0000
0000
0000
0000
,
0000
1000
0000
0000
,
0000
0000
0000
0001
,
0000
0000
0000
0000
,
0000
0000
0000
0000
,
1001
0000
0000
0000
,
0000
0000
0000
0000
,
0001
0000
0000
0000
,
0000
0000
0000
0000
,
0100
0000
0000
0000
,
0000
0000
0000
0000
,
0010
0000
0000
0000
,
0000
0000
0000
0000
,
1000
0000
0000
0000
0000
0000
0000
0001
,
0000
0000
0000
0010
,
0000
0000
0000
0000
0000
0100
0000
0000
,
0000
0000
1000
0000
,
0000
0000
0000
0000
,
0000
1000
0000
0000
,
0000
0000
0000
0000
,
0001
0000
0000
0000
,
0000
0000
0000
0001
,
0000
0000
0000
0000
,
0000
2002
0000
0000
,
3003
1001
0000
0000
,
0000
0000
0000
0000
,
0000
0001
0000
0000
,
0000
0000
0000
0000
,
0000
0100
0000
0000
,
0000
0000
0000
0000
,
0000
0010
0000
0000
,
0000
0000
0000
0000
,
0000
1000
0000
0000
,
0000
0000
0000
0000
,
0000
0001
0000
0000
,
0000
0000
0000
0000
,
0000
0010
0000
0000
,
0000
0000
0000
0000
,
0000
0100
0000
0000
,
0000
0000
0000
0000
,
0000
1000
0000
0000
,
0000
0001
0000
0000
0000
0000
0000
0000
;

//---------------dance-single - Itsugo15----------------
#NOTES:
     dance-single:
     Itsugo15:
     Easy:
     4:
     0.131,0.180,0.022,0.066,0.000:
0000
0000
0000
0000
,
0000
0000
0000
0000
,
0000
0000
0000
0000
,
0000
1000
0000
0000
,
0000
0001
0000
0000
0000
0000
0000
0000
,
0100
0000
0000
0000
0000
0000
0000
0010
,
0000
0000
0000
1000
,
0000
0000
0000
0000
0000
0001
0000
0000
,
0000
0000
0010
0000
,
0000
0000
0000
0100
0000
0000
0000
0000
,
0000
2000
0000
0000
,
3000
0000
0000
0000
,
1001
0000
0000
0001
,
0000
0000
0000
0100
,
0000
0000
0010
0000
,
0000
0000
1000
0000
,
0000
0001
0000
0000
,
0000
0010
0000
0000
,
0100
0000
0000
0000
,
1000
0000
0000
0100
,
0000
0000
0000
0010
,
0000
0000
0001
0000
,
0000
0000
1000
0000
,
0000
0010
0000
0000
,
0000
0100
0000
0000
,
0001
0000
0000
2000
,
0000
0000
0000
0000
,
0000
0000
3002
0003
,
1001
0000
0000
0000
,
0001
0000
0000
0000
,
0100
0000
0000
0000
,
0010
0000
0000
0000
,
1000
0000
0000
0000
,
0001
0000
0000
0000
,
0010
0000
0000
0000
,
0100
0000
0000
0000
,
1000
0000
0000
1000
0000
0000
0000
0001
,
0000
0001
0000
0100
,
0000
0100
0000
0000
0000
0010
0000
0000
,
0010
0000
1000
0000
,
0000
0001
0000
0000
,
0000
0010
0000
0000
,
0100
0000
0000
0000
,
1000
0000
0000
0001
,
0000
0000
0000
0100
,
0000
0000
0010
0000
,
1000
0002
0000
0000
,
0000
2003
0000
0001
,
0000
0001
0000
3001
,
0000
1000
0000
0000
,
0010
0000
0000
0000
0000
0100
0000
0000
,
0000
0001
0000
0000
,
1000
0000
0000
0000
,
0000
0100
0000
0000
,
0010
0000
0000
0000
,
0000
0001
0000
0000
,
0000
1000
0000
0000
,
0000
0010
0000
0000
,
0000
0100
0000
0000
,
0000
0001
0000
0000
,
0000
1000
0000
0000
,
0000
0100
0000
0000
,
0000
0010
0000
0000
,
0000
0001
0000
1000
,
0000
0020
0000
0000
0000
0000
0000
0000
,
0030
0000
0000
0000
;

//---------------dance-single - Itsugo15----------------
#NOTES:
     dance-single:
     Itsugo15:
     Medium:
     6:
     0.320,0.396,0.066,0.100,0.011:
0000
0000
0000
0000
,
0000
0000
0000
0000
,
0000
0000
0000
0000
,
0000
0000
1000
0000
0000
0010
0000
0000
,
0000
0100
0000
0000
0000
0100
0000
0000
,
0001
0000
0000
0010
0000
0000
0000
0100
,
0000
0000
0000
0100
0000
0000
1000
0000
,
0000
0001
0000
0000
0000
0100
0000
0000
,
0000
0100
0000
0000
0001
0000
0000
1000
,
0000
0000
0000
0100
0000
0000
0000
0100
,
0000
2000
0000
0001
,
0000
0000
0000
3001
,
1001
0000
0000
0001
0000
0000
0100
0000
,
0000
0010
0000
0000
1000
0000
0100
0000
,
0000
0010
0000
0000
0010
0000
0000
0001
,
0000
0000
1000
0000
0010
0000
0000
0100
,
0000
0000
0001
0000
0000
1000
0000
0000
,
0100
0000
0010
0000
0000
0001
0000
0000
,
0200
0000
0000
0010
0000
0000
0310
0000
,
1000
0000
0000
0001
0000
0000
0010
0000
,
0000
0100
0000
0000
1000
0000
0100
0000
,
0000
0010
0000
0000
0001
0000
0000
1000
,
0000
0000
0010
0000
0200
0000
0000
0001
,
0000
0000
0301
0000
0000
1000
0000
0000
,
0100
0000
0010
0000
0000
0001
0000
0000
,
1000
0000
0000
0010
0000
0000
0200
0000
,
0000
0000
0000
0000
,
0000
0000
0020
0330
,
1001
0000
0001
0000
,
0010
0000
0010
0000
,
0100
0000
1000
0000
,
0001
0000
0100
0000
,
0010
0000
0010
0000
,
1000
0000
0100
0000
,
0010
0000
0001
0000
,
0010
0000
0100
0000
,
1000
1000
1000
0001
0000
0000
0000
0001
,
0001
0001
0100
0000
0000
0000
0100
0100
,
0100
0010
0000
0000
0000
0010
0010
0010
,
1000
0000
1000
1000
,
0001
0010
0100
1000
,
0001
0100
0010
1000
,
0100
0010
0001
1000
,
0010
0010
0100
0001
,
1000
0100
0010
0001
,
0100
0010
1000
0001
,
0010
0000
0000
0000
0200
0000
0000
1000
0000
0000
1000
0000
1000
0000
0000
1000
,
0000
1000
2300
0000
0000
0000
0001
0000
,
0000
0001
0000
3001
,
0000
0000
1001
0000
0000
0101
0000
0000
,
1010
0000
1000
0001
0000
0020
0000
0000
,
0030
0000
0001
0000
0000
0100
0000
0000
,
0010
0000
0000
1000
0000
0100
0010
0000
,
0001
0000
1000
0000
0000
0010
0000
0000
,
0100
0000
0000
0001
0000
1000
0100
0000
,
0010
0110
0100
0100
,
0100
1000
1000
1000
,
1000
0001
0100
0010
,
1000
0001
0010
0100
,
1000
0001
0100
0001
,
1000
0100
1000
0010
,
0100
0001
1000
0100
,
0010
0001
1000
0010
,
0100
0000
0001
0100
0000
0010
1000
0000
,
0100
0020
0000
0000
0000
0000
0000
0000
,
0030
0000
0000
0000
;

//---------------dance-single - Itsugo15----------------
#NOTES:
     dance-single:
     Itsugo15:
     Hard:
     8:
     0.609,0.936,0.643,0.188,0.072:
0000
0000
0000
0000
,
0000
0000
0000
0000
,
0000
0000
0000
0000
,
0000
0000
1000
0100
0000
0010
0000
0110
,
0000
0100
0000
1000
0000
0001
0010
0000
,
0100
1000
0000
0001
0000
1001
0000
1000
,
0000
0010
0000
0100
0001
0000
1000
0100
,
0000
0010
0000
0110
0000
0010
0000
0001
,
0000
0100
0010
0000
1000
0001
0000
0010
,
0000
0011
0000
0001
0000
0100
0000
0010
,
1000
0002
0000
1000
,
0000
1000
0000
0000
1003
0000
0001
0000
,
1001
0000
0001
0100
0000
0100
0010
0000
,
0110
1010
1000
1001
,
0001
0010
0000
0010
0100
0000
0110
0000
,
1100
0000
1000
0000
1001
0000
0001
0100
,
0000
0010
1000
0000
1010
0000
1000
0000
,
0001
0000
1001
0000
0001
0010
0000
0100
,
1000
1100
1000
0001
,
1001
1000
0010
0100
0000
0010
1000
0000
,
1000
0001
0000
0001
0010
0000
0011
0001
,
1000
0010
0000
0100
0001
0000
0001
1000
,
0000
1000
0100
0000
1100
0000
0000
1000
,
0001
1001
0001
0100
,
0010
0000
0110
0000
0010
1000
0000
1000
,
0001
0010
0000
0100
0000
1000
0001
0100
,
0020
0000
0000
0000
,
0000
0000
0000
0000
0200
0000
0000
0330
,
0110
0100
0000
0002
0000
1000
0000
1003
,
0010
0200
0000
0001
0000
0301
0000
0100
,
0010
1000
0000
1010
0000
1001
0000
0011
,
0000
0110
0000
0010
0001
0100
0010
1000
,
1010
0000
0010
0100
0000
0001
1000
0000
,
0100
0010
0000
0010
0001
1000
0010
0100
,
0001
0000
1000
0100
0000
0010
0001
0000
,
0011
0000
0000
0000
1010
0000
0000
0000
1001
0000
0000
0001
0000
0000
1000
0000
,
0010
0100
0001
0101
0001
1000
0100
1100
,
1000
0001
1001
1000
0010
0100
0110
1010
,
1001
0000
0001
1000
0001
0000
1001
0000
0101
0000
1010
0000
0011
0000
1001
0000
,
1000
0001
1000
0000
1010
0000
0101
0000
1001
0000
0000
0000
1000
0000
0000
0000
,
0100
0020
0001
0100
,
0031
0011
0001
1000
,
0020
1000
0100
1030
,
1010
1000
0001
0020
,
1000
0001
1000
0032
,
1000
0010
1000
0100
,
0010
0000
0000
0000
0000
0000
0000
0000
1003
0001
1000
0001
1000
0000
0001
0000
0100
0000
0010
0000
1000
0000
0001
0000
0010
0000
0000
0000
0100
0000
1000
0000
,
0000
0100
0010
0000
1001
0000
0000
0000
0000
0000
0000
0000
1001
0000
0000
0000
,
0000
1001
0000
1001
,
0000
0000
1001
0000
1000
1010
0000
0001
,
0101
0000
0100
0010
2000
0002
0000
0000
,
0000
3003
1001
0000
0001
0100
0000
0010
,
1000
0001
0000
0010
0000
0100
1000
0000
,
0100
0010
0001
0000
1000
0010
0000
0100
,
0001
0000
1000
0100
0010
0001
0010
0100
,
1000
0100
1000
0100
1000
0000
0010
0000
0000
0000
0200
0000
0000
0000
0001
0000
,
0000
0301
1000
0200
0000
0010
0000
0310
,
0000
0100
1000
0010
0000
1010
0000
1001
,
0000
0002
0000
0010
0000
0013
0001
1000
,
0010
0100
0110
0000
0100
0001
0000
1000
,
0100
0000
0010
0001
0000
0010
0100
1000
,
0001
0100
0010
0000
1000
0001
0000
0010
,
0100
0110
1001
0210
,
0320
0000
1030
0001
0000
0010
0100
0000
,
1000
0002
0000
0000
0000
0000
0000
0000
,
0003
0000
0000
0000
;

//---------------dance-single - Itsugo15----------------
#NOTES:
     dance-single:
     Itsugo15:
     Challenge:
     10:
     0.784,1.000,1.000,0.532,0.177: // measure 1
0000
0000
0000
0000
,  // measure 2
0000
0000
0000
0000
,  // measure 3
0000
0000
0000
0000
,  // measure 4
0000
0000
1001
0101
0000
0100
0000
0110
,  // measure 5
0000
1010
0000
1001
0000
0001
0010
0000
,  // measure 6
0011
0110
0000
0100
0000
1100
0000
1001
,  // measure 7
0000
0101
0000
0010
1000
0000
1010
1001
,  // measure 8
0000
0001
0000
0011
0000
0110
0000
1100
,  // measure 9
0000
0001
0100
0000
0101
1001
0000
1100
,  // measure 10
0000
0110
0000
0011
0000
0001
0000
1000
,  // measure 11
0010
0000
0000
0000
0200
0000
0000
0000
0000
0000
0000
0000
0001
0000
0000
0001
,  // measure 12
0000
0000
0000
0000
0001
0000
0000
0000
0000
0000
0000
0000
0010
0000
0000
0000
0001
0000
0000
0000
0000
0000
0000
0001
0310
0000
0000
0000
0000
0000
0000
0000
,  // measure 13
0110
0000
0010
1000
0000
1000
0001
0010
,  // measure 14
0000
0011
0000
1001
1000
0000
1010
0000
,  // measure 15
0010
0100
0000
0100
0001
1000
0000
1001
,  // measure 16
0000
1100
0000
0011
0001
0000
1000
0010
,  // measure 17
0000
0100
0001
0010
0000
0011
0000
1100
,  // measure 18
0100
0000
0110
0000
0100
1000
0000
0001
,  // measure 19
0100
0000
0000
0000
0020
0000
0000
0000
0000
0000
0000
0000
1000
0000
0000
0000
1000
0100
0000
0000
0000
0000
0000
0000
0230
0000
0000
0000
0000
0000
0000
0000
,  // measure 20
0301
0001
1000
0100
0000
0010
2000
0000
,  // measure 21
3001
1000
0010
0100
1000
0000
1100
0100
,  // measure 22
1000
0001
0000
1000
1010
0000
0101
0001
,  // measure 23
0000
1001
1000
0000
1100
0000
0100
0010
,  // measure 24
0000
0010
0001
1000
0000
0010
0000
0100
,  // measure 25
0110
0000
0101
0000
0001
1000
0000
0100
,  // measure 26
0010
0110
0000
0011
0000
0001
1000
0010
,  // measure 27
0220
0000
0000
0000
,  // measure 28
0000
0000
0000
0000
0002
0000
0000
0333
,  // measure 29
0111
0100
0000
0101
0000
1001
0001
1000
,  // measure 30
0100
0010
0000
0110
0000
1100
0100
1000
,  // measure 31
0001
0100
0000
0101
0000
1010
0000
2001
,  // measure 32
0000
3002
1000
0003
0001
0010
0100
1000
,  // measure 33
0200
0000
0310
0002
0000
0103
2000
0000
,  // measure 34
3001
0020
0000
1030
0001
0010
0100
1000
,  // measure 35
1200
0000
0310
0002
0000
2003
0010
3000
,  // measure 36
1010
0000
0000
0000
0101
0000
0000
0000
1001
0000
0000
1000
0000
0000
0100
0000
,  // measure 37
1100
0100
0010
0110
0010
0001
0100
0101
,  // measure 38
0001
0000
0000
0000
1000
0000
0000
0000
1001
0000
0000
0000
0001
0000
0000
0000
0010
0000
0000
0000
0100
0000
0000
0000
0110
0000
0000
0000
0011
0000
0000
0001
,  // measure 39
1000
0000
0000
0000
1000
0000
0010
0000
0100
0000
0000
0000
0110
0000
0000
0000
0101
0000
0000
0000
1001
0000
0000
0000
1100
0000
0000
0010
0001
0000
0000
0000
,  // measure 40
0100
0010
1000
0000
1010
0000
0110
0000
0200
0000
0000
0000
0302
0000
0000
0000
,  // measure 41
0023
0230
0302
0023
,  // measure 42
0100
0230
2300
3020
,  // measure 43
0230
2300
0010
3020
,  // measure 44
0230
0302
2003
3200
,  // measure 45
0320
0032
2003
3020
,  // measure 46
0230
0302
2003
3200
,  // measure 47
0320
0000
0000
0000
0000
0000
0000
0000
0031
0010
0001
0010
0001
0000
1000
0010
0100
0001
0100
0010
1000
0000
0010
1000
0001
0000
1000
0001
0010
0000
0100
1000
,  // measure 48
0000
0001
0100
0010
1000
0000
0000
0000
1010
0000
0000
0000
0101
0000
0000
0000
0000
0000
0000
0000
1001
0000
0000
0000
0000
0000
0000
0000
1001
0000
0000
0000
,  // measure 49
0000
1001
0001
0010
0000
0011
0000
1100
,  // measure 50
0000
0001
0011
0000
1000
1100
0000
0001
,  // measure 51
0101
0000
1000
1010
0000
2002
0000
0000
,  // measure 52
3003
0000
1000
0001
0100
0010
0000
1000
,  // measure 53
0010
0100
0000
0110
0000
0100
0001
1000
,  // measure 54
1001
0001
0010
0100
1000
0001
0000
1000
,  // measure 55
0010
0000
0100
0000
0001
0000
0100
0000
0010
0000
1000
0000
0001
1000
0001
1000
,  // measure 56
0001
0100
0010
1000
0001
0000
0010
0000
0000
0000
0011
0000
0000
0000
0011
0000
,  // measure 57
0001
1000
0010
0100
0000
0110
0000
0110
,  // measure 58
0000
0101
0001
1000
0100
1100
0000
0110
,  // measure 59
0000
0011
0000
2001
0000
0001
3001
0100
,  // measure 60
0010
1000
1010
0000
1000
0001
0000
0001
,  // measure 61
0012
0000
1003
1000
0100
0010
0001
1000
,  // measure 62
0010
0000
1010
0000
1000
0001
0010
0100
,  // measure 63
1000
0000
0000
0000
1100
0000
0000
0000
1001
0000
0000
0000
0101
0000
0001
0100
,  // measure 64
0001
0100
0001
1000
0100
0000
0020
0000
0000
0000
0031
0000
2000
0000
0000
0000
,  // measure 65
3010
0002
0000
0000
0000
0000
0000
0000
,  // measure 66
0003
0000
0000
0000
;
