#TITLE:Mysterious Magic;
#SUBTITLE:フェアリーテイル;
#ARTIST:Do As Infinity;
#TITLETRANSLIT:Mysterious Magic;
#SUBTITLETRANSLIT:Fairy Tail;
#ARTISTTRANSLIT:Do As Infinity;
#GENRE:Anime;
#CREDIT:Huzure & Itsugo;
#BANNER:Mysterious-bn.png;
#BACKGROUND:Mysterious-bg.png;
#JACKET:Mysterious-Jacket.png;
#LYRICSPATH:Mysterious Magic.lrc;
#CDTITLE:Collab.png;
#MUSIC:Mysterious Magic.mp3;
#OFFSET:-0.166;
#SAMPLESTART:33.520;
#SAMPLELENGTH:25.380;
#SELECTABLE:YES;
#LISTSORT:;
#BPMS:0.000=151.600;
#STOPS:;
#TICKCOUNT:0.000=6;
#BGCHANGES:-0.250=Fairy Tail (2014) OP3.avi=1.000=1=0=0,
224.000=Mysterious-bg.png=1.000=1=0=0,
99999=-nosongbg-=1.000=0=0=0 // don't automatically add -songbackground-
;
#KEYSOUNDS:;
#ATTACKS:;

//---------------dance-single - Itsugo15----------------
#NOTES:
     dance-single:
     Itsugo15:
     Hard:
     8:
     0.645,0.580,0.688,0.599,0.061:
0000
0000
0000
0000
,
0100
1000
0000
0001
0100
0000
0010
2000
,
0000
0000
0010
0000
0010
0000
0010
3000
,
0010
1000
0000
0001
0010
0000
0100
2000
,
0000
0100
0010
3001
,
1001
0000
0001
0100
0010
0000
1000
0100
,
0020
0000
0032
0000
2003
0000
3010
0100
,
0000
0001
1000
0100
0010
0001
0010
0100
,
1000
0001
0100
0010
1000
1010
0000
0100
,
0001
0010
0100
0000
1000
0010
0100
0000
,
0002
0000
1003
0100
0020
0000
0130
2000
,
0000
0100
0001
3010
,
1000
0001
1000
0100
0010
0110
0000
0020
,
0001
0000
0001
0000
0001
0031
0010
0200
,
1000
0000
1000
0000
1000
1300
0010
0100
,
0002
0000
1003
0200
0000
0320
0000
0032
,
0000
1000
1003
0010
0100
0010
1000
0001
,
1001
2002
0000
3003
1000
0000
0100
0000
,
1100
2200
0000
3300
0100
0000
0010
0000
,
0110
0220
0000
0330
0010
0000
0001
0000
,
0011
0000
0010
0000
0001
0000
0100
0000
0001
0000
1000
0001
1000
0001
1000
0001
,
2000
0000
0200
0000
3000
1300
0001
0100
,
0000
0010
0000
1000
0000
0100
0010
0110
,
0000
0001
1000
1001
0000
0100
0010
0110
,
0000
0101
0000
2200
0000
3300
0220
0000
,
0330
0000
0020
1000
0030
0000
0200
1000
,
0300
0001
0100
0010
1000
0100
0010
0110
,
0000
0000
0200
0001
0300
0000
0020
0002
,
0030
0000
1000
0000
2003
0001
0001
3001
,
1001
0000
1000
1000
0010
0001
0010
2000
,
0000
3200
0000
0302
0000
0103
0100
0110
,
0000
0001
0001
1001
0000
0010
0010
0110
,
0000
0101
0000
1200
0000
2300
0001
3000
,
1001
1100
1010
0101
,
0011
0000
0000
0001
0000
0000
1000
0000
0000
0000
0010
0000
0100
0000
0000
0000
,
0101
0000
1100
0000
0101
0000
1000
0100
,
1100
0000
0100
0000
1000
0000
0010
0000
1000
0000
0001
1000
0001
1000
0001
1000
,
0002
0000
0020
0000
0003
0031
1000
0010
,
0000
0100
0000
0001
0000
1000
0100
0110
,
0000
0010
0001
1001
0000
1000
0010
0110
,
0000
0101
0000
2002
0000
3003
2200
0000
,
3300
0000
0200
0001
0300
0000
0020
0001
,
0030
1000
0010
0100
0001
0010
0100
0110
,
0000
0000
0020
1000
0030
0000
0200
2000
,
0300
0000
0001
0000
3002
1000
1000
1003
,
1001
0000
0001
0001
0100
1000
0001
0020
,
0000
2030
0000
3002
0000
0013
0100
1001
,
0000
0100
0010
1001
0000
0010
0100
1001
,
0000
0110
0000
2000
0000
3002
0010
0003
,
0011
1010
1001
1100
,
0101
0000
0000
0100
0000
0000
0001
0000
0000
0000
1000
0000
0100
0000
0000
0000
,
1100
1010
1001
1100
,
0110
1010
1001
0011
,
0110
0101
1001
1100
,
0110
0000
0000
0000
0010
0000
0001
0000
0010
0000
0100
1000
0100
1000
0100
1000
,
0001
0000
0000
0000
;

//---------------dance-single - Huzure----------------
#NOTES:
     dance-single:
     Huzure:
     Challenge:
     10:
     0.783,0.736,0.455,0.288,0.355:
0000
0000
0000
0000
,
2100
0100
3000
2100
0010
3000
2100
0001
,
0000
0000
0000
0000
3001
0000
1000
0100
0010
0001
1000
0100
0010
0001
0010
0100
,
1000
0011
0000
0001
1100
0000
2001
0010
,
3001
0000
1000
0100
0010
0100
0010
0001
1000
0100
1000
0001
0010
0001
0100
0010
,
1000
0100
0001
0100
1000
0000
0001
0010
,
1000
0000
0001
0100
1000
0100
0100
0010
,
0001
0100
1000
0100
0001
0100
1000
0100
,
0001
0010
0100
0010
0002
0200
0003
0310
,
0000
1000
0010
0100
0001
0000
0010
1000
,
0010
0000
0001
0100
0001
0000
1000
0001
,
0100
0010
1000
0001
0100
0010
1000
0001
,
0100
0010
1000
0001
0200
0002
0300
1003
,
0010
0000
0010
0000
0010
0000
0000
0000
1001
0000
0100
0010
1000
0000
0001
0000
,
0200
0000
2300
0000
3200
0000
0301
0100
0001
0000
1000
0000
0100
0000
0200
0000
,
0310
0000
0001
0000
1000
0000
0001
0000
0010
0000
0010
0100
1000
0000
0101
0000
,
0000
0000
0101
0000
1010
0000
0000
0010
0010
0000
0100
0010
1000
0100
1000
0001
,
0100
0100
0000
0000
0101
0000
1000
0000
,
0001
0001
0000
0000
1100
0000
0100
0000
,
1000
1000
0000
0000
0110
0000
1000
0000
,
0011
0000
0000
0000
0000
0000
0001
0000
0000
0000
0000
0000
1001
0000
0000
0000
0000
0000
1000
0000
0000
0000
0000
0000
0010
0000
0100
0000
0010
0000
0100
0000
0000
0000
0000
0000
0010
0000
0000
0100
0000
0000
0010
0000
0000
0100
0000
0000
,
0010
1000
0100
0001
0100
1000
0100
0020
,
0000
0000
0031
1000
0100
0000
1000
0000
0001
0000
0001
0000
0110
0000
0200
0000
,
0000
0301
1000
2000
0000
3020
1000
0100
,
0030
0101
0000
0100
0001
1000
0100
0010
,
0001
0100
1000
0001
0010
1000
0001
0020
,
0000
0130
0100
1000
1000
0010
0100
0001
,
1000
0000
0100
1000
0100
0000
0010
0100
0010
0000
0001
0010
0001
0000
1000
0001
,
1000
0000
0000
0000
0011
0000
0000
0000
0010
0001
0010
0001
1000
0001
1000
0001
,
0010
0010
0110
0100
1000
0001
0100
0200
,
0000
0301
1000
0100
0000
0001
0100
1000
,
0000
0001
0010
1000
0000
0010
0001
0010
,
0100
0000
1000
0000
1001
0000
0001
0000
0100
0000
0001
0000
0011
0000
0010
0001
,
0100
0000
0000
0000
0110
0000
0000
0000
0101
0000
0000
0000
0011
0000
1000
0100
,
1000
0000
0002
0103
0002
0103
0002
0003
,
1000
0000
0001
0000
1001
0000
1000
0000
0001
0000
0010
0001
0100
0010
0100
0001
,
1000
0100
0010
0100
0010
0100
1000
0001
0100
0001
0100
0001
1000
0100
0010
0001
,
1000
0001
0100
0010
1000
0100
1000
0001
,
0000
0101
0000
0110
0000
0010
1000
0100
,
0000
0100
0010
0001
0000
1100
0110
0011
,
0000
0002
0000
1003
0000
0100
0100
0100
,
0100
0000
0001
0100
1000
0100
0010
0001
,
1000
0010
0100
0000
0100
0001
0010
0000
,
0100
0000
1000
0100
1000
0000
0010
1000
0010
0000
0100
0001
0100
0000
0001
0010
,
0001
0000
0000
0000
0101
0000
0000
0000
0200
0000
0301
0100
0010
0100
0001
0100
,
0001
1000
0010
0100
0001
1000
0100
0010
,
0000
0021
0100
0031
0000
1001
0100
0010
,
0000
1001
0100
0010
0000
1001
0100
0010
,
0000
0000
0002
0000
1000
0000
0003
0000
0001
0100
0010
0000
0010
1000
0100
1000
,
0001
0000
0011
0000
1100
0100
0110
0010
,
0011
0000
0000
0000
1001
0000
0000
0000
1100
0000
0001
0010
0001
0000
1000
0000
,
0100
0000
0100
0000
0010
0000
0001
0100
0001
0000
1000
0001
0100
0000
0010
0100
,
0001
0100
1000
0100
0001
0100
1000
0100
,
0001
0010
1000
0010
0001
0010
1000
0010
,
0001
0000
1000
0001
1000
0000
0000
0000
0010
0100
0001
0100
0010
1000
0100
1000
,
0002
0003
0000
0000
;

//---------------dance-single - Huzure----------------
#NOTES:
     dance-single:
     Huzure:
     Medium:
     5:
     0.439,0.398,0.211,0.178,0.000:
0000
0000
0000
0000
,
1000
0001
0000
0100
0010
0000
1000
0002
,
0000
0000
0000
0000
,
0013
0100
0000
1000
0001
0000
0100
0020
,
0000
0000
0000
0000
,
1030
0001
0100
0001
,
1000
1100
0001
1100
,
1000
0100
0100
0100
,
0010
0000
0010
0000
0001
0100
0000
0110
,
0000
1000
0010
0000
0100
0000
0001
0000
,
1000
0100
1000
0001
,
0010
0100
0100
0100
,
0100
0000
0100
0000
1000
0001
0000
0110
,
0000
0100
0001
0100
0000
0020
0000
0000
,
2030
0000
3010
1000
0010
0000
0100
0000
,
0001
0000
1000
0100
0000
1000
0001
0100
,
0000
0100
0000
0010
0010
0000
1000
0000
,
0001
0001
0000
0000
1100
0000
0001
0000
,
1000
1000
0000
0000
0011
0000
0100
0000
,
0010
0010
0000
0000
0001
0000
1000
0000
,
0010
0000
0100
0000
0001
0100
0010
1000
,
0100
0010
0001
1000
,
0100
0000
0010
0000
0001
0100
0001
1000
,
0000
1000
0100
0010
0000
0010
0001
1000
,
0000
0002
0000
0203
0000
0000
0310
0000
,
1000
0000
0001
0100
0000
0000
0010
0100
,
0000
0001
2000
0000
0010
0000
3010
0000
,
0100
0000
0001
1000
0000
0000
0010
0100
,
0001
0000
1000
0000
0010
0100
0010
0100
,
0010
1000
0001
0100
,
0010
0000
1000
0000
0100
1000
0100
1000
,
0000
1000
0010
1000
0000
1000
0001
1000
,
0000
0002
0000
0023
0000
0000
0031
0000
,
0100
0100
0100
0011
,
1100
0010
0010
0101
,
1010
0000
0001
0000
1000
0001
1000
0000
,
0010
0000
0100
0000
0001
0000
0010
0001
,
0010
0100
0100
0100
,
1000
0000
0001
0000
0010
0001
0010
0100
,
0000
0100
1000
0100
0000
0100
0010
0100
,
0000
0021
0000
0001
0030
0001
1000
0000
,
0100
0000
0001
0100
0000
0000
1000
0200
,
0000
0000
1300
0000
0001
0100
0001
0000
,
1000
0000
0001
1000
0000
0000
0001
1000
,
0100
1000
0002
0203
,
0320
1000
0130
0001
,
1000
0000
0100
0000
0010
0001
1000
0100
,
0000
0100
0010
0001
0000
0010
0100
1000
,
0000
0001
0000
0200
0000
0000
0301
0000
,
1000
1000
1000
0011
,
0110
0001
0001
1010
,
1100
0000
0001
0000
0100
0001
0100
0000
,
0010
0010
0010
1001
,
0011
0100
0100
0110
,
1001
1000
0001
0100
,
0020
0030
0000
0000
;

//---------------dance-single - Itsugo15----------------
#NOTES:
     dance-single:
     Itsugo15:
     Beginner:
     2:
     0.108,0.153,0.011,0.022,0.000: // measure 1
0000
0000
0000
0000
,  // measure 2
1000
0000
0000
0000
0000
0000
0000
2000
,  // measure 3
0000
0000
0000
0000
0000
3000
0000
0000
,  // measure 4
0001
0000
0000
0000
0000
0000
0000
0002
,  // measure 5
0000
0000
0000
0000
0000
0003
0000
0000
,  // measure 6
0100
0000
0000
0000
,  // measure 7
0010
0000
0000
0000
,  // measure 8
1000
0000
0000
0000
,  // measure 9
0100
0000
0000
0000
,  // measure 10
0100
0000
0000
0000
,  // measure 11
1000
0000
0000
0000
,  // measure 12
0010
0000
0000
0000
,  // measure 13
0100
0000
0000
0000
,  // measure 14
0100
0000
0000
0000
,  // measure 15
0001
0000
0000
0000
,  // measure 16
1000
0000
0000
0000
,  // measure 17
0100
0000
0000
0000
,  // measure 18
0010
0000
0000
0000
,  // measure 19
0001
0000
0000
0000
,  // measure 20
1000
0000
0000
0000
,  // measure 21
0010
0000
0000
0000
,  // measure 22
0100
0001
0000
0000
,  // measure 23
1000
0000
0000
0000
,  // measure 24
0100
0000
0000
0000
,  // measure 25
0010
0000
0000
0000
,  // measure 26
0001
1000
0000
1000
,  // measure 27
0001
0000
0000
0000
,  // measure 28
0100
0010
0000
0010
,  // measure 29
0100
0000
0000
0000
,  // measure 30
0001
0000
0000
0000
,  // measure 31
1000
0000
0000
0000
,  // measure 32
0100
0000
0000
0000
,  // measure 33
0010
0000
0000
0000
,  // measure 34
0001
0000
0000
0000
,  // measure 35
0001
0000
0000
0000
,  // measure 36
0001
0000
0000
0000
,  // measure 37
1000
0000
0000
0000
,  // measure 38
0010
0100
0000
0000
,  // measure 39
0001
0000
0000
0000
,  // measure 40
1000
0000
0000
0000
,  // measure 41
0100
0000
0000
0000
,  // measure 42
0010
0001
0000
0001
,  // measure 43
0010
0000
0000
0000
,  // measure 44
0100
1000
0000
1000
,  // measure 45
0100
0000
0000
0000
,  // measure 46
0010
0000
0000
0000
,  // measure 47
0001
0000
0000
0000
,  // measure 48
1000
0000
0000
0000
,  // measure 49
0010
0000
0000
0000
,  // measure 50
0100
0000
0000
0000
,  // measure 51
0100
0000
0000
0000
,  // measure 52
0100
0000
0000
0000
,  // measure 53
0010
0000
0000
0000
,  // measure 54
0010
0000
0000
0000
,  // measure 55
0010
0000
0000
0000
,  // measure 56
0110
0000
0000
0000
;

//---------------dance-single - Itsugo15----------------
#NOTES:
     dance-single:
     Itsugo15:
     Easy:
     4:
     0.225,0.275,0.133,0.111,0.000:
0000
0000
0000
0000
,
1000
0000
0000
0100
0000
0000
0020
0000
,
0000
0000
0000
0030
,
0001
0000
0000
0100
0000
0000
0020
0000
,
0000
0000
0000
0030
,
1000
0000
0001
0000
,
1000
0000
0100
0000
,
0010
0000
0010
0000
,
0001
0000
0001
0000
,
1000
0000
0001
0000
,
1000
0000
0010
0000
,
0100
0000
0100
0000
,
0001
0000
0001
0000
,
1000
1000
0000
0000
,
0100
0100
0000
0000
,
0010
0010
0000
0000
,
0001
0001
0000
1000
,
0020
0030
0000
0000
,
0200
0300
0000
0000
,
0002
0003
0000
0000
,
1000
0000
0100
0000
,
0010
0001
0000
1000
,
0000
0010
0000
0100
,
0000
0001
0000
1000
,
0000
0100
0000
0010
,
0001
0000
1000
1000
0000
0000
0001
0001
,
0000
2000
0000
3010
,
1000
0000
0100
0100
0000
0000
0010
0010
,
0000
0001
0000
1000
,
0000
0010
0000
0100
,
0000
0001
0000
0010
,
0000
0100
0000
1000
,
0000
0001
0000
0100
,
0101
0000
0101
0000
,
1100
0000
1100
0000
,
2000
0000
3001
0000
,
0001
0000
0010
0000
,
0100
1000
0000
0001
,
0000
0100
0000
0010
,
0000
1000
0000
0001
,
0000
0010
0000
0100
,
1000
0000
0001
0001
0000
0000
1000
1000
,
0000
0002
0000
0103
,
0001
0000
0010
0010
0000
0000
0100
0100
,
0000
1000
0000
0001
,
0000
0100
0000
0010
,
0000
1000
0000
0100
,
0000
0010
0000
0001
,
0000
1000
0000
0010
,
1010
0000
1010
0000
,
0011
0000
0011
0000
,
0002
0000
1003
0000
,
1001
0000
1001
0000
,
0110
0000
0110
0000
,
0020
0000
1030
0001
,
0010
0000
0000
0000
;
