#TITLE:海色;
#SUBTITLE:艦隊これくしょん -艦これ-;
#ARTIST:あきの from bless4;
#TITLETRANSLIT:Miiro;
#SUBTITLETRANSLIT:Kantai Collection -KanColle-;
#ARTISTTRANSLIT:Akino from bless4;
#GENRE:Anime;
#CREDIT:Huzure & Itsugo;
#BANNER:Kongou-bn.png;
#BACKGROUND:Kongou-bg.png;
#JACKET:Kongou-Jacket.png;
#LYRICSPATH:Miiro.lrc;
#CDTITLE:Collab.png;
#MUSIC:Miiro.mp3;
#OFFSET:-0.246;
#SAMPLESTART:54.660;
#SAMPLELENGTH:20.700;
#SELECTABLE:YES;
#LISTSORT:;
#DISPLAYBPM:195;
#BPMS:0.000=195.000,116.000=97.500,132.000=195.000;
#STOPS:;
#TICKCOUNT:0.000=6;
#BGCHANGES:-1.000=KanColle OP.avi=1.000=1=0=0,
270.000=Kongou-bg.png=1.000=1=0=0,
99999=-nosongbg-=1.000=0=0=0 // don't automatically add -songbackground-
;
#KEYSOUNDS:;
#ATTACKS:;

//---------------dance-single - Huzure----------------
#NOTES:
     dance-single:
     Huzure:
     Medium:
     6:
     0.469,0.524,0.100,0.233,0.055:
0000
0000
0000
0000
,
0000
0000
0000
0000
,
0000
0000
0000
0000
,
0000
0000
0000
0000
,
0000
0000
0000
0000
0000
0000
0000
1000
,
0000
1000
0100
0000
0010
0000
0010
0000
,
0001
0000
1000
0010
0000
0100
0000
0200
,
0000
0301
0100
0010
,
0100
0000
0001
1000
0000
0010
0000
0020
,
0000
1030
0100
0000
0100
0000
0010
0000
,
0001
0000
0010
0001
0000
1000
0000
0100
,
0010
0000
0010
0000
0001
1000
0000
1000
,
0001
0000
0110
0000
1000
0010
0000
0000
,
0100
0000
0000
0200
0000
0000
0000
0000
,
0301
0000
0000
0002
0000
0000
0003
0000
,
0010
0000
0000
0020
0000
0000
0000
0000
,
0130
0000
0000
0200
0000
0000
0300
0000
,
1000
0000
0000
2000
0000
0000
0000
0000
,
3001
0000
0000
0002
0000
0000
0003
0000
,
0100
0000
0000
0200
0000
0000
0000
0000
,
0301
0000
1000
0000
0001
0000
1000
0000
0001
0000
1000
0000
,
0001
0000
0100
0000
0010
0000
1000
0010
,
0000
0010
0000
0100
0000
0100
0000
0001
,
0000
0001
0000
0010
0000
0010
0000
0200
,
0000
1300
0100
0000
0010
0000
0100
0000
,
0110
0100
1000
0001
,
0100
0001
1000
1000
,
1001
0000
0000
0000
0001
0000
0000
0010
,
0000
0010
0000
0010
0000
0020
0000
0000
,
0000
0000
0030
0000
0100
0000
1000
0000
0001
0000
0000
0100
0000
0000
0010
0000
,
1000
0000
0000
0010
0000
0000
0100
0000
0001
0000
0000
0100
0000
0000
1000
0000
,
0100
0000
0010
0000
0100
0000
0001
0000
0010
0000
0000
0100
0000
0000
1000
0000
,
0001
0000
0000
0100
0000
0000
0001
0000
0010
0000
0000
0010
0000
0000
0010
0000
,
0100
1000
0010
1000
0010
0000
0000
0100
,
0001
0100
0001
0000
2000
0100
0000
3100
,
0000
0010
0001
0010
0001
0000
0000
0100
,
0010
0100
0010
0000
2000
0001
0000
3001
,
1000
0000
1100
0000
0100
1000
0000
0001
,
0000
0010
0001
0000
0000
0110
0000
0000
,
1000
0000
0001
0000
0100
0000
0010
1000
,
0000
0000
0000
0000
,
0001
0010
0001
1000
,
0100
0000
0010
0001
0100
0010
0000
0010
,
1000
0100
1000
0001
,
0100
0000
0001
0000
1000
0100
0010
0000
,
0110
0010
0001
1000
,
0010
0000
0100
0010
0000
0010
1000
0001
,
0000
0010
0100
0000
0100
0000
1000
0001
,
1000
0000
0100
0000
0010
0002
0000
0013
,
0001
1000
0100
0010
,
0001
0000
1000
0010
0100
0001
0000
0001
,
0010
0100
0010
0001
,
1000
0000
0100
0000
2000
0000
0002
3000
,
0013
0100
0010
0100
,
1000
0000
0001
0100
0000
0010
0100
0001
,
0000
1000
0100
0000
0100
0000
0100
0010
,
0001
0000
1001
0000
0001
0200
0000
0001
,
0000
0301
0100
0000
0010
0000
1000
0010
,
1000
0100
0010
0001
,
1000
0000
0001
0100
0010
1000
0100
1000
,
0000
0000
0000
0000
0000
0000
0000
0002
,
0000
1003
0100
0000
0010
0000
0010
0000
,
0001
0000
1000
0010
0000
0100
0000
0200
,
0000
0301
0100
0010
,
0100
0000
0001
1000
0000
0010
0000
0020
,
0000
1030
0100
0000
0110
0000
0010
0001
,
0000
0000
1001
0000
0001
0200
0000
0000
,
0000
0000
0300
0000
;

//---------------dance-single - Huzure----------------
#NOTES:
     dance-single:
     Huzure:
     Beginner:
     1:
     0.116,0.300,0.022,0.155,0.000:
0000
0000
0000
0000
,
0000
0000
0000
0000
,
0000
0000
0000
0000
,
0000
0000
0000
0000
,
0000
0000
0000
0000
0000
0000
0000
1000
,
0000
0000
0000
0000
,
0001
0000
0000
0000
0000
0000
0000
0001
,
0000
0000
0000
0000
,
0010
0000
0000
0000
0000
0000
0000
0010
,
0000
0000
0000
0000
,
0100
0000
0000
0000
0000
0000
0000
1000
,
0000
0000
0000
0000
0000
0000
0000
0002
,
0000
0000
0000
0003
,
0100
0000
0000
0000
,
0000
0000
0000
0000
,
0100
0000
0000
0000
,
0000
0000
0000
0000
,
0100
0000
0000
0000
,
0000
0000
0000
0000
,
0100
0000
0000
0000
,
0002
0000
0000
0003
,
1000
0000
0000
0000
,
0100
0000
0000
0000
,
0100
0000
0000
0000
,
1000
0000
0000
0000
,
0010
0000
0000
0000
,
0100
0000
0000
0000
,
0001
0000
0000
0000
,
0010
0000
0000
0000
,
0110
0000
0000
0000
,
2000
0000
0000
3000
0002
0000
0000
0003
,
0010
0000
0000
0000
0020
0000
0000
0030
,
0100
0000
0000
0000
0200
0000
0000
0300
,
1000
0000
0000
0000
,
1000
0000
0000
0000
,
0010
0000
0000
0000
,
0010
0000
0000
0000
,
2020
0000
0000
0000
,
0000
0000
0000
3030
,
0002
0000
0000
0000
0000
0000
0000
0003
,
0000
0000
0000
0000
,
1000
0000
0000
0000
,
0100
0000
0000
0000
,
0010
0000
0000
0000
,
0001
0000
0000
0000
,
0100
0000
0000
0000
,
0001
0000
0000
0000
0000
0000
0000
2000
,
0000
0000
0000
0000
,
0000
0000
0000
3000
,
0001
0000
0000
0000
,
0100
0000
0000
0000
,
0010
0000
0000
0000
,
0100
0000
0000
0000
,
0100
0000
0000
0000
,
0001
0000
0000
0000
0000
0000
0000
0020
,
0000
0000
0000
0000
,
0000
0000
0000
0000
0000
0030
0000
0100
,
0000
0000
0000
0000
,
1000
0000
0000
0000
,
0002
0000
0000
0000
0000
0000
0000
0003
,
0000
0000
0000
0000
0000
0000
0000
1000
,
0000
0000
0000
0000
,
0010
0000
0000
0000
0000
0000
0000
0010
,
0000
0000
0000
0000
,
0100
0000
0000
0000
,
0002
0000
0000
0000
,
0003
0000
2000
0000
,
0000
0000
3000
0000
;

//---------------dance-single - Huzure----------------
#NOTES:
     dance-single:
     Huzure:
     Hard:
     10:
     0.777,0.899,0.699,0.322,0.305:
0000
0000
0000
0000
,
0000
0000
0000
0000
,
0000
0000
0000
0000
,
0000
0000
0000
0000
,
0000
0000
0000
0000
0000
0000
0000
2000
,
0000
3100
0100
0000
0010
0100
0110
0000
,
0001
1000
0010
1000
0001
0100
0000
0110
,
0000
0100
0001
0000
1000
0010
1010
0010
,
0100
0001
1000
0200
0000
0310
0001
1001
,
0000
0100
0101
0000
0001
0001
1100
0000
,
1000
0000
0001
0000
0100
0000
0000
0000
0100
0000
0010
0000
1000
0000
0010
1000
,
0010
0000
0110
0000
1001
0110
0000
0011
,
1100
0000
0000
0000
0001
0010
0100
1000
0001
0000
0002
0000
0000
0000
0000
0000
,
1003
0000
0000
2000
0000
0000
0000
0000
,
3010
0000
0000
0020
0000
0000
0030
0000
,
0100
0000
0000
0200
0000
0000
0000
0000
,
0301
0000
0000
0002
0000
0000
0003
0000
,
0010
0000
0000
0020
0000
0000
0000
0000
,
0130
0000
0000
0200
0000
0000
0300
0000
,
1000
0000
0000
1000
0002
0000
0000
0000
,
1003
0000
1000
0000
1000
0000
1000
0000
1000
0000
1000
0000
,
1010
0000
0110
0000
0100
0100
0101
0010
,
0000
0100
1010
0000
1000
0001
1001
0000
,
1000
0000
1100
0000
0100
0010
0001
1000
,
0100
1000
1010
0000
0010
0010
0110
0000
,
1001
0000
0011
0000
0010
0010
0001
0100
,
0010
0000
1000
0000
1100
0000
0000
0000
0100
0000
1000
0000
0001
0000
1000
0001
,
0100
0000
0000
0000
0110
0000
0000
0000
0001
0000
1000
0010
1000
0000
0110
0000
,
0000
0000
0101
0000
0100
0000
0110
0000
0000
0000
0010
1000
0010
1000
0001
1000
,
0002
0000
0000
0000
0013
0000
0100
0000
1000
0000
0000
0010
0000
0000
0100
0000
,
0002
0000
1003
0100
0010
0000
0100
0000
1000
0010
0100
0001
1000
0000
0100
0000
,
0010
0001
0010
1000
0010
0000
0001
0000
0200
0000
0000
0302
0000
0000
1003
0000
,
0200
0000
0000
0000
0000
0000
0000
0000
0000
0000
0000
0000
2300
0000
0000
0000
0000
0000
0000
0000
0000
0000
0000
0000
3001
0000
0000
0000
0000
0000
0000
0000
1000
0100
0000
0000
0000
0000
0000
0000
0000
0000
0000
0000
0010
0001
0000
0000
0000
0000
0000
0000
0000
0000
0000
0000
1000
0001
0000
0000
0000
0000
0000
0000
,
1001
1000
0010
1000
0010
0000
0010
0100
,
0001
0100
0001
0000
0100
0101
0000
0110
,
0000
1000
0100
1000
0100
0000
0010
0001
,
1000
0001
0100
0100
0001
0001
1000
1000
,
0110
0000
1010
0000
1100
0100
0000
0011
,
0010
0000
0100
0000
0100
1000
0100
0000
0000
0000
1001
0000
0000
0000
0001
0000
,
1000
0001
1000
0001
0010
0100
0010
0100
1000
0010
1000
0001
0100
0001
1000
0100
,
0000
0000
0000
0000
0000
0000
0000
0000
0000
0000
0000
0000
0010
0001
0010
0100
,
1000
0000
1001
0000
0001
0100
0101
0000
,
0001
0000
0010
0000
1000
0000
0010
0000
0001
0000
0002
0000
0000
0000
0103
0001
,
0100
0000
0110
0010
0100
0002
0000
1003
,
0100
0000
0100
0000
0010
0000
0001
0000
0100
0000
0000
0000
0010
1000
0100
0010
,
0001
1000
1100
0001
0011
0010
0001
0100
,
0010
0000
0000
0000
1000
0000
1000
0000
0100
0010
0001
0010
0100
0000
0110
0000
,
0000
0011
1200
0000
1300
0000
0010
0100
,
2001
0000
0000
0000
3001
0000
0000
0000
1000
0100
1000
0001
0100
0010
0100
0001
,
1000
0000
0011
0000
1000
1000
1010
0000
,
0001
0000
1000
0000
0100
0000
1000
0000
0010
0000
0020
0000
0000
0000
1030
0100
,
1000
0000
1010
0010
0100
0002
0000
0013
,
0100
0000
0001
0000
0100
0000
1000
0000
0100
0000
1000
0100
0010
0001
0010
0100
,
1000
0001
0101
1000
1010
0010
0100
0001
,
0010
0000
0000
0000
0100
0000
0100
0000
1000
0001
1000
0001
0010
0000
0011
0000
,
0000
0101
2010
0000
3001
0000
0100
0110
,
2000
0000
0000
0000
3001
0000
0000
0000
1000
0001
0100
0010
1000
0100
0020
0000
,
0000
0100
0130
0000
0010
0001
0100
0010
,
1000
0000
0000
0000
1001
0000
0000
0000
0001
0000
1000
0000
0001
0000
0010
0001
,
1000
0000
1010
0010
0110
0100
0101
1000
,
0000
0000
0000
0000
0000
0000
0000
0002
,
0000
0010
0013
0000
0010
0100
1000
0000
,
0010
0001
0010
1000
0100
0010
0001
0100
,
0000
0110
0101
0000
0100
0010
1000
0000
,
0001
0000
0100
0000
0010
0000
0200
0000
0000
0000
0301
0000
1000
0000
0100
1000
,
0100
1000
1010
0000
1010
0000
0001
1100
,
0000
0100
1000
0001
1001
0022
0000
0000
,
0000
0000
0033
0000
;

//---------------dance-single - Itsugo15----------------
#NOTES:
     dance-single:
     Itsugo15:
     Challenge:
     11:
     0.876,1.000,0.887,0.532,0.266: // measure 1
0000
0000
0000
0000
,  // measure 2
0000
0000
0000
0000
,  // measure 3
0000
0000
0000
0000
,  // measure 4
0001
1000
0010
0100
0001
1000
0010
0100
,  // measure 5
0001
1000
0010
0100
0001
0000
0000
1001
,  // measure 6
0000
1000
0200
0000
0320
0000
0032
0000
,  // measure 7
2003
0000
3010
0100
0000
0110
0000
0101
,  // measure 8
0000
0001
1000
0000
1000
0001
1001
0000
,  // measure 9
0101
0000
0100
0010
0000
0110
0000
1010
,  // measure 10
0000
0001
0020
0000
0230
0000
2300
0000
,  // measure 11
3002
0000
0103
0010
0000
0110
0000
1010
,  // measure 12
1000
0000
0101
0000
1001
1001
0000
1100
,  // measure 13
1100
0000
0110
0000
0011
0011
0001
0000
,  // measure 14
1000
0000
0010
1000
0000
0001
0000
0020
,  // measure 15
0000
0000
0000
0031
0000
0000
0001
1000
,  // measure 16
0010
0000
0100
0001
0000
1000
0000
1001
,  // measure 17
0000
1100
0000
0210
0000
0000
1300
0001
,  // measure 18
0000
0000
1001
0000
0101
0000
0001
0200
,  // measure 19
0000
0320
0000
2030
0000
3000
0001
0020
,  // measure 20
0000
0230
0000
2300
0000
3000
0002
0000
,  // measure 21
0100
0000
0100
0000
0100
0000
0100
0000
0100
0000
0100
0000
,  // measure 22
0103
0000
0001
0000
0101
0000
0100
0001
1000
0000
0100
0000
0001
0000
0100
0000
,  // measure 23
1000
0001
1001
0000
1000
0001
1001
0000
,  // measure 24
0011
0000
0010
0000
0100
0000
1000
0001
0100
0000
0010
0000
1000
0000
0001
0000
,  // measure 25
0010
0000
0100
0000
0110
0000
0000
0000
0010
0000
0100
0000
0110
0000
0010
0001
,  // measure 26
0010
0000
0100
0000
1000
0000
0100
1000
0010
0000
0100
0000
0001
0000
0100
0001
,  // measure 27
0010
0000
0100
0000
1000
0000
0001
0100
0010
0000
0001
0000
0010
0000
1000
0000
,  // measure 28
0001
0000
0010
0000
0100
1000
0100
0010
0001
0000
1000
0100
0010
0000
0110
0000
,  // measure 29
0000
0000
1001
0000
1000
0000
0001
0000
1000
0100
0010
0001
0100
0010
1000
0001
,  // measure 30
0020
0000
0000
0000
0230
0000
0000
0000
2300
0000
0000
3002
0000
0000
0203
0000
,  // measure 31
0320
0000
0000
2030
0000
0000
3002
0000
0023
0000
0000
0230
0000
0300
0010
0001
,  // measure 32
2000
0000
0200
0300
0020
0030
0002
0003
0020
0000
0030
0200
0000
0300
3001
0010
,  // measure 33
0002
0000
0000
2000
0000
0003
3100
0000
1100
0000
0000
0110
0000
0000
0011
0000
,  // measure 34
1001
0001
0100
0001
0010
0000
0001
0010
,  // measure 35
0100
0010
0001
1000
0010
1010
0000
0101
,  // measure 36
0000
0100
0001
0010
0100
0000
1000
0100
,  // measure 37
0010
0100
1000
0010
0100
0001
1000
0100
,  // measure 38
1100
0000
0011
0000
1001
0110
0000
1001
,  // measure 39
0000
0001
1001
0000
1000
1001
0000
1010
,  // measure 40
0010
0000
0100
0000
0001
1000
0100
1000
0010
0100
0001
1000
0100
0010
0002
0000
,  // measure 41
0003
0000
0001
0000
0010
0100
0000
1000
,  // measure 42
1100
0100
1000
0001
0100
0010
1000
0100
,  // measure 43
0010
0000
0000
0000
0000
0000
0000
0000
0000
0000
0000
0000
0000
0000
0000
0000
0000
0000
0000
0000
0000
0000
0000
0000
0001
0000
0000
0000
0000
0000
0000
0000
0000
0000
0000
0000
0000
0000
0000
0000
0000
0000
0000
0000
0000
0000
0000
0000
0010
0000
0000
0000
0000
0000
0000
0000
0000
0000
0000
0000
0000
0000
0000
0000
0000
0000
0000
0000
0000
0000
0000
0000
0100
0000
0000
0000
0000
0000
0000
0000
0000
0000
0000
0000
0000
0000
0000
0000
0000
0000
0000
0000
0000
0000
0000
0000
0110
0000
0000
0000
0000
0000
0000
0000
0000
0000
0000
0000
0000
0000
0000
0000
0000
0000
0000
0000
0000
0000
0000
0000
0000
0000
0000
0000
0000
0000
0000
0000
1100
0000
0000
0000
0000
0000
0000
0000
0000
0000
0000
0000
0000
0000
0000
0000
0000
0000
0000
0000
0000
0000
0000
0000
0000
0000
0000
0000
0000
0000
0000
0000
1001
0000
0000
0000
0000
0000
0000
0000
0000
0000
0000
0000
0000
0000
0000
0000
0000
0000
0000
0000
0000
0000
0000
0000
0000
0000
0000
0000
0000
0001
0000
0000
,  // measure 44
0100
0000
0001
0100
0010
0100
0001
1000
,  // measure 45
0020
0000
0031
0020
0000
2030
0001
3000
,  // measure 46
1001
1000
0001
0010
0001
0100
0001
0010
,  // measure 47
0100
0000
0010
0000
0001
0000
0010
0000
0100
1000
0100
0010
0001
0000
0011
0000
,  // measure 48
0000
1100
1001
0000
1001
0000
0101
0100
,  // measure 49
0010
0000
0000
0000
0110
0000
0000
0000
0100
0001
0100
0010
1000
0010
0100
0001
,  // measure 50
0101
0100
0001
1000
0100
0010
0001
0100
,  // measure 51
0010
0000
0000
0000
0000
0000
0000
0000
0000
0000
0000
0000
0000
0000
0000
0000
0000
0000
0000
0000
0000
0000
0000
0000
1000
0000
0000
0000
0000
0000
0000
0000
0000
0000
0000
0000
0000
0000
0000
0000
0000
0000
0000
0000
0000
0000
0000
0000
0010
0000
0000
0000
0000
0000
0000
0000
0000
0000
0000
0000
0000
0000
0000
0000
0000
0000
0000
0000
0000
0000
0000
0000
0100
0000
0000
0000
0000
0000
0000
0000
0000
0000
0000
0000
0000
0000
0000
0000
0000
0000
0000
0000
0000
0000
0000
0000
0110
0000
0000
0000
0000
0000
0000
0000
0000
0000
0000
0000
0000
0000
0000
0000
0000
0000
0000
0000
0000
0000
0000
0000
0000
0000
0000
0000
0000
0000
0000
0000
0101
0000
0000
0000
0000
0000
0000
0000
0000
0000
0000
0000
0000
0000
0000
0000
0000
0000
0000
0000
0000
0000
0000
0000
0000
0000
0000
0000
0000
0000
0000
0000
1001
0000
0000
0000
0000
0000
0000
0000
0000
0000
0000
0000
0000
0000
0000
0000
0000
0000
0000
0000
0000
0000
0000
0000
0000
0000
0000
0000
0000
1000
0000
0000
,  // measure 52
0100
0000
1000
0100
0010
0100
1000
0002
,  // measure 53
0010
0000
0000
0000
1000
0000
0000
0000
0103
0000
0001
0100
0001
0000
1000
0100
,  // measure 54
1100
0100
1000
0010
1000
0100
1000
0010
,  // measure 55
0100
0000
0010
0000
1000
0000
0010
0000
0100
0001
0100
0010
1000
0000
1010
0000
,  // measure 56
0000
0101
1001
0000
1001
0000
1100
0100
,  // measure 57
0010
0000
0000
0000
0110
0000
0000
0000
0010
0001
0010
0100
1000
0000
1100
0000
,  // measure 58
0100
1000
0001
0100
0010
0001
0010
0100
,  // measure 59
0010
1000
0001
0010
0100
1000
0100
0020
,  // measure 60
0001
0001
0001
0001
0001
0001
0001
0031
,  // measure 61
0001
1000
0100
0010
0001
2000
0000
3101
,  // measure 62
0000
0001
0200
0000
0320
0000
2030
0000
,  // measure 63
3002
0000
0013
0100
0000
0110
0000
1100
,  // measure 64
0000
1000
0001
0000
0100
0000
0101
0000
,  // measure 65
1010
0000
0010
0100
0000
0110
0000
0101
,  // measure 66
1000
1100
0001
0101
1000
1100
0000
1100
,  // measure 67
0010
0001
0100
0010
0110
2002
0000
0000
,  // measure 68
3003
0000
0000
0000
;

//---------------dance-single - Itsugo15----------------
#NOTES:
     dance-single:
     Itsugo15:
     Easy:
     3:
     0.266,0.372,0.055,0.177,0.000:
0000
0000
0000
0000
,
0000
0000
0000
0000
,
0000
0000
0000
0000
,
0000
0000
0000
0000
,
0000
0000
0000
0000
0000
0000
0000
1000
,
0000
0000
0010
0000
,
1000
0000
0000
0000
0001
0000
0000
0010
,
0000
0000
0001
0000
,
1000
0000
0000
0000
0010
0000
0000
0100
,
0000
0000
0001
0000
,
0010
0000
0000
0000
0100
0000
0000
1000
,
0000
0000
0001
0000
0100
0000
0000
0010
,
0000
1000
0001
0000
,
0010
0000
0000
0000
,
0020
0030
0000
0000
,
0001
0000
0000
0000
,
0002
0003
0000
0000
,
1000
0000
0000
0000
,
2000
3000
0000
0000
,
0010
0000
0000
0000
,
0020
0000
0000
0000
,
1030
1000
0001
0000
,
0010
0010
0100
0000
,
1000
0001
0100
0000
,
0010
1000
0001
0000
,
0010
0100
1000
0000
,
0010
0100
0001
0000
,
1000
0100
0010
0001
,
0100
0010
1000
0001
,
0010
0000
0001
0000
,
1000
0000
0010
0000
,
0200
0000
0001
0000
,
0320
0000
1000
0000
,
0130
0000
0001
0000
,
1000
0000
0100
0000
,
0010
0000
0001
0000
,
0010
0000
0100
0000
,
1000
0100
1000
0001
,
1000
0010
1000
0100
,
2000
0000
0000
0000
0000
0000
0000
3001
,
0000
0000
0000
0000
,
1001
0000
0001
0000
,
0100
0000
0010
1000
,
0001
0000
0010
0000
,
0200
0000
1300
0000
,
0001
0100
0010
1000
,
0100
0000
0010
0000
0002
0000
0000
0010
,
0003
0011
0001
0000
,
1001
1000
0020
0000
,
0130
0000
0001
0000
,
1000
0000
0100
0010
,
0001
0000
1000
0000
,
0020
0000
0230
0000
,
0301
0100
0010
1000
,
0100
0000
0010
0000
0002
0000
0003
0011
,
0000
0001
1000
0000
,
1000
0000
0010
0000
0200
0000
0000
0301
,
0000
0000
1000
0000
,
0100
0000
0010
0000
,
0001
0010
0100
1000
,
0002
0000
0000
0000
0000
0003
0000
1001
,
0000
0001
0000
0100
,
0000
0010
0000
1000
,
0000
0100
0000
0010
,
0000
0000
0001
0000
0000
1000
0000
0010
,
0000
0000
0100
0000
0001
0000
0000
0010
,
0000
0000
0100
0000
1000
0002
0000
0000
,
0003
0000
0000
0000
;
