#TITLE:Lucid Dream;
#SUBTITLE:Sacred Factor;
#ARTIST:EastNewSound;
#TITLETRANSLIT:Lucid Dream;
#SUBTITLETRANSLIT:Sacred Factor;
#ARTISTTRANSLIT:EastNewSound;
#GENRE:Touhou;
#CREDIT:Itsugo15;
#BANNER:Lucid Dream-bn.png;
#BACKGROUND:Lucid Dream-bg.png;
#JACKET:Lucid Dream-Jacket.png;
#LYRICSPATH:Lucid Dream.lrc;
#CDTITLE:Itsugo15 SimifileS.png;
#MUSIC:Lucid Dream.mp3;
#OFFSET:-0.500;
#SAMPLESTART:91.055;
#SAMPLELENGTH:30.000;
#SELECTABLE:YES;
#LISTSORT:;
#DISPLAYBPM:170.000;
#BPMS:0.000=860.000,28.000=170.000;
#STOPS:3.000=11.550
,4.000=0.370
,6.000=1.100
,8.000=0.925
,10.000=0.370
,12.000=1.100
,14.000=0.925
,16.000=0.370
,18.000=1.100
,20.000=0.925
,22.000=0.370
,24.000=1.100
,26.000=0.925
;
#TICKCOUNT:0.000=6;
#BGCHANGES:-15.000=Lucid Dream-VD1.avi=1.000=0=1=0,
218.000=Lucid Dream-VD2.avi=1.000=1=1=0,
99999=-nosongbg-=1.000=0=0=0 // don't automatically add -songbackground-
;
#KEYSOUNDS:;
#ATTACKS:;

//---------------dance-single - Itsugo15----------------
#NOTES:
     dance-single:
     Itsugo15:
     Challenge:
     11:
     0.762,0.839,0.714,0.250,0.211: // measure 1
0000
0000
0000
0000
,  // measure 2
1001
0000
1001
000M
,  // measure 3
0001
0000
1001
0000
,  // measure 4
1001
M000
1000
0000
,  // measure 5
1001
0000
1001
000M
,  // measure 6
0001
0000
1001
0000
,  // measure 7
1001
M000
1000
M00M
,  // measure 8
1001
0000
1000
0000
0001
0000
0100
0010
1000
0000
0001
0000
0010
0000
0200
0000
,  // measure 9
0300
0000
1000
0000
0001
0000
0010
0001
1000
0000
0010
0000
0100
0000
0001
0000
,  // measure 10
0100
0000
0010
0000
1000
0000
0100
0010
0001
0000
0100
0000
0010
0000
2000
0000
,  // measure 11
3000
0000
0010
0000
0100
0000
0001
0100
1000
0000
0100
0000
0010
0000
1000
0000
,  // measure 12
0001
0000
0010
0000
0100
0000
1000
0001
0100
0000
0010
0000
1000
0000
0002
0000
,  // measure 13
0003
0000
0010
0000
0100
0000
1000
0001
0100
0000
0010
0000
1000
0000
0001
0000
,  // measure 14
0010
0000
0100
0000
1000
0000
0100
0010
0001
0000
1000
0000
0010
0000
0200
0000
,  // measure 15
0300
0000
0001
0000
1000
0000
0100
0010
0001
0000
0100
0000
0001
0000
0010
0000
,  // measure 16
0011
0000
0001
0000
1000
0000
0010
0100
0001
0000
1000
0000
0100
0000
0020
0000
,  // measure 17
0030
0000
0001
0000
1000
0000
0100
1000
0001
0000
0100
0000
0010
0000
1000
0000
,  // measure 18
0010
0000
0100
0000
0001
0000
0010
0100
1000
0000
0010
0000
0100
0000
0002
0000
,  // measure 19
0003
0000
0100
0000
0010
0000
1000
0010
0001
0000
0010
0000
0100
0000
0001
0000
,  // measure 20
1000
0000
0100
0000
0010
0000
0001
1000
0010
0000
0100
0000
0001
0000
2000
0000
,  // measure 21
3000
0000
0100
0000
0010
0000
0001
1000
0010
0000
0100
0000
0001
0000
1000
0000
,  // measure 22
0100
0000
0010
0000
0001
0000
0010
0100
1000
0000
0001
0000
0100
0000
0020
0000
,  // measure 23
0030
0000
1000
0000
0001
0000
0010
0100
1000
0000
0100
0010
0001
0000
1000
0010
,  // measure 24
0100
0001
1000
0200
0000
1300
1100
0000
,  // measure 25
1001
0000
0001
0201
0000
0320
1030
0000
,  // measure 26
1010
0000
1000
0000
0001
0000
0010
0100
0010
0000
0001
0000
1000
0000
0000
0000
,  // measure 27
1001
0000
0001
0101
0000
1000
1100
0000
,  // measure 28
1001
0000
0001
0000
0100
0000
0010
1000
0001
0000
0010
0000
0100
0000
0000
0000
,  // measure 29
0110
0000
1100
0001
0000
0101
1000
0000
,  // measure 30
1100
0000
0100
0000
0010
0000
0001
1000
0100
0000
1000
0000
0001
0000
0000
0000
,  // measure 31
1001
0000
0000
0000
0001
0000
0101
0000
0000
0000
1000
0000
1010
0000
0010
0100
,  // measure 32
0001
0000
0100
0000
1000
0000
0100
0000
0010
0000
1000
0001
0010
0000
0200
0000
,  // measure 33
0300
0000
1000
0000
0100
0000
0010
0000
0100
0000
1000
0000
0001
0000
0100
0010
,  // measure 34
1000
0000
0010
0000
0100
0000
0001
0000
0010
0000
0100
1000
0001
0000
0200
0000
,  // measure 35
0300
0000
0010
0000
1000
0000
0001
0000
0010
0000
0100
0000
1000
0000
0100
0010
,  // measure 36
0001
0000
0010
0000
1000
0000
0010
0000
0100
0000
1000
0001
0100
0000
0020
0000
,  // measure 37
0030
0000
1000
0000
0010
0000
0100
0000
0010
0000
1000
0000
0001
0000
0010
0100
,  // measure 38
1000
0000
0100
0000
0010
0000
0001
0000
0100
0000
0010
1000
0001
0000
0020
0000
,  // measure 39
0031
0000
0000
0000
0001
0000
0000
0000
1000
0000
0000
0000
1000
0000
0000
0000
0001
0000
1000
0000
0001
0000
1000
0000
0001
1000
0001
1000
0001
1000
0001
1000
,  // measure 40
0001
0000
1000
0000
0010
0000
0100
0001
1000
0000
0100
0000
0010
0000
0001
0000
,  // measure 41
0011
0000
1000
1100
0000
0001
1001
0000
,  // measure 42
0101
0000
0100
0000
0010
0000
1000
0001
0010
0000
0100
0000
0010
0000
0001
0000
,  // measure 43
0011
0000
0001
1001
0000
1000
1010
0000
,  // measure 44
0110
0000
0100
0000
0001
0000
1000
0100
1000
0000
0001
0000
0100
0000
0010
0000
,  // measure 45
0110
0000
0000
0000
1000
0000
1010
0000
0000
0000
0001
0000
0101
0000
0001
1000
,  // measure 46
0100
0000
0000
0000
1000
0000
1100
0000
0000
0000
0001
0000
0011
0000
0010
0001
,  // measure 47
1000
0000
0100
1100
0000
1000
1010
0000
,  // measure 48
1001
0000
0001
0000
0100
0000
0010
1000
0001
0000
0010
0000
0100
0000
1000
0000
,  // measure 49
1100
0000
0001
0011
0000
1000
1001
0000
,  // measure 50
1010
0000
0010
0000
0100
0000
0001
1000
0100
0000
0010
0000
0100
0000
1000
0000
,  // measure 51
1100
0000
1000
1001
0000
0001
0101
0000
,  // measure 52
0110
0000
0010
0000
1000
0000
0001
0010
0001
0000
1000
0000
0010
0000
0100
0000
,  // measure 53
0110
0000
0000
0000
0001
0000
0101
0000
0000
0000
1000
0000
1010
0000
1000
0001
,  // measure 54
0010
0000
0100
0000
0110
0000
0010
0001
1000
0000
0010
0000
1010
0000
1000
0001
,  // measure 55
2002
0000
3M03
00M0
1M00
00M1
1M00
00M0
,  // measure 56
1001
0000
0000
0000
1010
0000
1000
0010
0100
0000
0001
0000
1000
0000
0100
0000
,  // measure 57
1100
0000
0000
0000
0110
0000
0010
0001
1000
0000
0010
0000
0100
0000
0001
0000
,  // measure 58
0101
1010
0101
0011
,  // measure 59
1100
0000
0000
0000
0011
0000
0010
0001
1000
0000
0010
0000
0100
0000
0000
0000
,  // measure 60
0110
0000
0000
0000
1010
0000
1000
0001
0010
0000
0100
0000
0110
0000
0000
0000
,  // measure 61
1100
0000
0000
0000
1001
0000
1000
0001
0100
0000
0010
0000
1000
0000
0001
0000
,  // measure 62
1001
0011
1100
1001
,  // measure 63
0110
0000
0101
0010
0000
1010
0100
0000
,  // measure 64
1001
0000
0000
0000
1100
0000
0100
0010
0001
0000
1000
0000
0010
0000
0000
0000
,  // measure 65
1010
0000
0000
0000
0101
0000
0001
1000
0100
0000
1000
0000
0001
0000
0000
0000
,  // measure 66
1001
0000
0101
1000
0000
1100
0001
0000
,  // measure 67
1001
0000
0011
1000
0000
1010
0001
0000
,  // measure 68
1001
0000
0000
0000
1100
0000
0100
0010
0001
0000
1000
0000
1001
0000
0000
0000
,  // measure 69
1010
0000
0000
0000
0110
0000
0100
0001
1000
0000
0100
0000
0010
0000
0000
0000
,  // measure 70
0110
0000
0010
0001
1000
0000
0010
0000
1010
0000
1000
0010
0100
0000
0001
0000
,  // measure 71
0202
0000
0000
0303
0001
0100
0001
1000
,  // measure 72
1001
0001
0100
0010
2000
0010
0001
3010
,  // measure 73
0002
1000
0100
1003
0100
0010
1000
0100
,  // measure 74
0010
0001
1000
0100
0020
0001
0100
0031
,  // measure 75
0200
1000
0010
1300
0010
0001
1000
0010
,  // measure 76
0100
0001
1000
0001
2000
0100
0001
3100
,  // measure 77
0002
1000
0010
1003
0010
0100
1000
0001
,  // measure 78
0010
0100
1000
0001
0200
0010
0310
1000
,  // measure 79
1010
0000
1001
0000
0022
0000
0000
1033
,  // measure 80
1001
1000
0010
0100
0002
0100
1000
0103
,  // measure 81
2000
0001
0010
3001
0010
0100
0001
0010
,  // measure 82
0100
1000
0001
0010
0200
1000
0010
1300
,  // measure 83
0020
0001
0100
0031
0100
1000
0001
0100
,  // measure 84
0010
1000
0001
1000
0002
0010
1000
0013
,  // measure 85
2000
0001
0100
3001
0100
0010
0001
1000
,  // measure 86
0100
0010
0001
0100
1000
0010
0001
0200
,  // measure 87
0000
0000
0000
0000
,  // measure 88
0300
0000
0000
0000
;

//---------------dance-single - Itsugo15----------------
#NOTES:
     dance-single:
     Itsugo15:
     Hard:
     9:
     0.555,0.497,0.336,0.314,0.007:
0000
0000
0000
0000
,
1001
0000
1001
M000
,
1000
0000
1001
0000
,
1001
000M
0001
0000
,
1001
0000
1001
M000
,
1000
0000
1001
0000
,
1001
0000
0000
000M
0000
0000
0001
0000
0M00
MMMM
0M00
0000
,
1000
0010
0001
0010
0100
0001
1000
0200
,
0000
1300
0001
0100
1000
0100
0010
1000
,
0001
0010
0100
0010
0001
1000
0010
0200
,
0000
0301
1000
0100
1000
0010
0100
0001
,
0010
0001
0100
0010
1000
0100
0010
0002
,
0000
0013
0100
1000
0001
0100
0010
1000
,
0100
1000
0010
0100
0001
1000
0100
0020
,
0000
0031
0100
0010
1000
0001
0010
0100
,
0110
0010
0001
0100
0010
1000
0001
0020
,
0000
0031
1000
0010
0001
0010
0100
0001
,
1000
0100
0010
0100
1000
0001
0100
0020
,
0000
1030
0001
0010
0001
0100
0010
1000
,
0100
1000
0010
0100
0001
0010
0100
2000
,
0000
3100
0010
0001
1000
0010
0100
0001
,
0010
0001
0100
0010
1000
0001
0010
0200
,
0000
1300
0010
0000
1000
0001
0010
0000
,
0011
0001
1000
0000
0010
0000
0100
0001
,
1000
0000
0100
0010
0000
0010
0001
0000
,
0011
0010
0100
0000
1000
0000
0001
0100
,
0010
0000
1000
0100
0000
0010
0001
0000
,
0011
0010
0100
0000
1000
0000
0001
0010
,
0100
0000
1000
0100
0000
1000
0010
0000
,
1010
1000
0001
0000
0010
0000
0100
1000
,
0001
0000
0100
0010
0000
1000
0001
0000
,
1001
1000
0001
0100
1000
0100
0001
2000
,
0000
3100
0010
0001
0010
0100
1000
0001
,
0100
0010
1000
0100
1000
0010
0100
0002
,
0000
0103
0010
1000
0100
1000
0010
0100
,
0001
0010
0001
0100
0010
1000
0100
0020
,
0000
0031
0010
0100
1000
0001
0100
0010
,
1000
0100
1000
0010
0100
0001
0100
0020
,
0000
1030
0001
0000
0001
2000
0200
3300
,
1100
0000
1000
0001
0000
0001
0010
0000
,
0011
0000
0010
0100
0000
0100
1000
0000
,
1100
0000
1000
0001
0000
0001
0100
0000
,
0101
0000
0100
0010
0000
0010
1000
0000
,
1010
0000
1000
0001
0000
0001
0020
0000
,
0002
0000
0000
0030
0010
0000
0000
0000
2000
0000
0000
0003
0001
0000
0000
0000
,
0020
0000
0000
3000
1000
0000
0000
0000
0200
0000
0000
0300
0130
0000
0002
0000
,
1000
0000
1003
0002
0000
2003
0200
3300
,
1100
0000
1000
0001
0000
0001
0100
0000
,
0101
0000
0100
0010
0000
0010
1000
0000
,
1010
0000
1000
0001
0000
0001
0010
0000
,
0011
0000
0010
0100
0000
0100
1000
0000
,
2200
0000
0300
3002
,
0200
0003
0320
2030
,
0002
0000
0000
0000
,
3113
0000
M00M
M00M
M00M
M00M
M00M
0000
,
2001
0000
0001
0000
3002
0000
1000
0003
,
1001
0000
0001
1000
0000
1000
0010
0000
,
0001
0010
1000
0100
,
0001
0000
0100
1000
0000
1000
0001
0000
,
0200
0000
0010
0000
0320
0000
1000
0030
,
1010
0000
1000
0001
0000
0001
0020
0000
,
1030
0010
0001
0100
,
1000
0000
0100
0001
0000
1000
0100
0000
,
1100
0000
0100
0001
0000
0100
0010
0000
,
0110
0000
0100
1000
0000
0010
0100
0000
,
0110
0000
0010
0001
0000
0010
0100
0000
,
0110
0000
0010
1000
0000
0001
0010
0000
,
0011
0000
0001
0100
0000
0010
1000
0000
,
0200
0000
1300
0001
0000
0001
0100
0000
,
0020
0000
1000
1000
0000
0130
0001
0000
,
0202
0000
0000
0303
0101
0000
1001
0000
,
1100
0000
1000
0000
0001
0100
1000
0000
,
0001
0100
1000
0000
1100
0000
0100
0010
,
0000
0010
0001
0000
0001
1000
0010
0000
,
0001
1000
0010
0000
1010
0000
0010
0100
,
2000
0000
3001
0000
1000
0100
0001
0000
,
1000
0100
0001
0000
0101
0000
0001
1000
,
0000
0100
0010
0000
0001
1000
0010
0000
,
1010
0000
0011
0000
2200
0000
0000
3311
,
0000
0000
0001
0000
1000
0010
0001
0000
,
1000
0010
0001
0000
0011
0000
0010
0100
,
0000
0100
1000
0000
1000
0001
0100
0000
,
1000
0001
0100
0000
0101
0000
0100
0010
,
0002
0000
1003
0000
0001
0010
1000
0000
,
0001
0010
1000
0000
1010
0000
1000
0001
,
0000
0010
1000
0010
0001
0100
1000
0020
,
0000
0000
0000
0000
,
0030
0000
0000
0000
;

//---------------dance-single - Itsugo15----------------
#NOTES:
     dance-single:
     Itsugo15:
     Beginner:
     2:
     0.091,0.123,0.021,0.000,0.000:
0000
0000
0000
0000
,
0000
0000
0000
0000
,
0000
0000
0000
0000
,
0000
0000
0000
0000
,
0000
0000
0000
0000
,
0000
0000
0000
0000
,
0000
0000
0000
0000
,
1000
0000
0000
0000
,
0001
0000
0000
0000
,
1000
0000
0000
0000
,
0100
0000
0000
0000
,
1000
0000
0000
0000
,
0010
0000
0000
0000
,
0100
0000
0000
0000
,
0001
0000
0000
0000
,
0101
0000
0000
0000
,
0100
0000
0000
0000
,
0010
0000
0000
0000
,
1000
0000
0000
0000
,
0001
0000
0000
0000
,
0010
0000
0000
0000
,
0100
0000
0000
0000
,
1000
0000
0000
0000
,
1100
0000
0000
0000
,
0100
0000
0000
0000
,
1000
0000
0000
0000
,
0001
0000
0000
0000
,
0100
0000
0000
0000
,
0010
0000
0000
0000
,
1000
0000
0000
0000
,
0001
0000
0000
0000
,
0010
0000
0000
0000
,
0100
0000
0000
0000
,
1000
0000
0000
0000
,
0001
0000
0000
0000
,
1000
0000
0000
0000
,
0010
0000
0000
0000
,
0100
0000
0000
0000
,
0001
0000
0000
0000
,
0100
0000
0000
0000
,
0010
0000
0000
0000
,
1000
0000
0000
0000
,
0001
0000
0000
0000
,
0010
0000
0000
0000
,
0100
0000
0000
0000
,
1000
0000
0000
0000
,
0001
0000
0000
0000
,
0100
0000
0000
0000
,
0010
0000
0000
0000
,
1000
0000
0000
0000
,
0100
0000
0000
0000
,
1000
0000
0000
0000
,
0001
0000
0000
0000
,
0100
0000
0000
0000
,
0010
0000
0000
0000
,
1000
0000
0000
0000
,
0001
0000
0000
0000
,
0010
0000
0010
0000
,
0001
0000
0001
0000
,
1000
0000
0000
0000
,
0010
0000
0000
0000
,
0100
0000
0100
0000
,
0001
0000
0001
0000
,
1000
0000
0000
0000
,
0001
0000
0000
0000
,
0010
0000
0100
0000
,
1000
0000
1000
0000
,
0100
0000
0000
0000
,
0010
0000
0000
0000
,
0001
0000
0000
0000
,
1000
0000
0000
0000
,
0010
0000
0000
0000
,
0010
0000
0000
0000
,
0100
0000
0000
0000
,
0100
0000
0000
0000
,
0001
0000
0000
0000
,
0001
0000
0000
0000
,
1000
0000
0000
0000
,
1000
0000
0000
0000
,
1001
0000
0000
0000
,
0001
0000
0000
0000
,
0010
0000
0000
0000
,
0100
0000
0000
0000
,
1000
0000
0000
0000
,
0001
0000
0000
0000
,
0100
0000
0000
0000
0000
0000
0000
0010
;

//---------------dance-single - Itsugo15----------------
#NOTES:
     dance-single:
     Itsugo15:
     Easy:
     4:
     0.162,0.215,0.064,0.043,0.000:
0000
0000
0000
0000
,
0000
0000
0000
0000
,
0000
0000
0000
0000
,
0000
0000
0000
0000
,
0000
0000
0000
0000
,
0000
0000
0000
0000
,
0000
0000
0000
0000
,
1000
0000
0010
0000
,
1000
0000
0000
0000
,
0001
0000
0010
0000
,
0001
0000
0000
0000
,
1000
0000
0100
0000
,
1000
0000
0000
0000
,
0001
0000
0100
0000
,
0001
0000
1000
0000
,
1001
0000
0001
0000
,
0010
0000
0000
0000
,
0001
0000
1000
0000
,
0010
0000
0000
0000
,
1000
0000
0001
0000
,
0100
0000
0000
0000
,
0001
0000
1000
0000
,
0100
0000
0010
0000
,
0110
0000
0100
0000
,
1000
0000
0000
0000
,
0001
0000
1000
0000
,
0010
0000
0000
0000
,
1000
0000
0010
0000
,
0100
0000
0000
0000
,
0010
0000
0100
0000
,
0001
0000
1000
0000
,
1001
0000
0001
0000
,
1000
0000
0000
0000
,
0100
0000
1000
0000
,
0010
0000
0000
0000
,
0100
0000
0001
0000
,
0010
0000
0000
0000
,
0100
0000
1000
0000
,
1100
0000
0001
0000
,
1001
0000
0001
0000
,
0100
0000
0100
0000
,
0010
0000
0010
0000
,
1000
0000
1000
0000
,
0001
0000
0010
0000
,
0100
0000
1000
0000
,
0200
0000
0300
0000
,
1000
0000
0000
0000
,
1100
0000
0100
0000
,
1000
0000
1000
0000
,
0001
0000
0100
0000
,
0010
0000
0010
0000
,
0200
0000
0301
0000
,
1000
0000
0100
0000
,
0020
0000
0031
0000
,
0011
0000
0000
0000
,
0001
0000
1000
0000
,
0010
0000
0001
0000
,
0010
0000
0010
0000
,
0100
0000
0100
0000
,
0001
0000
1000
0000
,
0100
0000
0001
0000
,
0100
0000
0100
0000
,
0010
0000
0010
0000
,
0110
0000
0100
0000
,
1000
0000
1000
0000
,
0001
0000
0100
0000
,
0010
0000
1000
0000
,
0001
0000
0010
0000
,
0200
0000
1300
0000
,
0002
0000
0103
0000
,
0020
0000
1030
0000
,
0001
0000
0001
0000
,
0010
0000
0100
0000
,
1000
0000
1000
0000
,
0100
0000
0010
0000
,
0001
0000
0001
0000
,
0100
0000
0010
0000
,
1000
0000
0100
0000
,
0010
0000
0001
0000
,
0011
0000
0010
0000
,
0010
0000
0001
0000
,
1000
0000
0100
0000
,
0100
0000
1000
0000
,
0001
0000
0100
0000
,
0100
0000
0010
0000
,
1000
0000
0000
0000
0001
0000
0000
0010
;

//---------------dance-single - Itsugo15----------------
#NOTES:
     dance-single:
     Itsugo15:
     Medium:
     6:
     0.281,0.404,0.043,0.221,0.000:
0000
0000
0000
0000
,
1000
0000
1000
0000
,
0001
0000
1000
0000
,
1000
0000
0001
0000
,
0010
0000
0010
0000
,
0001
0000
0010
0000
,
0010
0000
0001
0000
,
1001
0000
0001
0000
,
0010
0000
0100
0000
,
1000
0000
0100
0000
,
0010
0000
0001
0000
,
0100
0000
0010
0000
,
1000
0000
0001
0000
,
0010
0000
0100
0000
,
1000
0000
0001
0000
,
1001
0000
1000
0000
,
0010
0000
0100
0000
,
0001
0000
0100
0000
,
0010
0000
1000
0000
,
0001
0000
0010
0000
,
0100
0000
1000
0000
,
0100
0000
0000
0000
0010
0000
0000
0110
,
0000
0000
0001
0000
,
2000
0000
0000
0000
0000
0000
3010
0100
,
0000
0000
0000
0001
0000
0000
1000
0000
,
0100
0000
0010
0000
,
0002
0000
0000
1003
0000
0000
0010
0000
,
0200
0000
0000
0301
0000
0000
0100
0000
,
0020
0000
0000
1030
0000
0000
0001
0000
,
0020
0000
0000
0130
0000
0000
1000
0000
,
0100
0000
0000
0010
0000
0000
0001
0000
,
2000
0000
0000
0000
0000
0000
3010
0100
,
0000
0000
0001
0000
,
1000
0000
0100
0010
,
0002
0000
0000
0013
0000
0000
0100
0000
,
2000
0000
3100
0010
,
0001
0000
1000
0000
,
0010
0000
0100
0001
,
0100
0000
0010
0000
,
0110
0000
0000
0020
0000
0000
1030
0000
,
0100
0000
1000
0010
,
0200
0000
0000
0301
0000
0010
0000
0200
,
0000
0300
1000
0000
,
0100
0000
0000
0010
0000
0000
0002
0000
,
0000
0000
1003
0000
,
0020
0000
0000
0000
0000
0000
0130
0002
,
0000
0003
1000
0000
,
1001
0000
0000
0001
0000
0000
0020
0000
,
0000
0030
0001
0000
,
1000
0000
0000
0010
0000
0100
0000
0002
,
0000
0003
1000
0000
,
0200
0000
0000
0310
,
0001
0000
1000
0010
,
0200
0000
0000
0000
,
0301
0000
0000
0000
,
0200
0000
0000
0000
0310
0000
0000
2000
,
0000
0000
3001
0000
,
0010
0100
1000
0100
,
0010
0000
0001
1000
0000
0000
0010
0000
,
0200
0000
0000
0000
0302
0000
0000
2003
,
0000
0000
0000
0000
3100
0000
0010
0002
,
0000
0013
0100
1000
,
0001
0000
0100
0010
0000
1000
0001
0000
,
0010
0000
0010
0001
0000
0000
1000
0000
,
0010
0000
0100
0002
0000
0000
0000
0103
,
0010
0000
1000
0100
0000
0010
0000
0200
,
0000
0000
1300
0010
,
0100
0000
0001
1000
0000
0100
0000
0020
,
0000
0000
0030
0001
,
2000
0000
0000
0000
0000
3000
0010
0000
,
0200
0000
0000
0302
0000
0000
1003
0000
,
0100
0010
0010
0001
,
0001
1000
0010
0001
,
0001
0010
0010
0100
,
0100
0001
0010
0100
,
0100
1000
0100
0100
,
0010
0010
0001
0100
,
0010
1000
0001
0001
,
0010
0000
0100
0000
1000
0000
0000
1100
,
0000
1000
0001
0001
,
0100
0100
0010
1000
,
0010
0001
0001
0010
,
0010
0100
0001
0010
,
0100
0000
1000
0000
0100
0010
0100
0000
,
1000
0100
1000
0000
0001
0000
0100
0010
,
0000
1000
0100
0010
0001
0010
0100
2000
,
0000
0000
0000
0000
,
3000
0000
0000
0000
;
