#TITLE:Lost Emotion;
#SUBTITLE:POP CULTURE 3;
#ARTIST:Alstroemeria Records;
#TITLETRANSLIT:Lost Emotion;
#SUBTITLETRANSLIT:POP CULTURE 3;
#ARTISTTRANSLIT:Alstroemeria Records;
#GENRE:Touhou;
#CREDIT:Itsugo15;
#BANNER:Lost Emotion-bn.png;
#BACKGROUND:Lost Emotion-bg.png;
#JACKET:Lost Emotion-Jacket.png;
#LYRICSPATH:Lost Emotion.lrc;
#CDTITLE:Itsugo15 SimifileS.png;
#MUSIC:Lost Emotion.mp3;
#OFFSET:-1.445;
#SAMPLESTART:45.900;
#SAMPLELENGTH:30.000;
#SELECTABLE:YES;
#LISTSORT:;
#DISPLAYBPM:172.000;
#BPMS:0.000=86.000,63.000=344.000,67.000=172.000,163.000=43.000,167.000=86.000,171.000=172.000,177.000=344.001,181.000=172.000,245.000=86.000;
#STOPS:;
#TICKCOUNT:0.000=6;
#BGCHANGES:0.000=Lost Emotion-bg1.jpg=1.000=1=1=0,
16.000=Lost Emotion-bg2.jpg=1.000=1=1=0,
32.000=Lost Emotion-bg3.jpg=1.000=1=1=0,
48.000=Lost Emotion-bg4.jpg=1.000=1=1=0,
67.000=Lost Emotion-bg5.jpg=1.000=1=1=0,
99.000=Lost Emotion-bg6.jpg=1.000=1=1=0,
131.000=Lost Emotion-bg7.jpg=1.000=1=1=0,
163.000=Lost Emotion-bg8.jpg=1.000=1=1=0,
167.000=Lost Emotion-bg1.jpg=1.000=0=1=0,
167.500=Lost Emotion-bg2.jpg=1.000=0=1=0,
168.000=Lost Emotion-bg3.jpg=1.000=0=1=0,
168.500=Lost Emotion-bg4.jpg=1.000=0=1=0,
169.000=Lost Emotion-bg5.jpg=1.000=0=1=0,
169.500=Lost Emotion-bg6.jpg=1.000=0=1=0,
170.000=Lost Emotion-bg7.jpg=1.000=0=1=0,
170.500=Lost Emotion-bg8.jpg=1.000=0=1=0,
171.000=Lost Emotion-bg9.jpg=1.000=0=1=0,
177.000=Lost Emotion-bg.png=1.000=1=1=0,
181.000=Lost Emotion-bg10.jpg=1.000=1=1=0,
213.000=Lost Emotion-bg11.jpg=1.000=1=1=0,
245.000=Lost Emotion-bg4.jpg=1.000=1=1=0,
261.000=Lost Emotion-bg.png=1.000=1=1=0,
276.750=blank.bmp=1.000=1=1=0,
99999=-nosongbg-=1.000=0=0=0 // don't automatically add -songbackground-
;
#KEYSOUNDS:;
#ATTACKS:;

//---------------dance-single - Itsugo15----------------
#NOTES:
     dance-single:
     Itsugo15:
     Easy:
     3:
     0.150,0.295,0.057,0.043,0.007:
0000
0000
0000
0000
,
0000
0000
0000
0000
,
0000
0000
0000
0000
,
0000
0000
0000
0000
,
0001
0000
0000
0000
,
0001
0000
0000
0000
,
0001
0000
0000
0000
,
0001
0000
0000
0000
,
0010
0000
0010
0000
,
0100
0000
0100
0000
,
1000
0000
1000
0000
,
0001
0000
0001
0000
,
0100
0000
0100
0000
,
0010
0000
0010
0000
,
1000
1000
1000
1000
,
0002
0000
0000
0003
,
0000
0000
0000
0010
,
0000
0001
0000
0100
,
0000
0010
0000
1000
,
0000
0001
0000
1000
,
0000
0010
0000
0100
,
0000
0001
0000
1000
,
0000
0010
0000
0100
,
0000
0001
0000
1000
,
0000
0010
0000
1000
,
0000
0001
0000
0010
,
0000
0001
0000
0100
,
0000
0010
0000
1000
,
0000
0001
0000
0010
,
0000
0100
0000
1000
,
0000
0001
0000
0010
,
0000
0100
0000
1000
,
0000
0001
0000
0100
,
0000
0010
0000
1000
,
0000
0100
0000
1000
,
0000
0001
0000
0010
,
0000
0001
0000
0100
,
0000
0010
0000
1000
,
0000
0001
0000
0100
,
0000
0010
0000
1000
,
0000
0000
0000
0000
0001
0000
0000
0000
0000
0000
0000
0000
1001
0000
0000
0001
,
0000
0000
0010
0000
0011
0000
0000
0010
0000
0000
0100
0000
1000
0000
1000
0000
,
1000
1000
0001
0001
0001
0001
0200
0000
,
0000
0000
0000
0000
,
0000
0300
0000
0000
,
0000
0010
0000
1000
,
0000
0001
0000
0010
,
0000
0001
0000
1000
,
0000
0010
0000
0100
,
0000
0001
0000
1000
,
0000
0100
0000
0010
,
0000
0001
0000
1000
,
0000
0010
0000
0100
,
0000
0110
0000
0010
,
0000
1000
0000
0001
,
0000
1000
0000
0100
,
0000
0010
0000
0001
,
0000
0100
0000
0001
,
0000
0010
0000
0100
,
0000
1000
0000
0001
,
0000
0100
0000
0010
,
0000
0000
0110
0000
0000
0100
0000
0000
,
0001
0000
0101
0000
0000
0001
0000
0000
,
1000
0000
1001
0000
0000
1000
0000
0000
,
0100
0000
1100
0000
0000
0100
0000
0000
,
0010
0120
0000
0000
,
0030
0010
0002
0000
0000
0000
0000
0000
,
0003
0001
2000
0000
0000
0000
0000
0000
,
0000
0020
0000
0000
,
0000
3030
0000
0000
;

//---------------dance-single - Itsugo15----------------
#NOTES:
     dance-single:
     Itsugo15:
     Challenge:
     11:
     0.673,1.000,0.475,0.596,0.323: // measure 1
0000
0000
0000
0000
,  // measure 2
0000
0000
0000
0000
,  // measure 3
0000
0000
0000
0000
,  // measure 4
0000
0000
0000
0000
,  // measure 5
0002
0000
0003
0020
0000
0030
0200
0000
0300
2000
0000
3000
0001
0000
0100
0000
,  // measure 6
0020
0000
0030
2000
0000
3000
0002
0000
0003
0020
0000
0030
0100
0000
1000
0000
,  // measure 7
0020
0000
0030
0200
0000
0300
0002
0000
0003
2000
0000
3000
0100
0000
0010
0000
,  // measure 8
0002
0000
0003
2000
0000
3000
0020
0000
0030
0200
0000
0300
0001
0000
0020
0000
,  // measure 9
0001
0001
0001
0001
0001
0001
0001
0031
,  // measure 10
0002
1000
1000
1000
1000
1000
1000
1003
,  // measure 11
2000
0010
0010
0010
0010
0010
0010
3010
,  // measure 12
0020
0100
0100
0100
0100
0100
0100
0130
,  // measure 13
0200
0001
0010
0001
0010
0001
1000
0310
,  // measure 14
0002
0100
1000
0100
1000
0010
0100
1003
,  // measure 15
0001
1000
0001
1000
0010
1000
0010
1000
0001
1000
0001
1000
0001
0010
0001
0010
,  // measure 16
0001
1000
0001
1000
0001
1000
0001
1000
0001
1000
0001
1000
0001
1000
0001
1000
0001
1000
0001
1000
0001
1000
0001
1000
0002
0000
0000
0000
0000
0000
0000
0000
,  // measure 17
M000
0M00
00M0
0M00
M000
0000
0103
0010
,  // measure 18
1000
0001
0010
0000
0001
0000
0100
0000
0010
1000
0001
0000
0010
0000
0100
0000
,  // measure 19
1000
0100
0010
0001
1000
0010
0100
0001
,  // measure 20
1000
0100
1000
0000
0001
0000
0100
0000
0001
0100
0001
0000
0100
0000
1000
0000
,  // measure 21
0001
0010
1000
0010
0001
1000
1001
0000
,  // measure 22
0110
0000
0100
0001
0001
1000
1100
0000
,  // measure 23
0110
0000
0010
0001
0001
1000
1001
0000
,  // measure 24
1010
0000
0010
0100
0100
0001
0101
0000
,  // measure 25
1100
0000
0100
0010
0001
0000
0011
0001
,  // measure 26
1000
0010
0100
0000
0001
0000
1000
0000
0100
0010
0001
0000
0100
0000
0100
0000
,  // measure 27
0010
0010
1000
0001
1001
0000
1000
0010
,  // measure 28
0100
0001
1000
0000
0100
0000
0001
0000
1000
0000
0010
0000
0001
0000
1000
0000
,  // measure 29
0100
0100
0010
0010
0001
0001
0011
0000
,  // measure 30
0110
0000
0011
0001
1000
0020
0000
0030
,  // measure 31
1010
0000
1001
1000
0100
0020
0000
0030
,  // measure 32
0110
0000
0011
0001
0100
0020
0000
0030
,  // measure 33
0110
0000
0100
0002
1003
0000
1001
1000
,  // measure 34
0100
0002
0000
1003
0010
0002
0000
1003
,  // measure 35
0010
0001
1000
0100
0001
0000
0101
0100
,  // measure 36
0010
0002
0000
1003
0100
0020
0000
1030
,  // measure 37
0001
0010
1000
0001
0100
1000
1100
0000
,  // measure 38
0110
0000
0010
0001
0100
2000
0000
3000
,  // measure 39
1100
0000
0100
0010
1000
0002
0000
0003
,  // measure 40
1001
0000
1000
0100
0010
2000
0000
3000
,  // measure 41
1010
0000
0000
0000
0000
0000
0000
0000
0010
0000
0000
0000
0002
0000
0000
0000
1003
0000
0000
0000
0000
0000
0000
0000
1001
0000
0000
1000
1100
0000
0110
0000
,  // measure 42
0000
0011
0000
0000
0001
0000
1000
0000
1001
0000
0000
0001
0101
0000
0110
0000
0000
1010
0000
0000
0001
0000
0010
0000
0011
0000
0001
0000
1001
0000
1000
0000
,  // measure 43
1010
1000
1001
0001
0101
0001
1001
1000
1100
1000
1001
0001
0100
0010
1000
0100
,  // measure 44
1000
0010
0100
0001
0010
0001
0100
0010
1000
0010
0100
0001
1000
0100
0010
0001
,  // measure 45
0010
0100
1000
0001
0200
0000
000M
00M0
M000
00M0
000M
M000
00M0
000M
00M0
M000
,  // measure 46
0000
0000
0310
1000
0100
1000
0010
0100
,  // measure 47
0001
0010
0100
1000
0100
0010
0001
1000
,  // measure 48
0010
0100
0002
1003
0200
1300
0002
1003
,  // measure 49
0020
1030
0200
1300
0002
1003
0020
1030
,  // measure 50
0002
0013
0200
1300
0002
0103
0020
1030
,  // measure 51
0002
0013
0200
1300
0002
0103
0020
1030
,  // measure 52
0200
0310
0002
0103
0002
1003
0200
0310
,  // measure 53
0200
1300
0020
0031
0020
0130
0001
1000
,  // measure 54
0100
0010
0110
0100
0010
0001
0100
0010
,  // measure 55
1000
0100
0010
0001
0010
0100
1000
0001
,  // measure 56
0100
0010
2000
3001
0020
0031
2000
3001
,  // measure 57
0200
0301
0020
0031
2000
3001
0200
0301
,  // measure 58
2000
3100
0020
0031
2000
3010
0200
0301
,  // measure 59
2000
3100
0020
0031
2000
3010
0200
0301
,  // measure 60
0020
0130
2000
3010
2000
3001
0020
0130
,  // measure 61
0020
0031
0200
1300
0200
0310
1000
0001
,  // measure 62
0010
0000
0100
0000
0110
0000
0000
0100
1100
0000
1001
0000
0000
0001
0101
0000
,  // measure 63
1001
0000
0011
0000
1001
0000
0000
1000
1100
0000
0110
0000
0000
0010
0011
0000
,  // measure 64
0110
0000
1100
0000
1001
0000
0000
1000
1010
0000
0110
0000
0000
0100
0101
0000
,  // measure 65
0011
0000
1100
0000
1001
0000
0000
0001
0101
0000
1010
0000
0000
1000
1001
0000
,  // measure 66
0110
0000
1001
0000
0120
0000
0000
1000
0000
0000
0100
0000
0000
1000
0000
0000
,  // measure 67
0130
0000
0001
0000
2000
0000
0000
0001
0000
0000
0100
0000
0000
0001
0000
0000
,  // measure 68
3100
0000
0010
0000
0002
0000
0000
0010
0000
0000
1000
0000
0000
0010
0000
0000
,  // measure 69
1000
0000
0010
0000
0200
0000
0000
0010
0000
0000
1000
0000
0000
0010
0000
0000
,  // measure 70
1000
0000
0010
1303
0000
0000
0000
0000
0000
0000
0000
0000
0000
0000
0000
0000
;

//---------------dance-single - Itsugo15----------------
#NOTES:
     dance-single:
     Itsugo15:
     Beginner:
     1:
     0.074,0.121,0.000,0.057,0.000:
0000
0000
0000
0000
,
0000
0000
0000
0000
,
0000
0000
0000
0000
,
0000
0000
0000
0000
,
1000
0000
0000
0000
,
1000
0000
0000
0000
,
1000
0000
0000
0000
,
1000
0000
0000
0000
,
0001
0000
0000
0000
,
0010
0000
0000
0000
,
0100
0000
0000
0000
,
2000
3000
0000
0000
,
0020
0030
0000
0000
,
0200
0300
0000
0000
,
0002
0003
0000
0000
,
2000
0000
0000
0000
,
0000
0000
0000
3001
,
0000
0000
0000
0010
,
0000
0000
0000
0100
,
0000
0000
0000
1000
,
0000
0000
0000
0001
,
0000
0000
0000
0001
,
0000
0000
0000
0001
,
0000
0000
0000
0001
,
0000
0000
0000
1000
,
0000
0000
0000
0100
,
0000
0000
0000
0010
,
0000
0000
0000
0001
,
0000
0000
0000
1000
,
0000
0000
0000
1000
,
0000
0000
0000
1000
,
0000
0000
0000
1000
,
0000
0000
0000
0010
,
0000
0000
0000
0100
,
0000
0000
0000
0001
,
0000
0000
0000
1000
,
0000
0000
0000
0100
,
0000
0000
0000
0100
,
0000
0000
0000
0100
,
0000
0000
0000
0100
,
0000
0000
0000
1000
,
0000
0001
0000
0200
,
0000
0000
0000
0320
,
0000
0000
0000
0000
,
0000
2030
0000
0000
,
0000
3001
0000
0000
,
0000
0010
0000
0000
,
0000
0100
0000
0000
,
0000
1000
0000
0000
,
0000
0001
0000
0000
,
0000
1000
0000
0000
,
0000
0010
0000
0000
,
0000
0100
0000
0000
,
0000
0001
0000
0000
,
0000
1000
0000
0000
,
0000
0100
0000
0000
,
0000
0010
0000
0000
,
0000
0001
0000
0000
,
0000
1000
0000
0000
,
0000
0010
0000
0000
,
0000
0100
0000
0000
,
0000
0001
0000
0000
,
0000
0100
0000
0000
,
0000
0010
0000
0000
,
0000
1000
0000
0000
,
0000
0001
0000
0000
,
0000
0001
0000
0000
,
0000
0001
0000
0000
,
0000
0001
0000
0000
;

//---------------dance-single - Itsugo15----------------
#NOTES:
     dance-single:
     Itsugo15:
     Hard:
     9:
     0.529,0.958,0.340,0.539,0.202:
0000
0000
0000
0000
,
0000
0000
0000
0000
,
0000
0000
0000
0000
,
0000
0000
0000
0000
,
0001
0000
0000
0010
0000
0000
0100
0000
0000
1000
0000
0000
0001
0000
0010
0000
,
0100
0000
0000
1000
0000
0000
0001
0000
0000
0100
0000
0000
0010
0000
1000
0000
,
0001
0000
0000
0010
0000
0000
0100
0000
0000
1000
0000
0000
0001
0000
0010
0000
,
0100
0000
0000
1000
0000
0000
0001
0000
0000
0100
0000
0000
0010
0000
1000
0000
,
0001
1000
0001
1000
0001
1000
0001
0010
,
0100
0010
0100
0010
0100
0010
0100
1000
,
0001
1000
0001
1000
0001
1000
0001
0100
,
0020
1000
1000
0100
0100
1000
1000
0130
,
0002
1000
1000
0010
0010
1000
1000
0013
,
0200
0010
0010
1000
1000
0010
0010
1300
,
0100
1000
0100
1000
0001
1000
0001
1000
0001
0100
0001
0100
0001
0100
0010
0100
,
0040
0400
0000
0000
0000
0000
0000
0000
0000
0000
0000
0000
0000
0000
0000
0000
0000
0000
0000
0000
0000
0000
0000
0000
0330
0000
0000
0000
M000
0000
0000
0000
,
0M00
00M0
0M00
M000
0M00
00M0
0001
1000
,
0010
0200
0000
0310
1000
0002
0000
0013
,
0100
1000
0100
0010
0002
0000
0013
0100
,
1000
0002
0000
0103
0010
2000
0000
3001
,
0010
0001
0100
0010
1000
0001
1001
0000
,
0110
0000
1001
0001
0000
2000
0000
3000
,
1001
0000
1000
0001
0000
2000
0000
3000
,
1001
0000
1000
0001
0000
2000
0000
3000
,
1001
0000
0001
1000
0100
0000
1100
0100
,
0010
0002
0000
0013
0100
2000
0000
3001
,
0100
0001
1000
0001
0100
0000
0010
1000
,
0001
0020
0000
0031
1000
0020
0000
1030
,
0001
0010
0100
1000
0100
0010
0110
0000
,
1001
0000
0001
0100
0000
0020
0000
0030
,
1000
0000
0001
0010
0000
0200
0000
0300
,
1000
0000
0001
0100
0000
0020
0000
0030
,
1000
0000
0001
0020
0000
0030
0011
0001
,
1000
0002
0000
1003
0001
2000
0000
3010
,
0100
0001
1000
0100
0020
0000
0031
0010
,
0001
1000
0000
1000
0010
1000
0000
0001
,
0010
0001
0100
0010
1000
0001
1001
0000
,
1001
0000
0001
0010
0000
0022
0000
0033
,
0001
0000
1000
0010
0000
2020
0000
3030
,
1000
0000
0001
0100
0000
0202
0000
0303
,
0001
0000
0000
0000
0000
0000
0000
0000
1000
0000
0000
0000
0200
0000
0000
0000
0000
0000
0000
0000
0300
0000
0000
0000
1100
0100
1000
0001
0000
0100
0010
1000
,
0000
0100
0010
0001
0010
0100
1000
0000
1100
0100
0010
0001
0000
1000
0010
0100
0000
0001
1000
0100
0010
0001
0010
0100
0110
0000
0000
0000
1001
0000
0000
0000
,
0110
1001
0110
1001
0110
1001
0440
0000
,
0000
0000
0000
0000
,
0000
0000
0330
000M
00M0
0M00
00M0
000M
,
00M0
0M00
1000
0010
0100
0001
0010
0100
,
0010
0001
1000
0100
0010
0001
0010
0100
,
1000
0001
0100
0020
0030
2000
3000
0002
,
0003
0020
0030
0200
0300
2000
3000
0200
,
0300
0010
0001
2000
3000
0020
0030
0200
,
0300
0002
0003
0200
0300
2000
3000
0200
,
0300
0010
1000
0002
0003
0020
0030
0200
,
0300
2000
3000
0020
0030
0200
0300
0002
,
0003
MMMM
0101
0100
0010
1000
0100
0010
,
0100
1000
0001
0010
0100
1000
0100
0010
,
0001
1000
0010
0200
0300
0002
0003
2000
,
3000
0200
0300
0020
0030
0002
0003
0020
,
0030
0100
1000
0002
0003
0200
0300
0020
,
0030
2000
3000
0020
0030
0002
0003
0020
,
0030
0100
0001
2000
3000
0200
0300
0020
,
0030
0002
0003
0200
0300
0020
0030
2000
,
3000
0000
0001
0000
1001
0000
0000
0001
0101
0000
0110
0000
0000
0010
1000
0000
,
1010
0000
1001
0000
0011
0000
0000
0010
0100
0000
0110
0000
0000
0100
1000
0000
,
1100
0000
1001
0000
0101
0000
0000
0100
0010
0000
0110
0000
0000
0010
1000
0000
,
1010
0000
1100
0000
0110
0000
0000
0010
0001
0000
0011
0000
0000
0001
0100
0000
,
0101
0000
0011
0000
0110
0000
0000
0100
0000
0000
1000
0000
0000
0001
0000
0000
,
0100
0000
0010
0000
0110
0000
0000
0100
0000
0000
0001
0000
0000
0010
0000
0000
,
0100
0000
1000
0000
1100
0000
0000
1000
0000
0000
0001
0000
0000
0100
0000
0000
,
0010
0000
1000
0000
1010
0000
0000
0010
0000
0000
0100
0000
0000
0001
0000
0000
,
1000
0000
0100
0002
0003
0000
0000
0000
0000
0000
0000
0000
0000
0000
0000
0000
;

//---------------dance-single - Itsugo15----------------
#NOTES:
     dance-single:
     Itsugo15:
     Medium:
     6:
     0.346,0.516,0.348,0.085,0.074:
0000
0000
0000
0000
,
0000
0000
0000
0000
,
0000
0000
0000
0000
,
0000
0000
0000
0000
,
1000
0000
0000
0000
,
1000
0000
0000
0000
,
0001
0000
0000
0000
,
0001
0000
0000
0000
,
0020
0001
0001
0001
0001
0001
0001
0031
,
0002
1000
1000
1000
1000
1000
1000
1003
,
2000
0010
0010
0010
0010
0010
0010
3010
,
0020
0100
0100
0100
0100
0100
0100
0130
,
0001
1000
0100
0010
0001
0010
0100
1000
,
0001
0100
0010
1000
0010
0100
0001
1000
,
0200
0000
0000
0000
,
2000
0000
0000
3300
,
0000
0000
0000
1001
,
0001
0100
0010
1000
,
0200
0010
0310
0100
,
1000
0001
0100
0010
,
1000
0001
0010
0011
,
0011
0001
1000
1001
,
1001
1000
0010
1010
,
1010
0010
0100
0110
,
0110
0100
0001
0101
,
0100
0001
0010
0100
,
2000
0001
3001
1000
,
0010
0100
0001
1000
,
0100
0010
0001
0011
,
1001
0001
1000
1001
,
1010
1000
0010
1010
,
0110
0010
0100
0110
,
0101
0001
1000
1001
,
0001
0010
0100
1000
,
0002
1000
1003
0001
,
1000
0010
0100
0001
,
1000
0100
0010
0110
,
1001
0001
1000
1001
,
0110
0100
0010
0110
,
1001
1000
0001
1001
,
0110
0000
0000
0000
0010
0000
0000
0000
0100
0000
0000
0000
1000
0000
0000
1010
,
0000
0000
1000
0001
1001
0000
0000
0011
0000
0000
0010
0100
0110
0000
1100
0000
,
1001
0101
0110
1010
1001
0011
0220
0000
,
0000
0000
0000
0000
,
0000
0330
0000
0000
,
0000
0100
1000
0001
,
0100
0010
1000
0010
,
0100
0001
1000
0100
,
0010
0001
0010
0100
,
1000
0001
0100
1000
,
0100
0001
1000
0010
,
0100
0001
1000
0100
,
0001
0100
1000
0001
,
0010
0011
0001
1000
,
0010
0100
0001
0100
,
0010
1000
0001
0010
,
0100
1000
0100
0010
,
0001
1000
0010
0001
,
0010
1000
0001
0100
,
0010
1000
0001
0010
,
1000
0010
0001
1000
,
0100
0000
0000
0000
1100
0000
0000
1000
0000
0000
1001
0000
0000
0001
0000
0000
,
0100
0000
0010
0000
0110
0000
0000
0010
0000
0000
1010
0000
0000
1000
0000
0000
,
0001
0000
0010
0000
0011
0000
0000
0010
0000
0000
0110
0000
0000
0100
0000
0000
,
1000
0000
0001
0000
1001
0000
0000
1000
0000
0000
1010
0000
0000
0010
0000
0000
,
0100
0000
0001
0000
0101
0000
0000
0100
0000
0000
0001
0000
0000
0100
0000
0000
,
0010
0000
1000
0000
0001
0000
0000
1000
0000
0000
0001
0000
0000
1000
0000
0000
,
0001
0000
0010
0000
0100
0000
0000
0010
0000
0000
0100
0000
0000
0010
0000
0000
,
0100
0000
1000
0000
0001
0000
0000
1000
0000
0000
0001
0000
0000
1000
0000
0000
,
0001
0000
0100
0020
0030
0000
0000
0000
0000
0000
0000
0000
0000
0000
0000
0000
;
