#TITLE:Let Me Hear;
#SUBTITLE:寄生獣 セイの格率;
#ARTIST:Fear, and loathing in Las Vegas;
#TITLETRANSLIT:Let Me Hear;
#SUBTITLETRANSLIT:Kiseijuu ~Sei no Kakuritsu~;
#ARTISTTRANSLIT:Fear, and Loathing in Las Vegas;
#GENRE:Anime;
#CREDIT:Huzure & Itsugo;
#BANNER:LMH-bn.png;
#BACKGROUND:LMH-bg.png;
#JACKET:LMH-Jacket.png;
#LYRICSPATH:Let Me Hear.lrc;
#CDTITLE:Collab.png;
#MUSIC:Let Me Hear.mp3;
#OFFSET:0.035;
#SAMPLESTART:61.129;
#SAMPLELENGTH:26.140;
#SELECTABLE:YES;
#LISTSORT:;
#BPMS:0.000=184.000;
#STOPS:;
#TICKCOUNT:0.000=6;
#BGCHANGES:0.750=Kiseijuu OP.avi=1.000=1=0=0,
274.500=LMH-bg.png=1.000=1=0=0,
99999=-nosongbg-=1.000=0=0=0 // don't automatically add -songbackground-
;
#KEYSOUNDS:;
#ATTACKS:;

//---------------dance-single - Huzure----------------
#NOTES:
     dance-single:
     Huzure:
     Challenge:
     11:
     0.916,0.950,0.609,0.199,0.471: // measure 1
0000
0000
0000
0000
,  // measure 2
0000
0000
0000
0000
,  // measure 3
0000
0000
0000
0000
,  // measure 4
0000
0000
0000
0000
,  // measure 5
0000
0000
0000
0000
,  // measure 6
0100
1000
0100
0110
0000
1001
0000
1100
,  // measure 7
0000
0101
0000
0110
0000
1000
0001
0010
,  // measure 8
0100
1000
0100
0110
0000
1001
0000
0101
,  // measure 9
0000
1001
0000
1100
0000
0100
0010
0100
,  // measure 10
1000
0000
0001
0000
0100
0001
0010
0000
0010
0000
0100
0000
1000
0010
0100
0000
,  // measure 11
0100
0000
0001
0000
0010
0001
1000
0000
1000
0000
0100
0000
0010
0001
0010
0000
,  // measure 12
0010
0000
0001
0000
0100
0010
1000
0000
1000
0000
0001
0000
0100
0001
1000
0000
,  // measure 13
1000
0000
0100
0000
0010
0001
0010
0000
0101
0000
0011
0000
2000
0000
0000
0000
,  // measure 14
3001
0000
1000
0000
0001
1000
0100
0000
0100
0000
0010
0000
0001
1000
0010
0000
,  // measure 15
0010
0000
0100
0000
0001
1000
0001
0000
0001
0000
0010
0000
0100
1000
0010
0000
,  // measure 16
0010
0000
0100
0000
0001
0010
0100
0000
0100
0000
1000
0000
0001
1000
0001
0000
,  // measure 17
1100
0000
0000
0000
1100
0000
0000
0000
0100
0010
0100
0010
0100
0000
0000
0000
,  // measure 18
1001
0001
0100
0010
1000
0100
0001
0100
,  // measure 19
1000
0000
0001
0000
0100
0000
0010
0000
1000
0001
0010
0000
0010
0100
1000
0000
,  // measure 20
0001
0010
0100
0010
0001
0100
1000
0100
,  // measure 21
0010
0000
1000
0000
0100
0000
0010
0000
0001
0010
0001
0100
0001
1000
0100
1000
,  // measure 22
0010
0100
0010
1000
0100
1000
0001
0010
,  // measure 23
1000
0000
0001
0000
1000
0000
0010
0000
0001
0100
0010
0000
0010
1000
0001
0000
,  // measure 24
0100
0010
1000
0100
0010
0001
1000
0010
,  // measure 25
0100
0001
0100
0001
1000
0100
1000
0100
0010
0001
0010
0100
1000
0000
0000
0000
,  // measure 26
0011
0001
0001
0010
0100
2000
3000
0001
,  // measure 27
1100
0000
0001
1010
0000
2000
3010
0010
,  // measure 28
0100
0100
0001
2000
3200
0320
0030
0001
,  // measure 29
1000
0000
1000
0000
0110
0000
0000
0000
0101
0000
0000
0000
0100
0010
1000
0000
,  // measure 30
0001
0010
0100
0010
0001
0010
0000
0100
,  // measure 31
0110
0000
1000
1001
0000
0210
0010
0301
,  // measure 32
0000
1000
0010
2000
3002
0023
0030
0100
,  // measure 33
0010
0100
0010
0002
2003
0000
3010
1000
,  // measure 34
1010
0000
0001
0000
0010
0000
0001
0000
1000
0000
0010
1000
0010
0000
0100
0000
,  // measure 35
0001
0010
0000
0010
0100
0000
1000
0000
0010
0000
0100
0010
0100
0000
0001
0100
,  // measure 36
0001
0000
1000
0010
1000
0000
0001
0000
0100
0000
0010
0100
0001
0000
1000
0000
,  // measure 37
0100
0000
0000
0000
0001
0000
0000
0000
0100
0000
0000
0000
1000
0000
0000
0000
0000
0000
0010
0000
0000
0000
0000
0000
0100
0000
0000
0000
0000
0000
0001
0000
0000
1000
0000
0000
0000
0000
0000
1000
0000
0000
0001
0000
0000
0000
0000
0000
,  // measure 38
1000
0000
0100
0000
1000
0000
0100
0000
0010
0000
0001
0100
0010
0000
0100
0000
,  // measure 39
0001
0000
0000
0000
0100
0000
0000
0000
1000
0000
0000
0000
0100
0000
0000
0000
0000
0000
0010
0000
0000
0000
0000
0000
1000
0000
0000
0000
0000
0000
0100
0000
0000
0010
0000
0000
0000
0000
0000
0010
0000
0000
0001
0000
0000
0000
0000
0000
,  // measure 40
0100
0000
0010
0000
0100
0000
0001
0000
0010
0000
0010
0100
1000
0000
0001
0000
,  // measure 41
0100
0101
1001
0000
1100
0011
2000
0001
,  // measure 42
3001
1000
1000
1100
0001
0001
0011
1000
,  // measure 43
1000
0000
1100
0000
0001
0000
0001
0000
0011
0000
1000
0000
0100
1000
0100
0010
,  // measure 44
0001
0100
0001
0101
1000
0010
1010
0001
,  // measure 45
0100
0101
0001
1000
1100
0000
1010
0000
,  // measure 46
0001
0010
0001
1000
0001
0010
0001
1000
0100
0010
0100
0010
0001
1000
0100
1000
,  // measure 47
0000
0000
0000
0000
,  // measure 48
0012
0000
0000
0000
0000
0000
1000
0000
0100
0000
1000
0000
0000
0000
1003
0001
,  // measure 49
0010
0000
0010
0000
0000
0000
0110
0000
0110
0000
0100
0000
1000
0001
1000
0001
,  // measure 50
2000
0000
0000
0000
0000
0000
3001
0000
0011
0000
0100
0000
0000
0000
1000
0001
,  // measure 51
1000
0000
0010
0000
0000
0000
1000
0000
0100
0010
0001
0010
0100
0000
1000
0000
,  // measure 52
0001
0000
0000
0000
0000
0000
1000
0000
0101
0000
0001
0000
0000
0000
0010
0001
,  // measure 53
1000
0000
1000
0000
0000
0000
0011
0000
0101
0000
0000
0000
0100
0010
1000
0001
,  // measure 54
0100
0000
0000
0000
0000
0000
0001
0000
1001
0000
0100
0000
0000
0000
0100
0001
,  // measure 55
1000
0000
0100
0000
0000
0000
0100
0000
0110
0000
0010
0001
0010
0001
0100
0001
,  // measure 56
1000
0000
0000
0000
0001
0000
0010
0000
1100
0000
1000
0000
0000
0000
0001
0100
,  // measure 57
0010
0000
1000
0000
0000
0000
1000
0000
0001
0000
0000
0000
0010
0001
0010
0001
,  // measure 58
1000
0000
0000
0000
0000
0000
0100
0000
0110
0000
1000
0000
0000
0000
0001
0100
,  // measure 59
0001
0000
0001
0000
0000
0000
0010
0000
0001
0000
1000
0010
1000
0000
0001
0000
,  // measure 60
0011
0000
0000
0000
0000
0000
1000
0000
1010
0000
0010
0000
0000
0000
1000
0001
,  // measure 61
1000
0000
0010
0000
0000
0000
0010
0000
0100
0000
0001
0000
1000
0010
1000
0010
,  // measure 62
0100
0001
0010
0100
1000
0010
0100
0001
,  // measure 63
2000
0000
0020
0000
3000
0000
0130
0000
0010
0000
0100
0000
0001
0000
1000
0001
,  // measure 64
1000
0000
1100
0000
0000
0000
0100
0000
0101
0000
0100
0000
0110
0000
0010
0100
,  // measure 65
1000
0000
0001
0000
1000
0000
0100
0010
0100
0000
0100
1000
0100
0000
0100
0010
,  // measure 66
0001
0000
0100
0000
0010
0000
1000
0000
0010
0000
0001
0000
0010
0000
1000
0100
,  // measure 67
0010
0000
0001
0000
0100
0000
0000
0001
0100
0000
0011
0000
0110
0000
0000
0000
,  // measure 68
2000
0000
0000
0000
,  // measure 69
0000
0000
0000
0000
0000
3000
0000
0000
;

//---------------dance-single - Huzure----------------
#NOTES:
     dance-single:
     Huzure:
     Hard:
     9:
     0.715,0.760,0.399,0.144,0.144:
0000
0000
0000
0000
,
0000
0000
0000
0000
,
0000
0000
0000
0000
,
0000
0000
0000
0000
,
0000
0000
0000
0000
,
1000
0100
2000
0001
0000
0010
0000
0100
,
0000
0010
0000
0001
0000
3001
0010
0100
,
1000
0010
2000
0001
0000
0100
0000
0010
,
0000
0100
0000
0001
0000
3010
1000
0100
,
0010
0000
0011
0000
0001
1000
1100
0000
,
0010
0000
1001
0000
1000
0001
0101
0000
,
1000
0000
0110
0000
0001
1000
0011
0000
,
0010
0000
1001
0000
1000
1000
0200
0000
,
1000
0300
1100
0000
1000
0001
1001
0000
,
0100
0000
0110
0000
0010
1000
0101
0000
,
0001
0000
1010
0000
0010
1000
1001
0000
,
0011
0000
0000
0000
0011
0000
0000
0000
1000
0100
1000
0100
1000
0000
0000
0000
,
0001
0100
0010
1000
0100
0000
0100
1000
,
0010
0100
0001
0000
0011
0000
0101
0000
,
1000
0001
0010
0100
1000
0000
1000
0001
,
0010
1000
0010
0000
0011
0000
0001
1000
,
0100
0010
0100
0001
0100
0000
1000
0010
,
1000
0001
0100
0000
0110
0000
0010
1000
,
0001
0010
1000
0010
0001
0000
0010
0100
,
0001
0000
0100
0000
1000
0000
0000
0000
0001
1000
0001
1000
0001
0000
0000
0000
,
1000
0100
1000
0010
0001
0010
0000
1000
,
0100
0000
0100
0010
0000
0001
1000
0100
,
0000
0100
0001
0100
1000
0010
0000
1000
,
0001
0100
0002
0003
0100
0000
1000
0100
,
0000
0001
0010
0100
1000
0100
0000
0010
,
0110
0000
0001
1001
0000
1000
0010
0100
,
0000
0001
0100
0001
0010
0100
0000
1000
,
0010
1000
0001
0010
0002
0000
1003
0010
,
0110
0010
1000
2000
0001
0001
3000
1000
,
0001
0100
0010
0020
1000
1000
0030
0001
,
0010
0001
0100
0200
0010
0001
0300
1010
,
0000
0010
1000
0100
0010
0000
0001
1000
,
0100
0010
0100
0001
0100
0010
0100
1000
,
0001
0000
0010
0000
0100
0000
1000
0000
0000
0001
0000
0000
0000
0000
0000
0100
0000
0000
0110
0000
0000
0100
0000
0000
,
0001
0010
1000
0010
0001
0010
0100
0000
,
1000
0001
0011
0000
1100
1000
0001
0100
,
0001
0010
0100
0001
0100
1000
0001
0010
,
0100
0000
0001
0000
0100
0000
1000
0000
1100
0000
0000
0000
0100
0010
0100
0010
,
0001
0010
0100
0001
0100
1000
0001
0010
,
0100
0001
0100
1000
0001
0000
0101
0000
,
0100
0010
0000
0000
1000
0001
0000
0000
0100
0010
1000
0100
1000
0010
0100
0001
,
0000
0000
0000
0000
,
2000
0000
0000
0001
0010
0001
3000
1000
,
1000
0000
0011
0000
0000
0000
0001
0000
0100
0000
0000
0000
0100
0001
0100
0001
,
1000
0000
0000
0010
0110
0100
0000
0001
,
0010
0011
0000
0001
1000
0100
0001
0100
,
1000
0000
0000
0001
0101
0100
0001
1000
,
0100
0010
0000
0010
0001
0000
2000
0000
,
3010
0000
0000
0000
0000
0000
1000
0000
0010
0000
1000
0000
0000
0000
0010
0100
,
0010
0000
1000
0000
0000
0000
0001
0000
1000
0000
0100
1000
0100
1000
0100
1000
,
0001
0000
0010
0001
0010
0100
0000
1000
,
0001
0000
1001
0000
0000
0000
0100
0000
0110
0000
0000
0000
0001
0100
0001
0100
,
0001
0000
1000
0010
0100
0001
0000
1000
,
1000
0000
0010
0000
0000
0000
1000
0000
0001
0000
0010
0001
0010
0000
0001
0000
,
1000
0000
0000
0010
0100
0001
0000
0010
,
0010
0110
0000
0100
1000
0000
0001
0000
,
1001
0000
1000
0000
0001
0100
0010
1000
,
0200
1000
0300
0001
0100
0010
1000
0100
,
0020
0001
0030
1000
0010
0100
0001
1000
,
0100
0000
0010
0000
0001
0000
1000
0001
1000
0000
1000
0010
1000
0000
1000
0001
,
1000
0010
0100
0010
0001
0010
0100
0010
,
1000
0001
0010
0000
0010
0001
1000
0000
,
0200
0000
0000
0000
,
0000
0000
0000
0000
0000
0300
0000
0000
;

//---------------dance-single - Huzure----------------
#NOTES:
     dance-single:
     Huzure:
     Medium:
     6:
     0.498,0.532,0.188,0.299,0.000:
0000
0000
0000
0000
,
0000
0000
0000
0000
,
0000
0000
0000
0000
,
0000
0000
0000
0000
,
0000
0000
0000
0000
,
0000
0000
0000
0100
0000
0100
0000
0010
,
0000
0010
0000
0001
0000
0010
0100
1000
,
0000
0000
0000
0100
0000
0100
0000
0010
,
0000
0010
0000
0001
0000
0010
0100
1000
,
0000
0011
1000
1100
,
0001
0101
1000
1010
,
0001
0110
0001
1001
,
1000
0000
0110
0000
0010
1000
0020
0000
,
0100
0030
0010
0000
1000
0001
1000
0000
,
0001
0000
0100
0000
0010
0100
0010
0000
,
1000
0000
0001
0000
0100
0001
0100
0000
,
0020
0000
0200
0030
0301
1000
0100
0000
,
0010
0001
1000
0100
0000
0000
0020
0000
,
0000
0031
0000
0000
1000
0000
1000
0000
,
0001
0100
0010
1000
0000
0000
0002
0000
,
0000
0103
0000
0000
0010
0000
0010
0000
,
1000
0100
0010
0001
0000
0000
2000
0000
,
0000
3001
0000
0000
1000
0000
1000
0000
,
0100
0010
0001
0010
0000
0000
0200
0000
,
0000
1300
0000
0000
0002
0000
0003
0000
,
1000
0000
0001
0000
0010
0001
0000
0100
,
0010
0000
0100
0001
0000
1000
0100
1000
,
0000
0001
1000
0100
1000
0000
0001
0100
,
0000
0000
0110
0000
0101
0000
0001
1000
,
0001
0000
0000
1000
0100
0010
0000
0000
,
0002
0003
0000
0200
0300
0000
0010
1000
,
0100
0000
0010
0001
0100
0010
0000
0000
,
1000
0001
1000
0000
0010
0100
0010
0000
,
1001
0000
0001
0000
1000
0100
1000
0000
,
0010
0100
0001
0100
0010
0000
1000
0000
,
0100
1000
0010
0000
0100
0001
0010
0000
,
0100
1000
0010
0100
0001
1000
0100
0000
,
0010
0000
0010
0001
1000
0001
0010
0000
,
0100
1000
0100
0010
0001
0100
0001
0000
,
1000
0000
0010
0000
0100
0010
0100
0000
,
0001
1000
0100
0000
0100
0010
0001
0000
,
2000
0000
0000
0020
0000
3000
0200
0000
,
0030
0002
0000
0300
1003
0000
1100
0000
,
0002
0000
0000
2000
0000
0003
0020
0000
,
3000
0200
0000
0030
0301
0000
0101
0000
,
1000
0000
1000
0000
0100
0010
0001
2000
,
0000
0000
3000
0000
,
0021
0000
0000
0000
,
0031
1000
0000
1000
0001
0000
0100
0010
,
0100
0000
0101
0000
,
0001
0100
0000
0010
0200
0000
0310
0000
,
1000
0000
0000
0100
1000
0100
0000
0000
,
0110
0000
0002
1003
,
2000
0000
3010
0000
,
0200
0000
0000
0000
0301
0000
1000
0100
,
0010
0000
1001
0000
,
0001
1000
0000
0001
1000
0000
0020
0000
,
0130
0000
0000
0000
0001
0000
0000
1000
,
0010
0100
0000
0100
0001
0000
1000
0100
,
2000
0000
3001
0000
,
0010
0001
0000
1000
0100
0000
0110
0000
,
0010
0000
0001
0000
1000
0100
1000
0000
,
0001
0000
0100
0000
0010
0100
0010
0000
,
1000
0000
0001
0000
0100
0001
0100
0000
,
0010
1000
0100
0000
0100
1000
0010
0000
,
0100
0001
1000
0001
,
0010
0100
1000
0000
0010
1000
0010
0000
,
0200
0000
0000
0000
,
0000
0000
0000
0000
0000
0300
0000
0000
;

//---------------dance-single - Huzure----------------
#NOTES:
     dance-single:
     Huzure:
     Beginner:
     1:
     0.104,0.152,0.033,0.089,0.000:
0000
0000
0000
0000
,
0000
0000
0000
0000
,
0000
0000
0000
0000
,
0000
0000
0000
0000
,
0000
0000
0000
0000
,
0000
0000
0000
0000
,
0000
0000
0000
0000
,
0000
0000
0000
0000
,
0000
0000
0000
0000
,
1000
0000
0000
0000
,
0001
0000
0000
0000
,
1000
0000
0000
0000
,
0100
0000
0000
0000
,
1000
0000
0000
0000
,
0001
0000
0000
0000
,
1000
0000
0000
0000
,
0200
0000
0300
0000
,
0220
0000
0000
0000
,
0000
0000
0000
0330
,
0001
0000
0000
0000
,
0000
1000
0000
0000
0000
0000
0000
0000
,
0100
0000
0000
0000
,
0000
0010
0000
0000
0000
0000
0000
0000
,
0001
0000
0000
0000
,
1000
0000
0000
0000
,
0001
0000
0000
0000
,
0100
0000
0000
0000
,
0001
0000
0000
0000
,
1000
0000
0000
0000
,
0100
0000
0000
0000
,
1000
0000
0000
0000
,
0010
0000
0000
0000
,
0100
0000
0000
0000
,
0100
0000
0000
0000
,
0010
0000
0000
0000
,
1000
0000
0000
0000
,
0100
0000
0000
0000
,
0010
0000
0000
0000
,
0001
0000
0000
0000
,
0100
0000
0000
0000
,
0001
0000
0000
0000
,
2000
0000
0000
0000
,
0000
0000
0000
3000
,
0002
0000
0000
0000
,
0000
0000
0000
0003
,
0200
0000
0000
0000
,
0300
0000
0000
0000
,
0021
0000
0000
0030
,
0001
0000
0000
0000
,
1000
0000
0000
0000
,
0100
0000
0000
0000
,
0110
0000
0000
0000
,
0010
0000
0000
0000
,
0001
0000
0000
0000
,
1000
0000
0000
0000
,
0010
0000
0000
0000
,
1000
0000
0000
0000
,
0001
0000
0000
0000
,
0010
0000
0000
0000
,
0100
0000
0000
0000
,
1000
0000
0000
0000
,
0001
0000
0000
0000
,
0100
0000
0000
0000
,
0001
0000
0000
0000
,
0100
0000
0000
0000
,
0010
0000
0000
0000
,
1000
0000
0000
0000
,
0200
0000
0000
0000
,
0000
0000
0000
0000
0000
0300
0000
0000
;

//---------------dance-single - Huzure----------------
#NOTES:
     dance-single:
     Huzure:
     Easy:
     4:
     0.334,0.342,0.044,0.266,0.000:
0000
0000
0000
0000
,
0000
0000
0000
0000
,
0000
0000
0000
0000
,
0000
0000
0000
0000
,
0000
0000
0000
0000
,
0000
0000
0000
1000
0000
0100
0000
0010
,
0000
0001
0000
0010
0000
0100
0000
1000
,
0000
0000
0000
1000
0000
0100
0000
0010
,
0000
0001
0000
0010
0000
0100
0000
1000
,
0000
0002
0003
0002
,
0003
0002
0003
0002
,
0003
0002
0003
0002
,
0003
0002
1003
0000
,
0000
0200
0300
0200
,
0300
0200
0300
0200
,
0300
0200
0300
0200
,
1300
1100
1000
0000
,
0001
0000
0000
0100
0000
0000
0010
0000
,
0000
1000
0000
0000
0001
0000
0100
0000
,
0010
0000
0000
1000
0000
0000
0100
0000
,
0000
0010
0000
0000
0001
0000
1000
0000
,
0100
0000
0000
1000
0000
0000
0010
0000
,
0000
0100
0000
0000
0001
0000
0010
0000
,
0100
0000
0000
0010
0000
0000
0001
0000
,
0000
1000
0000
0000
0020
0000
0030
0000
,
1000
0001
0100
0001
,
1000
0100
1000
0010
,
0100
0001
0010
0100
,
1000
0010
0100
0010
,
1000
0001
1000
0001
,
0100
0010
0100
0010
,
1000
0100
1000
0001
,
0100
0010
0100
0001
,
0002
0003
0000
1000
,
2000
3000
0000
0100
,
0200
0300
0000
0010
,
0001
1000
0000
0001
,
0000
0100
0000
0010
,
0000
1000
0001
1000
,
0000
0001
0000
0001
,
0010
0100
0200
0000
,
1300
0000
0000
0001
0000
0000
0100
0000
,
0000
0010
0000
0000
1000
0000
0100
0000
,
0010
0000
0000
0001
0000
0000
0100
0000
,
0000
0010
0000
0000
1000
0000
0001
0000
,
0010
0000
0110
0000
,
0200
0000
0300
0000
,
2001
0000
0000
0000
,
3001
0000
0000
1000
0000
0000
0100
0000
,
1000
0000
0000
0001
0000
0000
0000
0020
,
0000
0000
0000
0000
0030
0000
0001
0100
,
0001
0000
0000
1000
0000
0000
0100
0000
,
0010
0000
0110
0000
,
0001
0000
1000
0000
,
0100
0000
1000
0001
,
0100
0000
0010
1000
0020
0000
0000
0030
,
0100
0000
0000
0001
0000
0000
1000
0000
,
0010
0000
0000
0100
0000
0000
0010
0000
,
1000
0000
0000
0001
0000
0000
0001
0000
,
0020
0000
0000
0030
0000
0000
0010
0000
,
0001
0000
0000
1000
0000
0000
0010
0000
,
0100
0001
1000
0010
,
0100
0010
1000
0001
,
0010
0001
1000
0100
,
0010
0001
0010
0100
,
1000
0001
0100
0010
,
1000
0000
0100
0000
1000
0100
1000
0000
,
0002
0000
0000
0000
,
0000
0000
0000
0000
0000
0003
0000
0000
;

//---------------dance-single - MiGi----------------
#NOTES:
     dance-single:
     MiGi:
     Edit:
     14:
     1.000,1.000,1.000,0.554,0.576: // measure 1
0000
0000
0000
0000
,  // measure 2
1002
1000
1000
1000
,  // measure 3
1000
1000
1000
1000
,  // measure 4
1000
1000
1000
1000
,  // measure 5
1000
1000
1000
1000
,  // measure 6
1000
1000
1000
1000
,  // measure 7
1000
1000
1000
1000
,  // measure 8
1000
1000
1000
1000
,  // measure 9
1000
1000
1000
1000
,  // measure 10
2003
3101
2000
3101
,  // measure 11
2000
3101
2000
3101
,  // measure 12
2000
3101
2000
3101
,  // measure 13
2000
0000
3101
0000
1010
2010
3202
0000
,  // measure 14
1303
0022
1033
0022
,  // measure 15
1033
0022
1033
0022
,  // measure 16
1033
0022
1033
0022
,  // measure 17
1033
0000
0000
0000
1001
0000
0000
0000
0001
0010
0100
1000
0001
0000
0000
0000
,  // measure 18
1001
0001
0100
0101
0001
1000
1001
1000
,  // measure 19
0100
0000
1100
0000
0100
0000
0010
0000
0001
0010
0001
0000
1000
0100
1000
0000
,  // measure 20
1100
0100
0010
0110
0010
0001
0011
0001
,  // measure 21
1000
0000
1001
0000
0001
0000
0100
0000
0001
1000
0001
0010
0001
1000
0010
0100
,  // measure 22
0001
1000
0001
1001
1000
0010
1010
0010
,  // measure 23
0100
0000
0110
0000
0100
0000
0001
0000
0010
0001
1000
0000
0001
1000
0010
0000
,  // measure 24
1010
1000
0001
1001
1000
0100
1100
1000
,  // measure 25
0001
0010
0001
0010
0001
1000
0001
1000
0010
1000
0001
0010
0100
0000
0000
0000
,  // measure 26
0110
0000
0010
0001
0010
0000
0001
1000
0001
0000
1000
0010
1000
0000
0001
1000
,  // measure 27
0001
0000
0010
0001
0010
0000
0100
0010
0100
0000
0010
0101
0010
0000
0001
1000
,  // measure 28
0001
0000
1000
0010
1000
0000
0001
0100
0001
0000
0100
0010
0100
0000
0010
1000
,  // measure 29
0010
0000
1000
0001
1000
0000
0001
0010
0001
0000
1000
0101
1000
0000
0001
1000
,  // measure 30
0001
0000
0100
0001
0100
0000
0001
1000
0001
0000
1000
0100
1000
0000
0001
1000
,  // measure 31
0001
0000
0100
0001
0100
0000
0010
0100
0010
0000
0100
0011
0100
0000
0001
1000
,  // measure 32
0001
0000
1000
0100
1000
0000
0001
0010
0001
0000
0010
0100
0010
0000
0100
1000
,  // measure 33
0100
0000
1000
0001
1000
0000
0001
0010
0001
0000
1000
0011
1000
0000
0001
1000
,  // measure 34
0001
0100
0001
0100
0001
0000
1000
0000
0100
0000
0010
0001
0010
0000
0100
0000
,  // measure 35
1000
0001
0000
0001
1000
0000
0010
0000
0100
0000
0001
0100
1000
0000
0100
0010
,  // measure 36
1000
0000
0001
0010
0100
0000
1000
0000
0001
0000
0010
0100
1000
0000
0100
0000
,  // measure 37
0010
0000
0000
0000
0001
0000
0000
0000
1000
0000
0000
0000
0010
0000
0000
0000
0000
0000
1010
0000
0000
0000
0000
0000
1000
0000
0000
0000
0000
0000
0001
0000
0000
0010
0000
0000
0000
0000
0000
0010
0000
0000
0100
0000
0000
0000
0000
0000
,  // measure 38
0110
0000
0100
0000
1100
0000
0001
0000
0101
0000
0100
0001
1000
0000
0100
0000
,  // measure 39
0001
0000
0000
0000
0100
0000
0000
0000
0010
0000
0000
0000
0001
0000
0000
0000
0000
0000
1000
0000
0000
0000
0000
0000
0010
0000
0000
0000
0000
0000
0100
0000
0000
0001
0000
0000
0000
0000
0000
1000
0000
0000
0100
0000
0000
0000
0000
0000
,  // measure 40
1100
0000
1000
0000
0001
0000
0101
0000
0100
0000
0010
1000
0001
0000
1000
0000
,  // measure 41
0100
0000
1100
0000
1100
0000
0001
0000
0101
0000
0101
0000
2001
0000
0100
3000
,  // measure 42
1100
1000
0001
1001
0100
0010
0110
0100
,  // measure 43
0001
0000
0101
0000
1000
0000
0001
0000
1001
0000
1000
0000
0100
1010
0100
1010
,  // measure 44
0101
0001
1000
1001
0001
0100
0101
1000
,  // measure 45
0020
2130
0001
0001
3201
1300
1001
0001
,  // measure 46
0001
0100
0001
1000
0100
0010
0001
1000
0010
0100
0010
0100
0001
1000
0100
0020
,  // measure 47
0000
0000
0000
0000
0000
0000
0000
0030
0000
0000
0000
0000
0000
0000
0000
0000
,  // measure 48
2212
0000
0000
0000
0003
0000
0010
0000
0001
0000
0001
0000
0000
0000
3301
1000
,  // measure 49
0200
0000
1000
0000
0000
0000
1010
0000
0010
0000
1300
0000
0100
0010
0100
0010
,  // measure 50
0002
0000
0000
0000
0000
0000
1000
0000
1010
0000
0010
0000
0000
0000
1003
0001
,  // measure 51
1000
0000
0020
0000
0000
0000
0130
0000
0001
1000
0100
0010
0001
0000
1000
0000
,  // measure 52
2001
0000
0000
0000
0000
0000
0001
0000
0101
0000
0100
0000
0000
0000
3100
1000
,  // measure 53
0010
0000
0200
0000
0000
0000
0312
0000
1100
0000
0000
0000
1003
0100
0010
0001
,  // measure 54
2000
0000
0000
0000
0000
0000
0100
0000
0101
0000
0001
0000
0000
0000
3001
0100
,  // measure 55
0010
0000
2000
0000
0000
0000
3001
0000
1001
0000
1000
0100
0010
0100
1000
0001
,  // measure 56
0200
0000
0000
0000
0001
0000
0010
0000
0011
0000
0010
0000
0000
0000
0310
1000
,  // measure 57
0100
0000
2000
0000
0000
0000
0100
0000
0001
0000
0000
0000
3001
1000
0010
0100
,  // measure 58
0002
0000
0000
0000
0000
0000
1000
0000
1100
0000
0100
0000
0000
0000
0103
0001
,  // measure 59
0010
0000
0002
0000
0000
0000
0013
0000
0011
0000
0001
1000
0100
0000
0010
0000
,  // measure 60
0120
0000
0000
0000
0000
0000
0100
0000
0101
0000
0001
0000
0000
0000
0031
1000
,  // measure 61
0010
0000
0200
0000
0000
0000
0301
0000
0101
0000
0002
0000
1003
0001
1000
0100
,  // measure 62
1100
0100
1000
0001
1001
0010
1001
0100
,  // measure 63
1001
0020
0000
1030
0110
0001
0110
1000
,  // measure 64
0110
0000
0101
0000
0001
0000
1000
0000
1001
0000
1000
0000
1100
0000
1000
0001
,  // measure 65
0100
0000
0101
0000
0100
0000
0010
1000
0001
0000
0010
0001
1000
0000
0100
1000
,  // measure 66
0001
0000
1000
0000
1001
0000
0001
0000
0011
0000
0010
0000
0110
0000
0100
1000
,  // measure 67
0001
0000
0100
0000
0101
0000
0000
0001
1001
0000
1001
0000
1001
0000
0000
0000
,  // measure 68
0222
0000
0000
0000
,  // measure 69
0000
0000
0000
0000
0000
0333
0000
0000
;
