#TITLE:Laughing;
#SUBTITLE:So, All we have (not) created equal;
#ARTIST:回路-kairo-;
#TITLETRANSLIT:Laughing;
#SUBTITLETRANSLIT:So, All we have (not) created equal;
#ARTISTTRANSLIT:回路-kairo-;
#GENRE:Otaku's Dream 4th Mix (Pad);
#CREDIT:Itsugo15;
#BANNER:Laughing-bn.png;
#BACKGROUND:Laughing-bg.png;
#JACKET:Laughing-Jacket.png;
#LYRICSPATH:Laughing.lrc;
#CDTITLE:Itsugo15 SimifileS.png;
#MUSIC:Laughing.mp3;
#OFFSET:-0.295;
#SAMPLESTART:67.250;
#SAMPLELENGTH:30.000;
#SELECTABLE:YES;
#LISTSORT:;
#BPMS:0.000=175.000;
#STOPS:;
#TICKCOUNT:0.000=6;
#BGCHANGES:4.000=Laughing-bg10.jpg=1.000=1=1=0,
20.000=Laughing-bg5.jpg=1.000=1=1=0,
36.000=Laughing-bg11.jpg=1.000=1=1=0,
52.000=Laughing-bg12.jpg=1.000=1=1=0,
63.500=Laughing-bg9.jpg=1.000=0=1=0,
68.000=Laughing-bg13.jpg=1.000=1=1=0,
84.000=Laughing-bg14.jpg=1.000=1=1=0,
100.000=Laughing-bg15.jpg=1.000=1=1=0,
128.500=Laughing-bg.png=1.000=0=1=0,
132.000=Laughing-bg16.jpg=1.000=1=1=0,
164.000=Laughing-bg2.jpg=1.000=1=1=0,
191.500=Laughing-bg3.jpg=1.000=0=1=0,
196.000=Laughing-bg4.jpg=1.000=1=1=0,
228.000=Laughing-bg1.jpg=1.000=1=1=0,
260.000=Laughing-bg6.jpg=1.000=1=1=0,
292.000=Laughing-bg8.jpg=1.000=1=1=0,
324.000=Laughing-bg7.jpg=1.000=1=1=0,
336.000=Laughing-bg.png=1.000=1=1=0,
99999=-nosongbg-=1.000=0=0=0 // don't automatically add -songbackground-
;
#KEYSOUNDS:;
#ATTACKS:;

//---------------dance-single - Itsugo15----------------
#NOTES:
     dance-single:
     Itsugo15:
     Challenge:
     10:
     0.742,0.828,0.786,0.353,0.197: // measure 1
0000
0000
0000
0000
,  // measure 2
2000
0000
0000
3001
0000
0100
0010
1000
,  // measure 3
0100
0010
0100
1000
0010
0100
1000
0100
,  // measure 4
0020
0000
0000
1030
0000
0001
0010
0100
,  // measure 5
0001
0100
0010
0001
0100
0010
0001
0010
,  // measure 6
0200
0000
0000
0301
0000
1000
0100
0010
,  // measure 7
1000
0010
0100
1000
0010
0100
1000
0100
,  // measure 8
0020
0000
0000
1030
0000
0100
0010
0001
,  // measure 9
0100
0010
0001
0010
0100
0001
0020
0030
,  // measure 10
0012
1000
0000
1000
,  // measure 11
2003
0010
3020
0100
,  // measure 12
0230
0001
0000
0001
,  // measure 13
0302
1000
2003
0100
,  // measure 14
3200
0010
0000
0010
,  // measure 15
0320
0001
0032
0100
,  // measure 16
0203
0000
0010
0000
0010
0310
0000
0110
,  // measure 17
M000
00M0
000M
0M00
M000
0000
0000
0000
,  // measure 18
1001
0000
0001
0101
0000
0100
0110
0010
,  // measure 19
1000
0001
1001
1000
0100
0010
0110
0000
,  // measure 20
0011
0000
0001
1000
0000
1000
0001
0011
,  // measure 21
0000
0000
1001
0000
0000
0000
1010
0000
1000
0000
0100
0010
0001
0000
1000
0010
,  // measure 22
1010
0000
0001
0101
0000
0100
0110
0010
,  // measure 23
1000
0001
1001
1000
0100
0010
0110
0000
,  // measure 24
0011
0000
0001
1000
0000
1000
0001
0011
,  // measure 25
0000
0000
1001
0000
0000
0000
1010
0000
1000
0000
0100
0010
0001
0000
1000
0010
,  // measure 26
0200
0000
0001
0000
0310
0000
1001
1002
,  // measure 27
0000
1000
0103
0011
0000
1001
1000
0010
,  // measure 28
1010
0000
0101
0000
1100
0000
1000
1001
,  // measure 29
0000
0001
0100
0110
0000
0110
0100
0001
,  // measure 30
0101
0000
0100
0001
0010
0001
0100
0101
,  // measure 31
0001
0000
0010
0000
0001
0000
0101
0000
1000
0000
1100
0000
0100
0000
1000
0010
,  // measure 32
0200
0301
0001
1000
1000
0100
0010
0110
,  // measure 33
0000
1001
0000
0000
0000
0000
0000
0000
,  // measure 34
1001
0000
0101
0000
0001
1000
1001
1100
,  // measure 35
0000
0000
0100
0000
0110
0000
0010
0001
1000
0000
0010
0000
0100
0000
0001
0000
,  // measure 36
0002
1000
2003
0100
3200
0010
0310
0110
,  // measure 37
0000
0000
0001
0000
0011
0000
0001
0100
0010
0000
1000
0000
1010
0000
1000
0000
,  // measure 38
1001
1000
0010
0100
0001
0010
0100
0110
,  // measure 39
0010
0000
0001
0100
0010
0000
1000
0000
0001
0000
0010
0000
0100
0000
1000
0001
,  // measure 40
0100
0000
0010
0000
1000
0000
0001
0010
0100
0000
1000
0000
0010
0000
0100
0000
,  // measure 41
0001
0000
0000
1000
0000
0000
0100
0000
0000
0010
0000
0000
0001
0000
0000
0000
1000
0000
0000
0000
0010
0000
0000
0000
0100
0000
0000
0000
0001
0000
0000
0000
1000
0000
0000
0000
0100
0000
0000
0000
0010
0000
0000
0000
0001
0000
0000
0000
,  // measure 42
0011
0000
0001
1001
0000
1000
1010
0000
,  // measure 43
0010
0000
0000
0000
0000
0000
1000
0000
0000
0001
0000
0000
0010
0000
0000
0000
0000
0000
0100
0000
0000
0000
0000
0000
1000
0000
0000
0000
0001
0000
0000
0000
0100
0000
0000
0000
0010
0000
0000
0000
0000
0000
1000
0000
0000
0000
0000
0000
,  // measure 44
1010
0000
0000
0000
0000
0000
0001
0000
0000
0101
0000
0000
0000
0000
0000
1000
0000
0000
1010
0000
0010
0000
0100
0000
,  // measure 45
0001
0000
1000
0000
0100
0000
0010
0001
1000
0000
0010
0100
0001
0100
0001
0000
,  // measure 46
0101
0000
1000
1100
0000
0000
0110
0000
,  // measure 47
0010
0000
0001
1000
0010
0000
0100
0000
0001
1000
0100
0000
0010
0000
0001
0000
,  // measure 48
0011
0000
0011
0011
0011
0011
0011
1001
,  // measure 49
0000
0000
0000
0000
0000
0000
0000
0000
1000
0010
1000
0010
1000
0010
1000
0010
,  // measure 50
0200
0000
0010
0000
0301
1000
0100
0010
,  // measure 51
0110
0000
0100
1100
0000
1000
1001
0101
,  // measure 52
0000
0100
0010
1000
0010
0100
0001
1000
,  // measure 53
0200
0000
0010
0010
0320
0000
0031
1000
,  // measure 54
2001
0000
0010
0000
3100
0000
0100
1000
,  // measure 55
1100
0000
1001
0101
0000
0110
0000
0010
,  // measure 56
1000
0001
0010
0011
0000
1100
0000
1001
,  // measure 57
0000
0000
1000
0000
0010
0000
0100
0001
1000
0000
0100
0010
0001
0000
1000
0100
,  // measure 58
0020
0000
0100
0000
0031
1000
0100
0010
,  // measure 59
0110
0000
0100
1100
0000
1000
1001
0101
,  // measure 60
0000
0100
0010
1000
0010
0100
0001
1000
,  // measure 61
0200
0000
0010
0010
0320
0000
0031
1000
,  // measure 62
2001
0000
0010
0000
3100
0000
0010
0011
,  // measure 63
0000
0001
1001
1010
0000
0110
0000
0101
,  // measure 64
0000
1000
0100
1100
0000
0011
0000
1001
,  // measure 65
0000
0000
0001
0000
0010
0000
0100
1000
0001
0000
0010
0100
1000
0000
0001
0010
,  // measure 66
0200
1000
0001
1000
,  // measure 67
2300
0010
3020
0001
,  // measure 68
0032
0010
0100
0010
,  // measure 69
0203
0000
1000
0000
2300
0000
0001
3000
,  // measure 70
1002
1000
0100
1003
,  // measure 71
0100
0000
1000
0010
0000
1010
0000
0101
,  // measure 72
0000
0000
1001
0000
0011
0000
0010
0001
1000
0000
0010
0100
0001
0000
1000
0000
,  // measure 73
0100
0010
0001
0000
1000
0000
0100
0010
0001
1000
0100
0010
0001
1000
0001
0010
,  // measure 74
0200
1000
0001
1000
,  // measure 75
2300
0010
3020
0001
,  // measure 76
0032
0010
0100
0010
,  // measure 77
0203
0000
1000
0000
2300
0000
0001
3000
,  // measure 78
1002
1000
0100
1003
,  // measure 79
0100
0000
1000
0010
0000
1010
0000
0101
,  // measure 80
0000
0000
0001
0000
0011
0000
0000
0000
1001
0000
1000
0000
0010
0000
0100
0001
,  // measure 81
1000
0000
0100
0000
0010
0000
0100
1000
0001
0100
0010
0000
0110
0000
0010
0000
,  // measure 82
1000
0100
0001
0020
0000
0000
0000
0000
,  // measure 83
0000
0000
0000
0000
,  // measure 84
0000
0000
0000
0000
,  // measure 85
0000
0000
0000
0000
,  // measure 86
0000
0000
0000
0000
,  // measure 87
0030
0000
0000
0000
;

//---------------dance-single - Itsugo15----------------
#NOTES:
     dance-single:
     Itsugo15:
     Beginner:
     2:
     0.131,0.202,0.032,0.032,0.000:
0000
0000
0000
0000
,
0000
0000
0000
0000
,
0000
0000
0000
0000
,
0000
0000
0000
0000
,
0000
0000
0000
0000
,
2000
0000
0000
3001
0000
0000
0000
0000
,
0000
0000
0000
0000
,
0002
0000
0000
1003
0000
0000
0000
0000
,
0000
0000
0000
0000
,
1001
0000
0000
0000
,
0001
0000
0100
0000
,
0010
0000
0000
0000
,
0010
0000
1000
0000
,
0001
0000
0000
0000
,
0001
0000
0010
0000
,
0100
0000
0000
0000
1000
0000
0000
0001
,
0000
0000
0000
0000
,
1000
0000
0000
0000
,
0010
0000
0000
0000
,
0100
0000
0000
0000
,
0001
0000
0000
0000
,
1000
0000
0000
0000
,
0100
0000
0000
0000
,
0010
0000
0000
0000
,
0001
0000
0000
0000
,
1000
0000
0000
0000
0000
0000
0000
0001
,
0000
0000
0000
0000
,
1000
0000
0000
0000
0000
0000
0000
0010
,
0000
0000
0000
0000
,
1000
0000
0000
0000
0000
0000
0000
0010
,
0000
0000
0000
0000
,
0100
0000
0000
0000
0000
0000
0000
0002
,
0000
0003
0000
0000
0000
0000
0000
0000
,
1000
0000
0000
0000
,
0100
0000
0000
0000
,
0010
0000
0000
0000
,
0001
0000
0000
0000
,
0100
0000
0000
0000
,
0010
0000
0000
0000
,
1000
0000
0000
0000
,
0001
0000
0010
0000
,
0001
0000
0000
0000
,
1000
0000
0010
0000
,
1000
0000
0000
0000
,
0001
0000
0100
0000
,
0001
0000
0000
0000
,
1000
0000
0100
0000
,
1000
0000
0000
0000
0000
0000
0000
000M
,
0001
0000
0000
0000
,
0100
0000
0010
0000
,
1000
0000
1000
0000
,
0010
0000
0100
0000
,
0001
0000
0001
0000
,
1000
0000
0100
0000
,
0010
0000
0010
0000
,
0100
0000
1000
0000
,
0001
0000
0100
0000
,
0101
0000
0001
0000
,
1000
0000
1000
0000
,
0100
0000
0010
0000
,
0001
0000
0001
0000
,
0011
0000
0010
0000
,
0100
0000
1000
0000
,
0001
0000
0100
0000
,
0010
0000
1000
0000
,
1010
0000
0000
0000
,
1000
0000
0001
0000
,
1000
0000
0000
0000
,
1000
0000
0010
0000
,
0100
0000
0000
0000
,
0001
0000
0100
0000
,
0001
0000
0000
0000
,
1000
0000
0000
0000
,
0001
0000
0000
0000
,
1000
0000
0100
0000
,
0010
0000
0000
0000
,
0001
0000
0010
0000
,
0100
0000
0000
0000
,
1000
0000
0000
0000
,
0001
0000
0000
0000
,
0100
0000
0000
0000
,
0020
0000
0000
0000
,
0000
0000
0000
0000
,
0000
0000
0000
0000
,
0030
0000
0000
0000
;

//---------------dance-single - Itsugo15----------------
#NOTES:
     dance-single:
     Itsugo15:
     Easy:
     4:
     0.194,0.236,0.136,0.152,0.000:
0000
0000
0000
0000
,
0000
0000
0000
0000
,
0000
0000
0000
0000
,
0000
0000
0000
0000
,
0000
0000
0000
0000
,
0002
0000
0000
1003
0000
0000
0000
0000
,
0001
0000
1000
0000
,
0002
0000
0000
1003
0000
0000
0000
0000
,
0001
0000
0010
0000
,
0011
0000
0001
0000
,
0100
0000
0010
0000
,
0110
0000
0100
0000
,
0001
0000
1000
0000
,
1001
0000
0001
0000
,
0010
0000
0100
0000
,
0110
0000
0000
0000
0010
0000
0000
0001
,
0000
0000
0000
0000
,
0011
0000
0010
0000
,
0100
0000
1000
0000
,
1100
0000
0100
0000
,
1000
0000
0001
0000
,
1001
0000
1000
0000
,
0001
0000
0100
0000
,
0101
0000
0001
0000
,
0100
0000
0010
0000
,
2000
0000
0000
0000
3000
0000
0000
1000
,
0000
0000
0000
0001
0000
0000
0000
0000
,
0020
0000
0000
0000
0030
0000
0000
0010
,
0000
0000
0000
0001
0000
0000
0000
0000
,
0200
0000
0000
0000
0300
0000
0000
0100
,
0000
0000
0000
0010
0000
0000
0000
0000
,
0110
0000
0000
0000
0000
0000
0000
1000
,
0000
0001
0000
0000
0000
0000
0000
0000
,
1001
0000
1000
0000
,
0001
0000
1000
0000
,
0010
0000
1000
0000
,
0001
0000
0010
0000
,
0100
0000
1000
0000
,
0001
0000
0100
0000
,
0010
0000
1000
0000
,
0001
0000
0010
0000
,
0011
0000
0000
0000
,
0001
0000
1000
0000
,
1001
0000
0000
0000
,
0001
0000
0100
0000
,
0101
0000
0000
0000
,
0010
0000
1000
0000
,
1010
0000
0000
0000
1000
0000
0000
1100
,
0000
0000
0002
0000
,
2003
0000
0000
0000
0000
3000
0000
0000
,
0010
0000
0100
0000
,
0002
0000
0000
0000
,
1003
0000
0100
0000
,
0020
0000
0000
0000
,
0031
0000
1000
0000
,
0010
0000
0010
0000
,
1000
0000
0001
0000
,
0020
0000
0000
0000
,
0130
0000
1000
0000
,
0002
0000
0000
0000
,
0103
0000
0010
0000
,
2000
0000
0000
0000
,
3010
0000
0100
0000
,
0001
0000
0001
0000
,
1000
0000
0100
0000
,
2100
0000
0000
0000
,
3100
0000
0010
0000
,
0002
0000
0000
0000
,
1003
0000
0010
0000
,
0200
0000
0000
0000
,
0301
0000
0001
0000
,
1000
0000
1000
0000
,
0100
0000
0010
0000
,
0120
0000
0000
0000
,
0130
0000
1000
0000
,
0002
0000
0000
0000
,
0103
0000
0010
0000
,
2000
0000
0000
0000
,
3001
0000
0010
0000
,
0100
0000
1000
0000
,
0001
0000
0100
0000
,
0020
0000
0000
0000
,
0000
0000
0000
0000
,
0000
0000
0000
0000
,
0030
0000
0000
0000
;

//---------------dance-single - Itsugo15----------------
#NOTES:
     dance-single:
     Itsugo15:
     Medium:
     5:
     0.259,0.337,0.080,0.409,0.000:
0000
0000
0000
0000
,
0000
0000
0000
0000
,
0000
0000
0000
0000
,
0000
0000
0000
0000
,
0000
0000
0000
0000
,
0001
0000
0000
1000
0000
0000
0000
0000
,
0100
0000
0010
0000
,
0001
0000
0000
1000
0000
0000
0000
0000
,
0010
0000
0100
0000
,
0110
0000
0100
0000
,
0002
0000
2003
0000
,
3100
0000
0010
0000
,
0002
0000
0203
0000
,
0310
0000
1000
0000
,
0002
0000
0023
0000
,
0130
0000
0000
0000
1000
0000
0000
0001
,
0000
0000
0000
0000
,
1001
0000
0001
0000
,
0100
0000
0010
0000
,
0110
0000
0100
0000
,
0010
0000
1000
0000
,
1010
0000
0010
0000
,
1000
0000
0001
0000
,
1001
0000
0001
0000
,
0010
0000
0100
0000
,
2000
0000
0000
0000
3000
0000
0001
0200
,
0000
0000
0300
0000
,
0010
0000
0000
0000
1000
0000
0000
0001
,
0000
0000
0000
0010
0000
0010
0000
0000
,
0200
0000
0000
0000
,
1300
0000
0000
0001
0000
0001
0000
0000
,
0200
0000
0000
0000
0000
0000
0000
0310
,
0000
1000
0000
0000
0000
0000
0000
0000
,
1010
0000
0000
0000
1000
0000
0000
0001
,
0000
0000
0010
0000
,
0011
0000
0000
0000
0010
0000
0000
0100
,
0000
0000
1000
0000
,
1100
0000
0000
0000
0100
0000
0000
1000
,
0000
0000
0001
0000
,
1001
0000
0001
0000
,
1000
0000
0000
0000
0100
0000
0000
0010
,
0002
0000
0000
0000
,
1003
0000
0000
0000
0001
0000
0000
0100
,
0020
0000
0000
0000
,
1030
0000
0000
0000
0001
0000
0000
0010
,
0200
0000
0000
0000
,
1300
0000
0100
0010
,
0002
0000
0000
0000
0000
0000
0000
M000
,
2003
0000
3020
0000
,
0230
0000
0001
0000
,
0302
0000
2003
0000
,
3200
0000
0010
0000
,
0320
0000
0032
0000
,
0203
0000
0010
0000
,
0301
0000
1000
0000
,
0100
0000
0010
0000
,
0002
0000
1003
0010
,
0200
0000
0010
0000
,
0320
0000
2030
0000
,
3002
0000
0010
0000
,
0023
0000
0032
0000
,
2003
0000
3100
0000
,
0010
0000
0001
0000
,
0020
0000
0230
0000
,
2300
0000
3002
0000
,
0203
0000
0010
0000
,
0320
0000
2030
0000
,
3200
0000
0010
0000
,
0320
0000
0032
0000
,
2003
0000
0010
0000
,
3001
0000
0000
0001
0000
1000
0000
0100
,
0000
0000
1000
0000
0001
0000
0000
0100
,
0000
0000
0010
0000
0000
1000
0000
0000
,
1020
0000
0100
0000
,
2030
0000
3002
0000
,
0023
0000
0001
0000
,
0032
0000
2003
0000
,
3020
0000
0100
0000
,
0230
0000
0000
0301
0000
0010
0000
0100
,
0000
1000
0001
0000
0100
0000
0010
1000
,
0000
0001
0000
1000
0100
0000
0010
0000
,
0001
1000
0010
0200
0000
0000
0000
0000
,
0000
0000
0000
0000
,
0000
0000
0000
0000
,
0300
0000
0000
0000
;

//---------------dance-single - Itsugo15----------------
#NOTES:
     dance-single:
     Itsugo15:
     Hard:
     8:
     0.516,0.607,0.441,0.169,0.048:
0000
0000
0000
0000
,
0002
0000
0000
1003
0000
0000
0010
0000
,
0100
0001
0100
0010
,
2000
0000
0000
3001
0000
0000
0010
0000
,
0100
1000
0100
0010
,
0002
0000
0000
1003
0000
0000
0010
0000
,
0100
0001
0100
0010
,
2000
0000
0000
3100
0000
0000
0010
0000
,
0001
0100
0010
1000
,
2010
0000
0001
0000
,
3002
0000
0023
0000
,
0230
0000
1000
0000
,
2300
0000
3020
0000
,
0230
0000
0001
0000
,
0302
0000
2003
0000
,
3200
0000
0000
0000
0320
0000
0000
0031
,
0000
0000
0000
0000
,
0011
0000
0000
0001
0000
0000
1000
0000
,
0000
0010
0000
0000
0100
0000
0001
0000
,
0101
0000
0000
0001
0000
0000
1000
0000
,
0000
0100
0000
0000
0010
0000
0001
0000
,
0011
0000
0000
0001
0000
0000
1000
0000
,
0000
0010
0000
0000
0100
0000
0001
0000
,
0101
0000
0000
0001
0000
0010
0000
0100
,
0000
1000
0000
0100
0000
0010
0000
0001
,
2000
0000
0010
0000
0010
0000
3010
0100
,
0000
0001
0000
0101
0000
1001
0000
0001
,
1000
0000
0100
0000
0010
0000
0001
0011
,
0000
0001
0000
1001
0000
1010
0000
1000
,
0001
0010
0010
0100
,
0100
0000
1000
1100
0000
0101
0000
0001
,
1000
0000
0100
0000
0010
0000
0001
0011
,
0000
1001
0000
0000
0000
0000
0000
0000
,
1010
0000
0010
0000
1000
0001
0010
0011
,
0000
0001
1000
0000
1000
0001
1001
0000
,
1100
0000
0001
0000
0010
0000
0001
0100
,
0000
0010
1000
0000
0001
0010
0011
0000
,
0001
0000
1000
0000
0100
0000
1000
1100
,
0000
0001
0100
0000
0100
0010
0110
0000
,
0101
0000
0001
1000
0100
0000
0010
0001
,
0100
0000
0010
0000
1000
0000
0001
0000
0000
0010
0000
0000
0100
0000
0000
1000
0000
0000
0100
0000
0010
0000
0001
0000
,
0011
0000
0000
1010
0000
0000
1001
0000
,
0001
0000
0000
0000
0000
0000
0100
0000
0000
0010
0000
0000
1000
0000
0001
0000
0010
0000
0100
0000
0000
1000
0000
0000
,
1100
0000
0000
0000
0000
0000
1001
0000
0000
0000
0001
0000
0100
0000
0010
1000
,
0010
0000
0100
0000
0100
0000
0001
0000
1000
0000
0100
0000
0010
0001
0010
0001
,
1000
0000
0000
0000
0000
0000
1001
0000
0000
0000
0001
0000
0100
0000
0010
1000
,
0010
0000
0100
0000
0100
0000
0001
0000
1000
0100
0010
0000
0001
0000
0000
0000
,
0021
0000
0001
0001
0001
0001
0001
0130
,
0000
0000
0000
0000
0200
0000
1000
0300
,
1100
0000
0100
1000
0000
0010
0100
0000
,
0101
0000
0001
0010
0000
0010
0001
0000
,
0011
0000
0001
0100
0000
0100
0010
0000
,
0110
0000
0010
1000
0000
1000
0001
0000
,
1001
0000
0001
0010
0000
0010
0100
0000
,
0110
0000
0010
0001
0000
0001
0000
1000
,
0000
0010
0100
0001
0000
0100
0000
0010
,
0000
0000
1000
0000
0001
0000
0000
0000
0010
0000
0100
1000
0100
0000
0010
0000
,
0001
0000
0100
0010
0000
0100
0001
0000
,
0101
0000
0001
1000
0000
1000
0100
0000
,
1100
0000
0100
0010
0000
0001
0010
0000
,
0011
0000
0001
1000
0000
1000
0010
0000
,
1010
0000
0010
0100
0000
0001
0100
0010
,
0000
1000
0001
0100
0000
0101
0000
1001
,
0000
1000
0100
0010
0000
0001
1000
0010
,
0000
0100
0001
0000
0010
0001
1000
0010
,
0200
0000
0301
1000
0000
0100
0000
0010
,
0001
0000
0001
0010
0100
0000
0010
0001
,
0011
0000
0001
1000
0000
0010
0000
0100
,
0001
0000
1000
0100
0010
0000
0100
1000
,
1100
0000
1000
0001
0000
0100
0000
0010
,
1000
0000
1010
0010
0000
0100
0000
0110
,
0000
0010
1000
0000
1010
0000
1000
1001
,
0000
0001
0011
0000
0010
0100
1000
0100
,
0020
0000
0031
1000
0000
0010
0000
0100
,
0001
0000
0001
0100
0010
0000
0100
0001
,
0101
0000
0001
1000
0000
0100
0000
0010
,
0001
0000
1000
0010
0100
0000
0010
1000
,
1010
0000
1000
0001
0000
0010
0000
0100
,
1000
0000
1100
0100
0000
0010
0000
0110
,
0000
0100
1000
0000
1100
0000
1000
1001
,
0000
0001
0101
0000
0100
0010
1000
0010
,
0100
0001
1000
0200
0000
0000
0000
0000
,
0000
0000
0000
0000
,
0000
0000
0000
0000
,
0300
0000
0000
0000
;
