#TITLE:LINE;
#SUBTITLE:NARUTO 疾風伝;
#ARTIST:スキマスイッチ;
#TITLETRANSLIT:Line;
#SUBTITLETRANSLIT:Naruto Shippuuden;
#ARTISTTRANSLIT:Sukima Switch;
#GENRE:Otaku's Dream 4th Mix (Pad);
#CREDIT:Itsugo15;
#BANNER:LINE-bn.png;
#BACKGROUND:LINE-bg.png;
#JACKET:LINE-Jacket.png;
#LYRICSPATH:LINE.lrc;
#CDTITLE:Itsugo15 SimifileS.png;
#MUSIC:LINE.mp3;
#OFFSET:-0.217;
#SAMPLESTART:63.020;
#SAMPLELENGTH:22.000;
#SELECTABLE:YES;
#LISTSORT:;
#BPMS:0.000=130.000;
#STOPS:;
#TICKCOUNT:0.000=6;
#BGCHANGES:-0.500=LINE.avi=1.000=1=1=0,
194.000=LINE-bg.png=1.000=1=1=0,
99999=-nosongbg-=1.000=0=0=0 // don't automatically add -songbackground-
;
#KEYSOUNDS:;
#ATTACKS:;

//---------------dance-single - Itsugo15----------------
#NOTES:
     dance-single:
     Itsugo15:
     Beginner:
     2:
     0.095,0.160,0.033,0.044,0.000:
0000
0000
0000
0000
,
0000
0000
0000
0000
,
0000
0000
0000
0000
,
0000
0001
0000
0000
,
1000
0000
0000
0010
,
0000
0000
0100
0000
,
0000
0001
0000
0000
,
0000
0000
0000
0001
,
0000
0000
0000
0000
,
0000
1000
0000
0000
,
0000
0000
0000
1000
,
0000
0000
0000
0000
,
0000
0100
0000
0000
,
0010
0000
0000
0010
,
0000
0000
0100
0000
,
0000
1000
0000
0000
,
0001
0000
0000
0100
,
0000
0000
0010
0000
,
0000
1000
0000
0000
,
0000
0000
0000
1000
,
0000
0000
0000
0000
,
0000
0001
0000
0000
,
0000
0000
0000
0001
,
0000
0000
0000
0000
,
0000
0010
0000
0000
,
0100
0000
0000
1000
,
0000
0000
0001
0000
,
0000
0100
0000
0000
,
0010
0000
0000
1000
,
0000
0000
0001
0000
,
0000
1001
0000
0000
,
1000
0000
0000
0100
,
0000
0000
0010
0000
,
0000
0001
0000
0000
,
1001
0000
0000
0001
,
0000
0000
0100
0000
,
0000
0010
0000
0000
,
1000
0000
0000
0001
,
0000
0000
0010
0000
,
0000
0100
0000
0000
,
0110
0000
0000
0010
,
0000
0000
0001
0000
,
0000
1000
0000
0000
,
0010
0000
0000
0200
0300
0000
0000
0000
,
0000
0002
0003
0000
0000
0000
0000
2000
,
3000
0100
0000
0000
,
0010
0000
0000
0001
,
0000
0000
2000
0000
,
3000
0000
0000
0000
;

//---------------dance-single - Itsugo15----------------
#NOTES:
     dance-single:
     Itsugo15:
     Easy:
     4:
     0.165,0.186,0.033,0.055,0.000:
0000
0000
0000
0000
,
0000
0000
0000
0000
,
0000
0000
0000
0000
,
0000
0000
1000
0000
0000
1000
0000
0000
,
0010
0000
0000
0010
0000
0000
0100
0000
,
0000
0100
0000
0000
0001
0000
0000
0001
,
0000
0000
1000
0000
0000
0100
0000
0000
,
0000
0000
0000
0100
0000
0000
0000
0000
,
0000
0100
0000
0000
0000
0000
0000
0100
,
0000
0000
1000
0000
0000
0001
0000
0000
,
0000
0000
0000
0001
0000
0000
0000
0000
,
0000
0001
0000
0000
0000
0000
0000
0001
,
0000
0000
0100
0000
0000
0010
0000
0000
,
0000
0000
0000
0010
0000
0000
0000
0000
,
0000
0010
0000
0000
0000
0000
0000
0010
,
0000
0000
1000
0000
0000
0100
0000
0000
,
0000
0000
0000
0100
0000
0000
0000
0000
,
0000
0100
0000
0000
0000
0000
0000
0100
,
0000
0000
1100
0000
0000
1000
0000
0000
,
0000
0000
0000
0001
0000
0000
0000
0000
,
0000
0100
0000
0000
0000
0000
0000
0010
,
0000
0000
1000
0000
0000
0001
0000
0000
,
0000
0000
0000
0010
0000
0000
0000
0000
,
0000
0100
0000
0000
0000
0000
0000
1000
,
0000
0000
0001
0000
0000
0100
0000
0000
,
0000
0000
0000
0010
0000
0000
0000
0000
,
0000
1000
0000
0000
0000
0000
0000
0001
,
0000
0000
0010
0000
0000
0100
0000
0000
,
0000
0000
0000
1000
0000
0000
0000
0000
,
0000
0010
0000
0000
0100
0000
0000
0001
,
0000
0000
1000
0000
0000
0001
0000
0000
,
0010
0000
0000
0100
0000
0000
1000
0000
,
0000
0001
0000
0000
0100
0000
0000
0010
,
0000
0000
1000
0000
0000
0001
0000
0000
,
1001
0000
0000
1000
0000
0000
0001
0000
,
0000
1000
0000
0000
0100
0000
0000
0010
,
0000
0000
0100
0000
0000
1000
0000
0000
,
0001
0000
0000
0100
0000
0000
0010
0000
,
0000
1000
0000
0000
0100
0000
0000
0010
,
0000
0000
0001
0000
0000
0010
0000
0000
,
0011
0000
0000
0001
0000
0000
1000
0000
,
0000
0010
0000
0000
0100
0000
0000
0001
,
0000
0000
1000
0000
0000
0100
0000
0000
,
0020
0000
0000
0002
0033
0000
2000
0000
,
0000
0020
3030
0000
0100
0000
0000
0001
,
0000
0000
1000
0000
0000
0100
0000
0000
,
0010
0000
0000
0010
0000
0000
0100
0000
,
0000
0100
0000
0000
2000
0000
0000
0000
,
3000
0000
0000
0000
;

//---------------dance-single - Itsugo15----------------
#NOTES:
     dance-single:
     Itsugo15:
     Medium:
     6:
     0.321,0.504,0.199,0.122,0.000:
0000
0000
0000
0000
,
0000
0000
0000
0000
,
0000
0000
0000
0000
,
0000
0000
1001
0000
0000
0001
0000
0000
,
0100
0000
0000
0010
0000
0000
0100
0000
,
0000
0001
0000
0000
1000
0000
0000
0100
,
0000
0000
1100
0000
0000
1000
0000
0000
,
0001
0000
0000
0100
0000
0000
0100
0000
,
0000
0001
0000
0000
0010
0000
0000
0100
,
0000
0000
1000
0000
0000
1000
0000
0000
,
0100
0000
0000
0010
0000
0000
0010
0000
,
0000
0100
0000
0000
1000
0000
0000
0001
,
0000
0000
1001
0000
0000
0001
0000
0000
,
0100
0000
0000
0010
0000
0000
0110
0000
,
0000
0100
0000
0000
0001
0000
0000
1000
,
0000
0000
1001
0000
0000
0001
0000
0000
,
0010
0000
0000
0100
0000
0000
1000
0000
,
0000
0100
0000
0000
0010
0000
0000
0001
,
0000
0000
0011
0000
0000
0010
0000
0000
,
0001
0000
0000
0100
0000
0000
0010
0000
,
0000
1000
0000
0000
0100
0000
0000
1000
,
0000
0000
1100
0000
0000
0100
0000
0000
,
1000
0000
0000
0010
0000
0000
0100
0000
,
0000
0001
0000
0000
0010
0000
0000
0001
,
0000
0000
0011
0000
0000
0001
0000
0000
,
0100
0000
0000
0010
0000
0000
0110
0000
,
0000
0100
0000
0000
0010
0000
0000
1000
,
0000
0000
1010
0000
0000
1000
0000
0000
,
0001
0000
0000
0010
0000
0000
0100
0000
,
0000
1000
0000
0000
0200
0000
0300
0020
,
0000
0030
0110
0000
0000
0010
0000
0000
,
0001
0000
0000
1000
0000
0000
0010
0000
,
0000
0100
0000
0000
0002
0000
0003
2000
,
0000
0000
0100
3100
1000
0001
0001
0100
,
0101
0000
0100
0001
1000
0001
0010
0100
,
1000
0002
0000
0103
0010
0000
0010
1000
,
0000
0001
0010
0000
0100
1000
0000
0100
,
0020
0000
0031
1000
0000
0010
0100
0001
,
1000
0200
0000
0300
1000
0010
0100
0001
,
1000
0100
1100
0000
0001
0101
0000
1000
,
1001
0001
0010
0100
1000
0001
0100
0010
,
1000
0002
0003
0010
0100
0000
1000
0100
,
0010
0001
1000
0010
0100
0001
1000
0200
,
0010
0010
0310
0110
0000
0020
0100
0100
,
0130
0110
0000
0010
0001
0000
1000
0010
,
0000
0100
0001
0000
1000
0100
0010
0001
,
0011
0000
0010
0100
0000
1000
0100
0010
,
0001
1000
0010
0100
0002
0000
0000
0003
;

//---------------dance-single - Itsugo15----------------
#NOTES:
     dance-single:
     Itsugo15:
     Hard:
     8:
     0.575,0.640,0.676,0.133,0.033:
0000
0000
0000
0000
,
0000
0000
0000
0000
,
0000
0000
0000
0000
,
0000
0000
1001
0000
0001
0100
0000
0100
,
0010
1000
0100
1000
0010
0100
0110
0000
,
0010
1000
0000
0001
0010
0100
1000
1100
,
1100
1100
1001
0000
1000
1010
0000
0001
,
0101
0000
0100
0110
0000
0010
1010
0000
,
1000
1001
0000
0001
0011
0000
0010
0110
,
0100
1000
0001
0000
1000
1100
0000
0100
,
0110
0000
0010
0011
0001
0100
0010
0000
,
1000
1010
0000
1000
1001
0000
0001
0011
,
0010
0100
2000
0000
3100
0010
0001
0100
,
0101
0000
0001
1000
0100
0010
0200
0000
,
0000
1300
0001
0100
0101
0000
0100
0110
,
0010
1000
0001
0000
0010
0011
0000
0001
,
1001
0000
1000
1010
0000
0010
0110
0000
,
0100
0101
0001
1000
0100
0010
0100
1100
,
1001
0000
0110
0000
0010
1000
0000
0100
,
0010
0000
0010
0100
0000
1000
0001
0010
,
0010
0100
0000
1000
0010
0100
0001
0010
,
0100
1000
1100
0000
1000
0010
0000
0100
,
0001
0000
0010
0100
0000
0100
1000
0001
,
0100
0020
0000
0130
0001
0000
1000
0100
,
0010
0001
0020
0000
0030
0100
1000
0001
,
0100
0000
0010
1000
0001
0010
0200
0000
,
1300
0100
0010
0001
0100
0000
0100
0010
,
0000
1000
0001
0000
0010
0100
0000
1000
,
0100
0000
0010
0001
1000
0010
1010
0000
,
0001
0101
0000
0100
0001
1000
0100
0010
,
0001
1000
1001
0000
0001
1000
0000
1000
,
0010
0000
0010
0100
0001
1000
1100
0000
,
0001
0011
0000
0001
1001
0000
1000
1010
,
0000
0000
0010
0000
0100
0000
0001
1000
0100
0000
1000
0000
0001
0100
0010
0000
,
0110
0000
0100
0101
0001
1000
0100
0010
,
0001
0000
0011
0000
0000
0000
0010
0000
0002
0000
0000
0003
0100
0000
0010
0000
,
1000
0000
0100
0000
0020
0000
0000
0030
0100
0000
1000
0000
0010
0000
0100
0000
,
0110
0010
1000
0001
0010
0100
1000
1000
,
0002
2003
3000
0010
1010
1000
0001
1001
,
1000
0100
1100
0100
0010
0110
0100
1000
,
1100
0100
1000
0001
0100
0001
0010
0100
,
1000
0000
0200
0000
0000
0300
0010
0000
0002
0000
0000
0000
1003
0000
0001
0000
,
0100
0000
0010
0000
1000
0000
0001
0010
0100
0000
1000
0000
0001
0100
0010
0000
,
0110
0110
0110
1001
0000
0000
1001
1001
,
1001
0110
0000
0010
0001
0000
1000
0010
,
0000
0000
0100
0000
0001
0000
1000
0100
1000
0000
0001
0000
0100
0001
1000
0000
,
1001
0000
0001
0010
0000
0100
0110
0110
,
0110
0110
0110
0010
0002
0000
0000
0000
,
0000
0003
0000
0000
0000
0000
0000
0000
;

//---------------dance-single - Itsugo15----------------
#NOTES:
     dance-single:
     Itsugo15:
     Challenge:
     11:
     0.901,0.826,1.000,0.100,0.360: // measure 1
0000
0000
0000
0000
,  // measure 2
0000
0000
0000
0000
,  // measure 3
0000
0000
0000
0000
0000
0000
0001
0000
0101
0000
0100
0010
1000
0000
1010
0000
,  // measure 4
1000
0001
0010
0000
0011
0000
0001
0000
0100
0000
0101
0000
0001
1000
0100
0000
,  // measure 5
1100
0000
1000
0000
0001
0000
1001
0000
1000
0010
0100
0000
0110
0000
0010
0000
,  // measure 6
1000
0000
1010
0000
1000
0001
0010
0000
0011
0000
0001
1000
0010
0000
1010
0000
,  // measure 7
0110
0000
0101
0000
1001
0000
1000
0000
0001
0000
0101
0000
0100
0001
1000
0000
,  // measure 8
1001
0000
1000
0000
0100
0000
1100
0000
0100
0010
0001
0000
0011
0000
0001
0000
,  // measure 9
1000
0000
1001
0000
0001
0100
0010
0000
0110
0000
0100
0001
1000
0000
1001
0000
,  // measure 10
0001
0010
0100
0000
0110
0000
0010
0000
0100
0000
1100
0000
1000
0100
0010
0000
,  // measure 11
0110
0000
0010
0000
0001
0000
0011
0000
0010
0001
0100
0000
0101
0000
0100
0000
,  // measure 12
0010
0000
0110
0000
0100
0010
1000
0000
1010
0000
0010
1000
0001
0000
1001
0000
,  // measure 13
1000
0100
1000
0000
1100
0000
1000
0000
0001
0000
1001
0000
1000
0010
0100
0000
,  // measure 14
0110
0000
0010
0000
1000
0000
1010
0000
1000
0001
0010
0000
0011
0000
0001
0000
,  // measure 15
1000
0000
1001
0000
0001
0100
0010
0000
1000
0000
0001
0010
0100
0000
1000
0000
,  // measure 16
0001
0100
0010
0000
0110
0000
0100
0000
0001
0000
0101
0000
0100
0010
1000
0000
,  // measure 17
1010
0000
0010
0000
0100
0000
0110
0000
0100
0001
1000
0000
1001
0000
0001
0000
,  // measure 18
0010
0011
0001
1000
1001
1010
0010
0110
,  // measure 19
0102
0000
1000
0003
1001
0000
0001
0000
1000
0000
1010
0000
0010
1000
0001
0000
,  // measure 20
1001
0000
0001
0000
0010
0000
0011
0000
0010
0100
1000
0000
1100
0000
1000
0000
,  // measure 21
0001
0000
1001
0000
1000
0010
0100
0000
0110
0000
0010
1000
0001
0000
1001
0000
,  // measure 22
1000
0100
0010
0000
0110
0000
0100
0000
0010
0000
0011
0000
0001
0010
0100
0000
,  // measure 23
0110
0000
0100
0000
1000
0000
1100
0000
0100
1000
0010
0000
1010
0000
0010
0000
,  // measure 24
0100
0000
0110
0000
0010
0100
0001
0000
0101
0000
0100
0001
1000
0000
1001
0000
,  // measure 25
0001
0010
0001
0000
0011
0000
0001
0000
1000
0000
1001
0000
0001
0100
0010
0000
,  // measure 26
0110
0000
0100
0000
0001
0000
0101
0000
0001
1000
0100
0000
1100
0000
1000
0000
,  // measure 27
0001
0000
1001
0000
1000
0010
0100
0000
0001
0000
1000
0100
0010
0000
0001
0000
,  // measure 28
1000
0010
0100
0000
0110
0000
0010
0000
1000
0000
1010
0000
0010
0100
0001
0000
,  // measure 29
0101
0000
0100
0000
0010
0000
0110
0000
0010
1000
0001
0000
1001
0000
1000
0000
,  // measure 30
0100
0000
1100
0000
1000
0100
0010
0000
0110
0000
0100
0000
1000
0000
1100
0000
,  // measure 31
0100
1000
0010
0000
1010
0000
0010
0000
0100
0000
0110
0000
0100
0001
1000
0000
,  // measure 32
1001
0000
0001
0000
0010
0000
0011
0000
0001
1000
0010
0000
1010
0000
0010
0100
,  // measure 33
0001
0101
0100
0010
0110
0100
0010
1010
,  // measure 34
0010
1000
0001
0000
1001
0000
1000
0001
0100
0000
0101
0000
1001
0000
1000
0100
,  // measure 35
0020
0000
0000
0000
0031
0000
0011
0000
0010
0100
1000
0000
1100
0000
0100
0000
,  // measure 36
0110
0000
0012
0000
1003
0000
0010
0000
1010
0000
1000
0001
0100
0000
0101
0000
,  // measure 37
0001
0000
1001
0000
1100
0000
0100
1000
0010
0000
1010
0000
0010
0100
0001
0000
,  // measure 38
0101
0000
0100
0000
0010
0000
0110
0000
0010
1000
0001
0000
1001
0000
0001
0000
,  // measure 39
0010
0000
0011
0000
0010
0100
1000
0000
1100
0000
0011
0000
1010
0000
0101
0000
,  // measure 40
0001
0100
0020
0000
1030
0000
1010
0000
1001
0000
0011
0000
1100
0000
0101
0000
,  // measure 41
1001
0000
0001
0000
0100
0000
0101
0000
0001
1000
0100
0000
1100
0000
1000
0000
,  // measure 42
0010
0000
1010
0000
1000
0001
0100
0000
0101
0000
0001
0010
0100
0000
0110
0000
,  // measure 43
0010
0100
1000
0000
1100
0000
0100
1000
0001
0000
1001
0000
0001
0100
0010
0000
,  // measure 44
0110
1010
0110
0202
0303
0001
1001
1100
,  // measure 45
1001
0000
0202
0000
0303
0000
0100
0000
0110
0000
0010
1000
0100
0000
1100
0000
,  // measure 46
1000
0010
0100
0000
0110
0000
0010
0100
0001
0000
0101
0000
1001
0000
1100
0000
,  // measure 47
0110
0000
0010
0001
1000
0000
1001
0000
0001
0000
0100
0000
0101
0000
0101
0000
,  // measure 48
1010
1100
1001
0001
0200
0000
0000
0000
,  // measure 49
0000
0300
0000
0000
0000
0000
0000
0000
;
