#TITLE:L.L.L.;
#SUBTITLE:オーバーロード;
#ARTIST:MYTH&ROID;
#TITLETRANSLIT:L. L. L.;
#SUBTITLETRANSLIT:Overlord;
#ARTISTTRANSLIT:Myth & Roid;
#GENRE:Anime;
#CREDIT:Huzure & Itsugo;
#BANNER:Albedo-bn.png;
#BACKGROUND:Albedo-bg.png;
#JACKET:Albedo-Jacket.png;
#LYRICSPATH:L.L.L..lrc;
#CDTITLE:Collab.png;
#MUSIC:L.L.L..mp3;
#OFFSET:0.077;
#SAMPLESTART:42.544;
#SAMPLELENGTH:21.200;
#SELECTABLE:YES;
#LISTSORT:;
#DISPLAYBPM:208;
#BPMS:0.000=208.000,137.000=104.000,137.500=208.000;
#STOPS:110.000=0.288
,112.000=0.865
,114.000=0.288
,116.000=0.865
,118.000=0.288
,137.500=0.144
;
#TICKCOUNT:0.000=6;
#BGCHANGES:-0.250=Overlord ED.avi=1.000=1=0=0,
99999=-nosongbg-=1.000=0=0=0 // don't automatically add -songbackground-
;
#KEYSOUNDS:;
#ATTACKS:;

//---------------dance-single - Huzure----------------
#NOTES:
     dance-single:
     Huzure:
     Challenge:
     11:
     0.969,1.000,0.955,0.411,0.472: // measure 1
0000
0000
0000
0000
,  // measure 2
0000
0000
0000
0000
,  // measure 3
0000
0000
0000
0000
,  // measure 4
0010
1000
0010
1000
0001
0010
0100
0000
,  // measure 5
1100
0000
1100
0000
0000
0000
0001
0000
0000
0000
0010
0000
0000
0000
0010
0100
,  // measure 6
1000
0010
1000
0010
0100
0001
0100
0001
,  // measure 7
1001
0000
1001
0000
0000
0000
0110
0000
0000
0000
1000
0100
1000
0001
0010
0100
,  // measure 8
1000
0101
0100
1010
,  // measure 9
0010
1000
0100
0010
0001
0000
0100
0102
,  // measure 10
0000
0000
0000
0000
0103
0000
2001
0000
0000
0000
3010
0100
0001
0100
0010
0000
,  // measure 11
0000
0000
1000
0100
0010
0000
0000
0000
0100
0010
0002
0000
0000
0000
0003
0000
,  // measure 12
1001
0000
0110
0000
1002
0000
0103
0010
,  // measure 13
1000
1000
0100
0100
0010
0010
0001
0000
,  // measure 14
0010
0100
0001
0100
1000
0100
0010
0000
,  // measure 15
0001
0100
0010
1000
0001
0000
1000
0010
0100
0001
0010
0100
1000
0100
1000
0001
,  // measure 16
0200
0000
0010
0000
0001
0300
1000
0010
,  // measure 17
0001
0010
0100
0010
1000
0001
0010
0000
,  // measure 18
0110
0110
0000
0100
1001
1001
0000
0010
,  // measure 19
0100
0001
1000
0100
1000
0010
0100
0001
2000
0000
0000
0000
3010
0000
0000
0000
,  // measure 20
0011
0000
1010
0000
0102
0000
1000
1000
,  // measure 21
0103
1000
0000
0100
1000
0001
0000
0010
,  // measure 22
0100
0001
0100
0010
0100
0001
0100
0000
,  // measure 23
1000
0100
0010
0100
1000
0000
0001
0010
0100
0010
0001
1000
0010
0100
0010
1000
,  // measure 24
0001
0000
0011
0000
1100
0000
0100
0100
,  // measure 25
0010
0101
0000
0010
0100
1010
0000
0010
,  // measure 26
0020
0000
0000
0000
1030
0000
0001
0010
0001
0000
1000
0000
0010
0000
0100
0000
,  // measure 27
0002
0000
0000
0000
,  // measure 28
1003
0002
0010
0100
1000
2003
0010
0100
,  // measure 29
3001
1001
0100
0010
1001
0110
0001
1000
,  // measure 30
0110
0101
0100
0001
1100
1010
0010
1000
,  // measure 31
0011
0000
0000
0000
0001
0010
0100
1000
0001
0010
0100
1000
0001
0000
0000
0000
,  // measure 32
0011
0000
0000
0000
1100
0000
0000
0000
1001
0000
0000
0000
0001
0000
0010
0100
,  // measure 33
1000
0100
0010
0000
0000
0000
0002
0000
0000
0000
0000
0000
0000
0000
0013
0000
,  // measure 34
1000
0001
1000
0010
0001
1000
0100
0001
,  // measure 35
1000
0020
0000
0030
0011
0000
1100
0000
,  // measure 36
0001
1000
0001
0000
0110
0101
0000
0110
,  // measure 37
0000
0010
0010
1000
0010
0000
1100
1000
,  // measure 38
0001
0010
0011
0000
0201
0001
0000
0310
,  // measure 39
0000
1001
0000
1100
0011
0000
0001
0000
,  // measure 40
1010
0000
0010
0000
1100
0000
1000
0002
,  // measure 41
0000
0100
0000
0203
0000
0301
1000
0100
,  // measure 42
1000
0001
0100
0000
0010
1000
0001
0100
,  // measure 43
0001
0000
0010
0100
1000
0100
0010
0001
1000
0000
0000
0000
1010
0000
0010
0000
,  // measure 44
0100
0001
0101
0000
1200
0010
0000
0310
,  // measure 45
0000
0011
0110
0000
1000
0001
0100
0010
,  // measure 46
0001
0010
0100
0000
0020
0000
1000
0100
,  // measure 47
0000
0000
0230
0000
0000
0000
0301
0010
0001
0000
0000
0000
1001
0000
0000
0000
,  // measure 48
0201
0000
0000
0000
0010
0000
0000
0000
0310
0000
0000
0000
1001
0000
0000
0010
,  // measure 49
0100
0001
1000
0100
0000
1000
0110
1010
,  // measure 50
0000
0000
0100
0010
1000
0001
0200
0000
0000
0000
0301
0000
0100
0000
0000
0000
,  // measure 51
0010
0100
0110
0000
0000
0000
0000
0000
1001
0000
0000
0000
0110
0000
0000
0000
,  // measure 52
0110
0000
0002
0000
1003
0010
0100
0001
,  // measure 53
0001
0100
0010
1000
1001
0000
0101
0000
,  // measure 54
0101
0000
0000
0000
2000
0000
0000
0000
3001
0010
0100
1000
0010
0100
0001
0010
,  // measure 55
0100
1000
0010
1000
0100
0010
0001
0100
0001
0000
0000
0000
0110
0000
0000
0000
,  // measure 56
0110
0000
2000
0000
3001
0001
0010
0220
,  // measure 57
0000
0330
0100
0000
0100
0000
1000
0000
1001
0000
0101
0000
0000
0000
1001
0000
,  // measure 58
1010
1100
0000
0110
1001
0110
0000
0001
,  // measure 59
0100
0010
1000
0010
0100
0001
0100
0010
1000
0000
0000
0000
0101
0000
0000
0000
,  // measure 60
0011
0000
0200
0000
1300
0001
0100
0010
,  // measure 61
0010
1000
0001
0100
0110
0000
1001
0000
,  // measure 62
0110
0000
0000
0000
0020
0000
1000
0000
1030
0001
0010
0001
0100
0010
1000
0100
,  // measure 63
0010
0001
0010
0100
1000
0010
0100
0001
1000
0000
0000
0000
1100
0000
0000
0000
,  // measure 64
0011
0000
0002
1000
1003
0100
0010
0002
,  // measure 65
0000
0013
0100
1000
1001
0001
0101
0100
,  // measure 66
0110
0000
0010
0000
1010
0000
1000
0000
0001
0010
0001
0010
0001
0100
0001
0100
,  // measure 67
0010
1000
0010
1000
0100
1000
0100
1000
0001
0010
0100
1000
0100
0010
0001
1000
,  // measure 68
0100
0010
0001
0010
0100
1000
0010
0100
0002
0000
0000
0000
0000
0000
0000
0000
,  // measure 69
2003
0000
3020
0000
,  // measure 70
0230
0000
0302
0000
,  // measure 71
0023
0000
0230
0000
,  // measure 72
0000
0000
0000
0000
0000
0000
0000
0000
1300
0100
0010
0001
0010
0001
1000
0010
,  // measure 73
0100
0001
0100
0001
1000
0010
0100
0001
0000
0000
0000
0000
0000
0000
0000
0000
;

//---------------dance-single - Huzure----------------
#NOTES:
     dance-single:
     Huzure:
     Medium:
     7:
     0.522,0.684,0.111,0.300,0.000:
0000
0000
0000
0000
,
0000
0000
0000
0000
,
0000
0000
0000
0000
,
1000
0100
0100
0100
,
0010
0001
0000
0010
0000
0001
0000
1000
,
0010
1000
0010
1000
,
0001
0100
0000
0010
0000
0200
0000
0301
,
1000
1001
0001
1001
,
0100
0000
0110
0000
0010
0000
0100
0001
,
0000
0000
1000
0010
0000
0000
1000
0100
,
0000
0000
0110
0000
0000
0011
0000
0000
,
0002
0023
0230
1300
,
0001
0010
0100
1000
0001
0000
1000
0000
,
0010
0100
0010
0100
0002
0000
0103
0000
,
0010
0000
1000
0010
0000
0100
0010
0000
,
1000
1100
1100
0001
,
0010
0001
0010
0100
1000
0000
0010
0000
,
0100
0001
0000
0100
0010
1000
0000
0010
,
0100
0001
0000
1000
1000
0000
1100
0000
,
0010
0000
0010
0000
0020
0000
0031
0100
,
0001
1000
0000
0010
0000
1000
0001
0000
,
0010
0100
1000
0100
0010
0000
0001
0000
,
1000
0000
0000
0100
0000
0000
0020
0000
,
0031
0001
0001
1000
,
0010
0100
0000
0001
0000
1000
0000
0000
,
0200
0000
0310
0001
,
2000
0000
0000
0000
,
3000
0001
0010
0001
0010
0010
0100
0010
,
0100
0100
1000
0100
1000
1000
0001
1000
,
0001
1000
0010
1000
0010
0100
0001
0100
,
0001
0000
1000
0020
,
0000
0230
0000
0301
,
0100
0001
0000
2000
0000
0000
0000
0000
,
0000
0000
0000
0000
,
0000
0000
0000
3000
0001
0000
0100
0000
,
0010
0000
0100
0000
0001
1000
0000
0001
,
0000
1000
0001
0000
1000
0000
0100
0000
,
0010
0000
0100
0000
1000
0000
0010
0100
,
0000
0010
0000
0100
0010
0000
1000
0000
,
0020
0000
1000
0000
1030
0000
0100
0010
,
0000
0110
0000
0110
0000
0010
0001
0010
,
0001
0000
1000
0000
0010
0100
0010
0100
,
0000
0100
0001
0000
1000
0000
0100
0000
,
0010
0000
0001
0000
1000
0000
0010
1000
,
0000
0010
0000
1000
0010
0000
0100
0000
,
0010
0000
1000
0000
0001
0000
0010
0001
,
0000
0100
0000
0001
0010
0000
0200
0000
,
2300
3000
0100
0020
,
0032
0000
0003
1000
0000
0010
0100
0010
,
0000
1000
0000
0002
0000
0000
0103
0000
,
0010
1000
0000
0000
0001
0000
0001
0000
,
0001
0000
2000
0000
3001
0010
0001
0010
,
0000
0010
0001
0000
0100
0000
0100
0000
,
0100
0000
0020
0000
1030
0010
1000
0020
,
0000
0230
0301
1000
,
0010
0000
0200
0000
0301
1000
0100
1000
,
0000
1000
0001
0000
0100
0010
0000
1000
,
0010
1000
0000
0010
0100
0010
0000
1000
,
0001
0010
0010
0010
,
0002
0000
0003
0000
1000
0010
0000
0100
,
0000
0000
0001
0010
0100
0000
0100
0000
,
0100
0000
2000
0000
3010
0100
0000
0001
,
0000
0100
0010
0000
1000
0000
0100
0000
,
0010
0000
0002
0000
1003
0010
0000
0001
,
0000
0010
1000
0000
0001
0000
0010
0000
,
0100
0000
1000
0000
0001
0100
0000
0010
,
0000
0000
1000
0000
0001
0000
0000
0010
,
0000
0100
1000
0000
,
0010
0000
1000
0000
,
0001
0000
1000
0000
,
0010
0000
2000
0000
,
0000
0000
0000
0000
,
0000
0000
3000
0000
;

//---------------dance-single - Itsugo15----------------
#NOTES:
     dance-single:
     Itsugo15:
     Hard:
     9:
     0.784,0.886,1.000,0.389,0.106:
0000
0000
0000
0000
,
0000
0000
0000
0000
,
0000
0000
0000
0000
,
1010
1100
0110
0010
,
0001
1000
0100
0010
0000
0001
1000
0000
,
1001
0101
0110
0100
,
0001
0100
0010
1000
0000
0002
1000
0003
,
2001
0100
0010
0100
,
3002
0000
0100
0000
0010
0000
1003
1100
,
0000
0000
0001
0000
0100
0000
0101
0000
0000
0000
0001
1000
0001
0000
0020
0000
,
0000
0031
0200
0000
0310
2000
0000
3000
,
1010
0101
1100
1000
,
0100
0100
0010
0002
0000
0013
0001
1000
,
0010
0001
0010
0100
0001
1000
0010
0100
,
0001
0000
1000
0100
1000
0000
0001
1000
0001
0000
0100
0001
0100
0000
0010
0000
,
0110
1001
0110
0010
,
0001
1000
0010
0200
0000
0301
0010
0100
,
1000
0000
1000
0000
0100
0000
0010
0000
0010
0000
0100
0000
1000
0000
1000
0001
,
1000
0000
0010
1000
0010
0000
1000
0000
1001
0000
0000
0000
1001
0000
0000
0000
,
0011
0000
1001
0000
0101
0100
0001
0010
,
0100
1000
0001
1000
0000
1000
0001
0000
,
0100
0000
0001
0000
0100
0000
0010
0000
0100
0000
1000
0000
0100
0000
0010
0100
,
0010
0000
1000
0010
1000
0000
0001
1000
0001
0000
0010
0001
0010
0000
0000
0000
,
0011
0000
1100
0000
0101
0100
0002
0000
,
1003
0100
0010
0000
0001
1000
0010
0000
,
0200
0000
0301
1000
0100
0000
1100
0000
,
1001
0000
0001
0100
0000
M020
000M
0M00
,
1030
0001
0010
0100
0110
0001
0010
0100
,
M11M
1000
0100
0010
0110
1000
0100
0010
,
M11M
0010
0100
0010
1001
0100
0010
0100
,
1001
0001
1000
1001
,
0101
0011
1100
2010
,
3001
0010
0000
0100
2000
0000
3000
1000
,
0100
0010
0001
0010
0100
1000
0001
0100
,
0010
0000
2000
000M
00M0
0M00
3000
0000
1010
0000
0000
0000
1100
0000
0000
0000
,
0011
0000
0101
0000
1001
0000
0001
0010
,
0000
0010
0100
0000
0110
0000
1100
0000
,
1001
0000
0101
0000
0110
0000
0010
1000
,
0000
1000
0001
0000
1002
0000
0010
0000
,
0100
0000
1000
0000
2003
0000
0100
0100
,
0000
3010
0100
0110
0000
0010
1000
0100
,
0010
0001
1000
0010
0100
0001
1000
0400
,
000M
M000
00M0
030M
1100
0000
1100
0000
,
1010
0000
1010
0000
0010
0200
0000
0010
,
0000
0301
0000
0000
0101
0000
0101
0000
,
0011
0000
0011
0000
0001
0020
0000
0100
,
0000
0200
0000
0330
0110
0000
0011
0000
,
1001
1010
0110
0101
,
1100
1000
0001
1001
0000
0100
0010
0110
,
0000
0001
1000
1001
0000
0110
0110
0000
,
1001
0000
1001
0000
0000
0000
0000
0000
0110
0000
0000
1000
0100
0000
0000
0000
,
0220
0000
0330
0000
0010
0001
1000
0020
,
0000
0000
0130
0000
0001
0000
1000
0000
1001
0000
0000
0100
0001
0000
0000
0000
,
1001
0000
0001
0000
4M04
00M0
0M00
00M0
,
0M00
0000
00M0
0000
0M00
0000
30M3
0000
0110
0000
0000
0001
0010
0000
0000
0000
,
0220
0000
0330
0000
0100
1000
0001
0200
,
0000
0310
1000
0001
0010
0100
0000
1000
,
0010
0100
0000
0001
0010
0100
0000
1000
,
0100
0000
0010
0000
0001
0000
1000
0000
1001
0000
0000
1000
0010
0000
0000
0000
,
1001
0000
0001
0000
0010
0100
1000
0002
,
0000
0000
1003
0000
0010
0000
0100
0000
0110
0000
0000
0100
0001
0000
0000
0000
,
0011
0000
0001
0000
M044
0M00
M000
0M00
,
M000
0000
0M00
0000
M033
0000
0000
0000
0011
0000
0000
0001
0100
0000
0000
0000
,
1010
0000
1000
0000
0001
0010
0100
1000
,
0000
0000
1000
0000
0010
0000
0100
0000
0110
0000
0000
0001
0100
0000
0000
0000
,
1100
0110
0011
1100
,
0101
0000
1010
0000
4M04
00M0
0M00
00M0
,
0M00
00M0
3M03
0000
1000
0000
M000
0000
,
0010
0000
00M0
0000
0100
0001
0000
0101
,
0000
0101
0000
0000
0001
0000
000M
0000
,
0010
0000
00M0
0000
0100
1000
0000
1100
,
0000
440M
00M0
000M
00M0
000M
00M0
000M
,
00M0
000M
00M0
000M
33M0
0000
0000
0000
;

//---------------dance-single - Itsugo15----------------
#NOTES:
     dance-single:
     Itsugo15:
     Beginner:
     2:
     0.127,0.161,0.133,0.022,0.000:
0000
0000
0000
0000
,
0000
0000
0000
0000
,
0000
0000
0000
0000
,
0001
0000
0000
0000
,
0001
0000
0000
0000
,
1000
0000
0000
0000
,
1000
0000
0000
0000
,
0001
0000
0000
0000
,
0100
0000
0000
0000
0000
0000
0000
0010
,
0000
0000
0000
0000
0000
0000
0000
1000
,
0000
0000
0000
0000
,
0001
0000
0000
0000
,
0001
0000
0000
0000
,
0100
0000
0000
0000
,
0100
0000
0000
0000
,
0010
0000
0000
0000
,
0010
0000
0000
0000
,
1000
0000
0000
0000
,
1000
0000
0000
0000
,
0001
0000
0000
0000
,
0001
0000
0000
0000
,
0010
0000
0000
0000
,
0010
0000
0000
0000
,
0100
0000
0000
0000
,
0100
0000
0000
0000
,
1000
0000
0000
0000
,
1000
0000
0000
0000
,
0000
0001
0000
0000
0001
0000
0000
0000
,
0000
0100
0000
0000
0100
0000
0000
0000
,
0000
0010
0000
0000
0010
0000
0000
0000
,
0000
0000
0000
1000
,
0000
0000
0000
0001
,
0000
0000
0000
0020
,
0000
0000
0000
0000
,
0000
0030
1001
0000
,
0000
0000
1001
0000
,
0000
0000
1000
0000
,
0000
0000
0010
0000
,
0000
0000
0100
0000
,
0000
0000
0001
0000
,
0000
0000
0000
1000
0000
0000
0000
0000
,
0000
0000
0001
0000
,
0000
0000
1001
0000
,
0000
0000
1001
0000
,
0000
0000
0001
0000
,
0000
0000
0100
0000
,
0000
0000
0010
0000
,
0000
0000
1000
0000
,
0000
0000
0000
0001
0000
0000
0000
0000
,
0000
0000
0000
1000
0000
0000
0000
0000
,
0000
0000
1001
0000
,
0000
0000
0011
0000
,
0000
0000
0001
0000
,
0000
0000
1000
0000
,
0000
0000
1001
0000
,
0000
0000
1010
0000
,
0000
0000
1000
0000
,
0000
0000
0001
0000
,
0000
0000
1001
0000
,
0000
0000
0011
0000
,
0000
0000
0010
0000
,
0000
0000
0001
0000
,
0000
0000
0011
0000
,
0000
0000
1001
0000
,
0000
0000
0001
0000
,
0000
0000
1000
0000
,
0000
0000
0020
0000
,
0000
0000
0030
0000
,
0000
0000
0000
0000
,
0000
0000
0000
0000
,
0000
0000
0000
0000
,
0000
0000
0000
0000
,
0000
0000
0MM0
0000
;

//---------------dance-single - Itsugo15----------------
#NOTES:
     dance-single:
     Itsugo15:
     Easy:
     4:
     0.273,0.523,0.278,0.289,0.000:
0000
0000
0000
0000
,
0000
0000
0000
0000
,
0000
0000
0000
0000
,
1000
0000
1000
0000
,
0001
0000
0000
0000
,
0001
0000
0001
0000
,
1000
0000
0000
0000
,
0020
0000
0130
0000
,
0200
0000
0000
0000
0310
0000
0000
0020
,
0000
0030
0000
2000
0000
3000
0000
0002
,
0000
0003
0000
0020
0000
0030
0000
0000
,
0001
0000
0002
0000
,
0003
0000
0000
0000
,
1000
0000
0010
0000
,
0100
0000
0001
0000
,
1000
0000
2000
0000
,
3000
0000
0000
0000
,
0001
0000
0010
0000
,
0100
0000
1000
0000
,
1100
0000
2200
0000
,
3300
0000
0000
0000
,
0001
0000
0001
0000
,
0100
0000
0001
0000
,
0101
0000
0202
0000
,
0303
0000
0000
0000
,
1000
0000
0001
0000
,
1000
0000
0000
0000
,
0002
0000
0000
0103
0000
2000
0000
0000
,
3010
0002
0000
0000
0013
2000
0000
0000
,
3100
0002
0000
0000
1003
2000
0000
0000
,
3001
0000
0000
1001
,
0000
1000
0000
0010
,
0000
0200
0000
0000
0000
0000
0000
0000
,
0000
0000
0000
0000
,
0000
0300
1001
0000
,
0011
0000
0001
0000
,
1000
0000
1001
0000
,
1010
0000
0010
0000
,
0100
0000
0110
0000
,
0100
0000
0001
0000
,
0010
0000
0100
0000
,
1000
0000
0001
0000
,
0100
0000
0101
0000
,
1001
0000
1000
0000
,
0100
0000
1100
0000
,
1001
0000
0001
0000
,
0100
0000
0010
0000
,
1000
0000
0100
0000
,
0010
0000
0000
0001
0000
0000
0000
1000
,
0000
0000
0000
0010
0000
0000
0000
0000
,
0100
0000
0110
0000
,
0010
0000
1000
0000
,
1000
0000
0001
0000
,
1001
0000
0002
0000
,
0000
0000
1003
0000
,
1001
0000
1000
0000
,
0100
0000
0010
0000
,
0001
0000
1000
0000
,
0010
0000
1010
0000
,
1010
0000
1000
0000
,
0001
0000
1001
0000
,
1001
0000
0001
0000
,
0010
0000
0011
0000
,
0011
0000
0010
0000
,
0100
0000
0110
0000
,
0110
0000
0100
0000
,
2000
0000
0002
0000
,
0000
3000
2003
0000
,
3000
0000
0020
0000
,
0030
0000
0200
0000
,
0300
0000
0002
0000
,
0000
0000
0000
0000
,
0000
0000
0003
0000
;
