#TITLE:.-.. --- ...- . (signum-ii remix);
#SUBTITLE:disco metric;
#ARTIST:ShibayanRecords;
#TITLETRANSLIT:L O V E (signum-ii remix);
#SUBTITLETRANSLIT:Disco Metric;
#ARTISTTRANSLIT:Shibayan Records;
#GENRE:Touhou;
#CREDIT:Itsugo15 & Loodee;
#BANNER:LOVE (signum-ii remix)-bn.png;
#JACKET:LOVE (signum-ii remix)-Jacket.png;
#BACKGROUND:LOVE (signum-ii remix)-bg.png;
#LYRICSPATH:LOVE (signum-ii remix).lrc;
#CDTITLE:Itsugo15 SimifileS.png;
#MUSIC:LOVE (signum-ii remix).ogg;
#OFFSET:-0.795;
#SAMPLESTART:59.800;
#SAMPLELENGTH:30.000;
#SELECTABLE:YES;
#LISTSORT:;
#DISPLAYBPM:130.000;
#BPMS:0.000=130.000,128.000=195.000,129.750=130.000,130.250=195.000,132.375=65.000,132.500=195.000,132.750=130.000,133.250=195.000,133.500=162.500,133.750=130.000,134.250=195.000,134.500=130.000,135.000=195.000,137.750=130.000,138.250=195.000,143.750=162.500,144.000=195.000,151.125=65.000,151.250=130.000,151.750=195.000,152.000=130.000,152.500=195.000,153.750=162.500,154.000=195.000,155.375=65.000,155.500=195.000,155.875=65.000,156.000=195.000,156.375=65.000,156.500=195.000,156.875=65.000,157.000=195.000,157.375=65.000,157.500=130.000,160.000=195.000,160.375=65.000,160.500=195.000,163.500=130.000,164.000=195.000,164.750=130.000,165.250=195.000,165.500=162.500,165.750=130.000,166.250=195.000,167.500=130.000,168.000=195.000,169.750=162.500,170.000=195.000,170.500=162.500,170.750=195.000,172.000=130.000,172.500=195.000,172.750=130.000,173.250=195.000,174.750=130.000,175.250=195.000,176.000=130.000,176.500=195.000,178.000=130.000,178.500=195.000,178.750=130.000,179.250=195.000,181.750=130.000,182.250=195.000,182.750=130.000,183.250=195.000,184.000=130.000,184.500=195.000,185.750=162.500,186.000=195.000,186.250=130.000,186.750=195.000,187.375=65.000,187.500=195.000,187.875=65.000,188.000=130.000,188.500=195.000,188.750=130.000,189.250=195.000,190.750=130.000,191.250=195.000,192.000=130.000,256.000=195.000,256.375=65.000,256.500=195.000,259.500=130.000,260.000=195.000,260.750=130.000,261.250=195.000,261.500=162.500,261.750=130.000,262.250=195.000,263.500=130.000,264.000=195.000,265.750=162.500,266.000=195.000,266.500=162.500,266.750=195.000,268.000=130.000,268.500=195.000,270.750=130.000,271.250=195.000,274.000=130.000,274.500=195.000,274.750=130.000,275.750=195.000,280.000=130.000,280.500=195.000,281.750=162.500,282.000=195.000,282.250=130.000,282.750=195.000,283.375=65.000,283.500=195.000,283.875=65.000,284.000=130.000,284.500=195.000,286.750=130.000,287.250=195.000,288.000=130.000;
#STOPS:128.000=0.038
,128.250=0.039
,128.500=0.038
,128.750=0.039
,129.000=0.038
,129.250=0.077
,130.250=0.039
,130.500=0.038
,130.750=0.038
,131.000=0.039
,131.250=0.038
,131.500=0.039
,131.750=0.038
,132.500=0.039
,133.250=0.038
,133.500=0.011
,133.625=0.012
,134.250=0.038
,135.000=0.039
,135.250=0.038
,135.500=0.039
,135.750=0.039
,136.000=0.077
,136.500=0.038
,136.750=0.039
,137.000=0.038
,137.250=0.039
,137.500=0.038
,138.250=0.038
,138.500=0.039
,138.750=0.038
,139.000=0.039
,139.250=0.039
,139.500=0.039
,139.750=0.038
,140.000=0.038
,140.250=0.039
,140.500=0.077
,141.000=0.077
,141.500=0.077
,142.000=0.038
,142.250=0.077
,142.750=0.077
,143.250=0.077
,143.750=0.011
,143.875=0.012
,144.000=0.077
,144.500=0.038
,144.750=0.077
,145.250=0.039
,145.500=0.038
,145.750=0.039
,146.000=0.038
,146.250=0.039
,146.500=0.038
,146.750=0.077
,147.250=0.039
,147.500=0.038
,147.750=0.038
,148.000=0.038
,148.250=0.039
,148.500=0.038
,148.750=0.077
,149.250=0.039
,149.500=0.038
,149.750=0.077
,150.250=0.039
,150.500=0.038
,151.750=0.038
,152.500=0.038
,152.750=0.077
,153.250=0.077
,153.750=0.011
,153.875=0.012
,154.000=0.039
,154.250=0.077
,154.750=0.038
,160.500=0.077
,161.000=0.038
,161.250=0.077
,161.750=0.039
,162.000=0.038
,162.250=0.077
,162.750=0.078
,163.250=0.038
,164.000=0.038
,164.250=0.039
,164.500=0.039
,165.250=0.038
,165.500=0.011
,165.625=0.012
,166.250=0.038
,166.500=0.039
,166.750=0.077
,167.250=0.038
,168.000=0.038
,168.250=0.039
,168.500=0.038
,168.750=0.039
,169.000=0.038
,169.250=0.039
,169.500=0.038
,169.750=0.011
,169.875=0.012
,170.000=0.038
,170.250=0.039
,170.500=0.011
,170.625=0.012
,170.750=0.038
,171.000=0.039
,171.250=0.038
,171.500=0.038
,171.750=0.039
,172.500=0.038
,173.250=0.039
,173.500=0.038
,173.750=0.077
,174.250=0.039
,174.500=0.039
,175.250=0.038
,175.500=0.039
,175.750=0.038
,176.500=0.038
,176.750=0.077
,177.250=0.039
,177.500=0.077
,178.500=0.038
,179.250=0.077
,179.750=0.039
,180.000=0.038
,180.250=0.077
,180.750=0.039
,181.000=0.038
,181.250=0.077
,182.250=0.039
,182.500=0.039
,183.250=0.038
,183.500=0.077
,184.500=0.038
,184.750=0.077
,185.250=0.077
,185.750=0.011
,185.875=0.012
,186.000=0.039
,186.750=0.038
,188.500=0.038
,189.250=0.039
,189.500=0.038
,189.750=0.077
,190.250=0.039
,190.500=0.038
,191.250=0.038
,191.500=0.039
,191.750=0.038
,256.500=0.077
,257.000=0.038
,257.250=0.077
,257.750=0.039
,258.000=0.038
,258.250=0.077
,258.750=0.077
,259.250=0.038
,260.000=0.038
,260.250=0.039
,260.500=0.038
,261.250=0.038
,261.500=0.011
,261.625=0.012
,262.250=0.039
,262.500=0.039
,262.750=0.078
,263.250=0.038
,264.000=0.038
,264.250=0.039
,264.500=0.038
,264.750=0.039
,265.000=0.038
,265.250=0.039
,265.500=0.038
,265.750=0.011
,265.875=0.012
,266.000=0.038
,266.250=0.039
,266.500=0.011
,266.625=0.012
,266.750=0.039
,267.000=0.038
,267.250=0.039
,267.500=0.038
,267.750=0.039
,268.500=0.038
,268.750=0.077
,269.250=0.039
,269.500=0.038
,269.750=0.077
,270.250=0.039
,270.500=0.038
,271.250=0.038
,271.500=0.038
,271.750=0.039
,272.000=0.077
,272.500=0.038
,272.750=0.077
,273.250=0.039
,273.500=0.038
,273.750=0.039
,274.500=0.038
,275.750=0.038
,276.000=0.039
,276.250=0.077
,276.750=0.038
,277.000=0.039
,277.250=0.077
,277.750=0.077
,278.250=0.038
,278.500=0.039
,278.750=0.077
,279.250=0.038
,279.500=0.077
,280.500=0.038
,280.750=0.077
,281.250=0.077
,281.750=0.011
,281.875=0.012
,282.000=0.039
,282.750=0.038
,284.500=0.039
,284.750=0.077
,285.250=0.039
,285.500=0.038
,285.750=0.077
,286.250=0.039
,286.500=0.038
,287.250=0.038
,287.500=0.039
,287.750=0.038
;
#TICKCOUNT:0.000=6;
#BGCHANGES:32.000=LOVE (signum-ii remix)-bg1.jpg=1.000=1=1=0,
48.000=LOVE (signum-ii remix)-bg2.jpg=1.000=1=1=0,
64.000=LOVE (signum-ii remix)-bg3.jpg=1.000=1=1=0,
80.000=LOVE (signum-ii remix)-bg4.jpg=1.000=1=1=0,
96.000=LOVE (signum-ii remix)-bg5.jpg=1.000=1=1=0,
111.250=LOVE (signum-ii remix)-bg6.jpg=1.000=1=1=0,
128.000=LOVE (signum-ii remix)-bg7.jpg=1.000=0=1=0,
128.250=LOVE (signum-ii remix)-bg8.jpg=1.000=0=1=0,
128.500=LOVE (signum-ii remix)-bg9.jpg=1.000=0=1=0,
128.750=LOVE (signum-ii remix)-bg10.jpg=1.000=0=1=0,
129.000=LOVE (signum-ii remix)-bg11.jpg=1.000=0=1=0,
129.250=LOVE (signum-ii remix)-bg12.jpg=1.000=0=1=0,
130.250=LOVE (signum-ii remix)-bg13.jpg=1.000=0=1=0,
130.500=LOVE (signum-ii remix)-bg14.jpg=1.000=0=1=0,
130.750=LOVE (signum-ii remix)-bg15.jpg=1.000=0=1=0,
131.000=LOVE (signum-ii remix)-bg16.jpg=1.000=0=1=0,
131.250=LOVE (signum-ii remix)-bg17.jpg=1.000=0=1=0,
131.500=LOVE (signum-ii remix)-bg18.jpg=1.000=0=1=0,
131.750=LOVE (signum-ii remix)-bg19.jpg=1.000=0=1=0,
132.500=LOVE (signum-ii remix)-bg1.jpg=1.000=0=1=0,
133.250=LOVE (signum-ii remix)-bg2.jpg=1.000=0=1=0,
133.625=LOVE (signum-ii remix)-bg3.jpg=1.000=0=1=0,
134.250=LOVE (signum-ii remix)-bg4.jpg=1.000=0=1=0,
135.000=LOVE (signum-ii remix)-bg5.jpg=1.000=0=1=0,
135.250=LOVE (signum-ii remix)-bg6.jpg=1.000=0=1=0,
135.500=LOVE (signum-ii remix)-bg7.jpg=1.000=0=1=0,
135.750=LOVE (signum-ii remix)-bg8.jpg=1.000=0=1=0,
136.000=LOVE (signum-ii remix)-bg9.jpg=1.000=0=1=0,
136.500=LOVE (signum-ii remix)-bg10.jpg=1.000=0=1=0,
136.750=LOVE (signum-ii remix)-bg11.jpg=1.000=0=1=0,
137.000=LOVE (signum-ii remix)-bg12.jpg=1.000=0=1=0,
137.250=LOVE (signum-ii remix)-bg13.jpg=1.000=0=1=0,
137.500=LOVE (signum-ii remix)-bg14.jpg=1.000=0=1=0,
138.250=LOVE (signum-ii remix)-bg15.jpg=1.000=0=1=0,
138.500=LOVE (signum-ii remix)-bg16.jpg=1.000=0=1=0,
138.750=LOVE (signum-ii remix)-bg17.jpg=1.000=0=1=0,
139.000=LOVE (signum-ii remix)-bg18.jpg=1.000=0=1=0,
139.250=LOVE (signum-ii remix)-bg19.jpg=1.000=0=1=0,
139.500=LOVE (signum-ii remix)-bg1.jpg=1.000=0=1=0,
139.750=LOVE (signum-ii remix)-bg2.jpg=1.000=0=1=0,
140.000=LOVE (signum-ii remix)-bg3.jpg=1.000=0=1=0,
140.250=LOVE (signum-ii remix)-bg4.jpg=1.000=0=1=0,
140.500=LOVE (signum-ii remix)-bg5.jpg=1.000=0=1=0,
141.000=LOVE (signum-ii remix)-bg6.jpg=1.000=0=1=0,
141.500=LOVE (signum-ii remix)-bg7.jpg=1.000=0=1=0,
142.000=LOVE (signum-ii remix)-bg8.jpg=1.000=0=1=0,
142.250=LOVE (signum-ii remix)-bg9.jpg=1.000=0=1=0,
142.750=LOVE (signum-ii remix)-bg10.jpg=1.000=0=1=0,
143.250=LOVE (signum-ii remix)-bg11.jpg=1.000=0=1=0,
143.750=LOVE (signum-ii remix)-bg12.jpg=1.000=0=1=0,
144.000=LOVE (signum-ii remix)-bg13.jpg=1.000=0=1=0,
144.500=LOVE (signum-ii remix)-bg14.jpg=1.000=0=1=0,
144.750=LOVE (signum-ii remix)-bg15.jpg=1.000=0=1=0,
145.250=LOVE (signum-ii remix)-bg16.jpg=1.000=0=1=0,
145.500=LOVE (signum-ii remix)-bg17.jpg=1.000=0=1=0,
145.750=LOVE (signum-ii remix)-bg18.jpg=1.000=0=1=0,
146.000=LOVE (signum-ii remix)-bg19.jpg=1.000=0=1=0,
146.250=LOVE (signum-ii remix)-bg1.jpg=1.000=0=1=0,
146.500=LOVE (signum-ii remix)-bg2.jpg=1.000=0=1=0,
146.750=LOVE (signum-ii remix)-bg3.jpg=1.000=0=1=0,
147.250=LOVE (signum-ii remix)-bg4.jpg=1.000=0=1=0,
147.500=LOVE (signum-ii remix)-bg5.jpg=1.000=0=1=0,
147.750=LOVE (signum-ii remix)-bg6.jpg=1.000=0=1=0,
148.000=LOVE (signum-ii remix)-bg7.jpg=1.000=0=1=0,
148.250=LOVE (signum-ii remix)-bg8.jpg=1.000=0=1=0,
148.500=LOVE (signum-ii remix)-bg9.jpg=1.000=0=1=0,
148.750=LOVE (signum-ii remix)-bg10.jpg=1.000=0=1=0,
149.250=LOVE (signum-ii remix)-bg11.jpg=1.000=0=1=0,
149.500=LOVE (signum-ii remix)-bg12.jpg=1.000=0=1=0,
149.750=LOVE (signum-ii remix)-bg13.jpg=1.000=0=1=0,
150.250=LOVE (signum-ii remix)-bg14.jpg=1.000=0=1=0,
150.500=LOVE (signum-ii remix)-bg15.jpg=1.000=0=1=0,
151.125=LOVE (signum-ii remix)-bg16.jpg=1.000=0=1=0,
151.750=LOVE (signum-ii remix)-bg17.jpg=1.000=0=1=0,
152.500=LOVE (signum-ii remix)-bg18.jpg=1.000=0=1=0,
152.750=LOVE (signum-ii remix)-bg19.jpg=1.000=0=1=0,
153.250=LOVE (signum-ii remix)-bg1.jpg=1.000=0=1=0,
153.750=LOVE (signum-ii remix)-bg2.jpg=1.000=0=1=0,
154.000=LOVE (signum-ii remix)-bg3.jpg=1.000=0=1=0,
154.250=LOVE (signum-ii remix)-bg4.jpg=1.000=0=1=0,
154.750=LOVE (signum-ii remix)-bg5.jpg=1.000=0=1=0,
155.375=LOVE (signum-ii remix)-bg6.jpg=1.000=0=1=0,
155.875=LOVE (signum-ii remix)-bg7.jpg=1.000=0=1=0,
156.375=LOVE (signum-ii remix)-bg8.jpg=1.000=0=1=0,
156.875=LOVE (signum-ii remix)-bg9.jpg=1.000=0=1=0,
157.375=LOVE (signum-ii remix)-bg10.jpg=1.000=0=1=0,
158.000=LOVE (signum-ii remix)-bg11.jpg=1.000=0=1=0,
159.000=LOVE (signum-ii remix)-bg12.jpg=1.000=0=1=0,
160.000=LOVE (signum-ii remix)-bg13.jpg=1.000=0=1=0,
160.500=LOVE (signum-ii remix)-bg14.jpg=1.000=0=1=0,
161.000=LOVE (signum-ii remix)-bg15.jpg=1.000=0=1=0,
161.250=LOVE (signum-ii remix)-bg16.jpg=1.000=0=1=0,
161.750=LOVE (signum-ii remix)-bg17.jpg=1.000=0=1=0,
162.000=LOVE (signum-ii remix)-bg18.jpg=1.000=0=1=0,
162.250=LOVE (signum-ii remix)-bg19.jpg=1.000=0=1=0,
162.750=LOVE (signum-ii remix)-bg1.jpg=1.000=0=1=0,
163.250=LOVE (signum-ii remix)-bg2.jpg=1.000=0=1=0,
164.000=LOVE (signum-ii remix)-bg3.jpg=1.000=0=1=0,
164.250=LOVE (signum-ii remix)-bg4.jpg=1.000=0=1=0,
164.500=LOVE (signum-ii remix)-bg5.jpg=1.000=0=1=0,
165.250=LOVE (signum-ii remix)-bg6.jpg=1.000=0=1=0,
165.625=LOVE (signum-ii remix)-bg7.jpg=1.000=0=1=0,
166.250=LOVE (signum-ii remix)-bg8.jpg=1.000=0=1=0,
166.500=LOVE (signum-ii remix)-bg9.jpg=1.000=0=1=0,
166.750=LOVE (signum-ii remix)-bg10.jpg=1.000=0=1=0,
167.250=LOVE (signum-ii remix)-bg11.jpg=1.000=0=1=0,
168.000=LOVE (signum-ii remix)-bg12.jpg=1.000=0=1=0,
168.250=LOVE (signum-ii remix)-bg13.jpg=1.000=0=1=0,
168.500=LOVE (signum-ii remix)-bg14.jpg=1.000=0=1=0,
168.750=LOVE (signum-ii remix)-bg15.jpg=1.000=0=1=0,
169.000=LOVE (signum-ii remix)-bg16.jpg=1.000=0=1=0,
169.250=LOVE (signum-ii remix)-bg17.jpg=1.000=0=1=0,
169.500=LOVE (signum-ii remix)-bg18.jpg=1.000=0=1=0,
169.750=LOVE (signum-ii remix)-bg19.jpg=1.000=0=1=0,
170.000=LOVE (signum-ii remix)-bg1.jpg=1.000=0=1=0,
170.250=LOVE (signum-ii remix)-bg2.jpg=1.000=0=1=0,
170.500=LOVE (signum-ii remix)-bg3.jpg=1.000=0=1=0,
170.750=LOVE (signum-ii remix)-bg4.jpg=1.000=0=1=0,
171.000=LOVE (signum-ii remix)-bg5.jpg=1.000=0=1=0,
171.250=LOVE (signum-ii remix)-bg6.jpg=1.000=0=1=0,
171.500=LOVE (signum-ii remix)-bg7.jpg=1.000=0=1=0,
171.750=LOVE (signum-ii remix)-bg8.jpg=1.000=0=1=0,
172.500=LOVE (signum-ii remix)-bg9.jpg=1.000=0=1=0,
173.250=LOVE (signum-ii remix)-bg10.jpg=1.000=0=1=0,
173.500=LOVE (signum-ii remix)-bg11.jpg=1.000=0=1=0,
173.750=LOVE (signum-ii remix)-bg12.jpg=1.000=0=1=0,
174.250=LOVE (signum-ii remix)-bg13.jpg=1.000=0=1=0,
174.500=LOVE (signum-ii remix)-bg14.jpg=1.000=0=1=0,
175.250=LOVE (signum-ii remix)-bg15.jpg=1.000=0=1=0,
175.500=LOVE (signum-ii remix)-bg16.jpg=1.000=0=1=0,
175.750=LOVE (signum-ii remix)-bg17.jpg=1.000=0=1=0,
176.500=LOVE (signum-ii remix)-bg18.jpg=1.000=0=1=0,
176.750=LOVE (signum-ii remix)-bg19.jpg=1.000=0=1=0,
177.250=LOVE (signum-ii remix)-bg1.jpg=1.000=0=1=0,
177.500=LOVE (signum-ii remix)-bg2.jpg=1.000=0=1=0,
178.500=LOVE (signum-ii remix)-bg3.jpg=1.000=0=1=0,
179.250=LOVE (signum-ii remix)-bg4.jpg=1.000=0=1=0,
179.750=LOVE (signum-ii remix)-bg5.jpg=1.000=0=1=0,
180.000=LOVE (signum-ii remix)-bg6.jpg=1.000=0=1=0,
180.250=LOVE (signum-ii remix)-bg7.jpg=1.000=0=1=0,
180.750=LOVE (signum-ii remix)-bg8.jpg=1.000=0=1=0,
181.000=LOVE (signum-ii remix)-bg9.jpg=1.000=0=1=0,
181.250=LOVE (signum-ii remix)-bg10.jpg=1.000=0=1=0,
182.250=LOVE (signum-ii remix)-bg11.jpg=1.000=0=1=0,
182.500=LOVE (signum-ii remix)-bg12.jpg=1.000=0=1=0,
183.250=LOVE (signum-ii remix)-bg13.jpg=1.000=0=1=0,
183.500=LOVE (signum-ii remix)-bg14.jpg=1.000=0=1=0,
184.500=LOVE (signum-ii remix)-bg15.jpg=1.000=0=1=0,
184.750=LOVE (signum-ii remix)-bg16.jpg=1.000=0=1=0,
185.250=LOVE (signum-ii remix)-bg17.jpg=1.000=0=1=0,
185.750=LOVE (signum-ii remix)-bg18.jpg=1.000=0=1=0,
186.000=LOVE (signum-ii remix)-bg19.jpg=1.000=0=1=0,
186.750=LOVE (signum-ii remix)-bg1.jpg=1.000=0=1=0,
187.375=LOVE (signum-ii remix)-bg2.jpg=1.000=0=1=0,
187.875=LOVE (signum-ii remix)-bg3.jpg=1.000=0=1=0,
188.500=LOVE (signum-ii remix)-bg4.jpg=1.000=0=1=0,
189.250=LOVE (signum-ii remix)-bg5.jpg=1.000=0=1=0,
189.500=LOVE (signum-ii remix)-bg6.jpg=1.000=0=1=0,
189.750=LOVE (signum-ii remix)-bg7.jpg=1.000=0=1=0,
190.250=LOVE (signum-ii remix)-bg8.jpg=1.000=0=1=0,
190.500=LOVE (signum-ii remix)-bg9.jpg=1.000=0=1=0,
191.250=LOVE (signum-ii remix)-bg10.jpg=1.000=0=1=0,
191.500=LOVE (signum-ii remix)-bg11.jpg=1.000=0=1=0,
191.750=LOVE (signum-ii remix)-bg12.jpg=1.000=0=1=0,
192.000=LOVE (signum-ii remix)-bg13.jpg=1.000=1=1=0,
201.750=LOVE (signum-ii remix)-bg14.jpg=1.000=1=1=0,
209.500=LOVE (signum-ii remix)-bg15.jpg=1.000=1=1=0,
217.500=LOVE (signum-ii remix)-bg16.jpg=1.000=1=1=0,
225.500=LOVE (signum-ii remix)-bg17.jpg=1.000=1=1=0,
233.500=LOVE (signum-ii remix)-bg18.jpg=1.000=1=1=0,
241.500=LOVE (signum-ii remix)-bg19.jpg=1.000=1=1=0,
249.500=LOVE (signum-ii remix)-bg1.jpg=1.000=1=1=0,
256.000=LOVE (signum-ii remix)-bg2.jpg=1.000=0=1=0,
256.500=LOVE (signum-ii remix)-bg3.jpg=1.000=0=1=0,
257.000=LOVE (signum-ii remix)-bg4.jpg=1.000=0=1=0,
257.250=LOVE (signum-ii remix)-bg5.jpg=1.000=0=1=0,
257.750=LOVE (signum-ii remix)-bg6.jpg=1.000=0=1=0,
258.000=LOVE (signum-ii remix)-bg7.jpg=1.000=0=1=0,
258.250=LOVE (signum-ii remix)-bg8.jpg=1.000=0=1=0,
258.750=LOVE (signum-ii remix)-bg9.jpg=1.000=0=1=0,
259.250=LOVE (signum-ii remix)-bg10.jpg=1.000=0=1=0,
260.000=LOVE (signum-ii remix)-bg11.jpg=1.000=0=1=0,
260.250=LOVE (signum-ii remix)-bg12.jpg=1.000=0=1=0,
260.500=LOVE (signum-ii remix)-bg13.jpg=1.000=0=1=0,
261.250=LOVE (signum-ii remix)-bg14.jpg=1.000=0=1=0,
261.625=LOVE (signum-ii remix)-bg15.jpg=1.000=0=1=0,
262.250=LOVE (signum-ii remix)-bg16.jpg=1.000=0=1=0,
262.500=LOVE (signum-ii remix)-bg17.jpg=1.000=0=1=0,
262.750=LOVE (signum-ii remix)-bg18.jpg=1.000=0=1=0,
263.250=LOVE (signum-ii remix)-bg19.jpg=1.000=0=1=0,
264.000=LOVE (signum-ii remix)-bg1.jpg=1.000=0=1=0,
264.250=LOVE (signum-ii remix)-bg2.jpg=1.000=0=1=0,
264.500=LOVE (signum-ii remix)-bg3.jpg=1.000=0=1=0,
264.750=LOVE (signum-ii remix)-bg4.jpg=1.000=0=1=0,
265.000=LOVE (signum-ii remix)-bg5.jpg=1.000=0=1=0,
265.250=LOVE (signum-ii remix)-bg6.jpg=1.000=0=1=0,
265.500=LOVE (signum-ii remix)-bg7.jpg=1.000=0=1=0,
265.750=LOVE (signum-ii remix)-bg8.jpg=1.000=0=1=0,
266.000=LOVE (signum-ii remix)-bg9.jpg=1.000=0=1=0,
266.250=LOVE (signum-ii remix)-bg10.jpg=1.000=0=1=0,
266.500=LOVE (signum-ii remix)-bg11.jpg=1.000=0=1=0,
266.750=LOVE (signum-ii remix)-bg12.jpg=1.000=0=1=0,
267.000=LOVE (signum-ii remix)-bg13.jpg=1.000=0=1=0,
267.250=LOVE (signum-ii remix)-bg14.jpg=1.000=0=1=0,
267.500=LOVE (signum-ii remix)-bg15.jpg=1.000=0=1=0,
267.750=LOVE (signum-ii remix)-bg16.jpg=1.000=0=1=0,
268.500=LOVE (signum-ii remix)-bg17.jpg=1.000=0=1=0,
268.750=LOVE (signum-ii remix)-bg18.jpg=1.000=0=1=0,
269.250=LOVE (signum-ii remix)-bg19.jpg=1.000=0=1=0,
269.500=LOVE (signum-ii remix)-bg1.jpg=1.000=0=1=0,
269.750=LOVE (signum-ii remix)-bg2.jpg=1.000=0=1=0,
270.250=LOVE (signum-ii remix)-bg3.jpg=1.000=0=1=0,
270.500=LOVE (signum-ii remix)-bg4.jpg=1.000=0=1=0,
271.250=LOVE (signum-ii remix)-bg5.jpg=1.000=0=1=0,
271.500=LOVE (signum-ii remix)-bg6.jpg=1.000=0=1=0,
271.750=LOVE (signum-ii remix)-bg7.jpg=1.000=0=1=0,
272.000=LOVE (signum-ii remix)-bg8.jpg=1.000=0=1=0,
272.500=LOVE (signum-ii remix)-bg9.jpg=1.000=0=1=0,
272.750=LOVE (signum-ii remix)-bg10.jpg=1.000=0=1=0,
273.250=LOVE (signum-ii remix)-bg11.jpg=1.000=0=1=0,
273.500=LOVE (signum-ii remix)-bg12.jpg=1.000=0=1=0,
273.750=LOVE (signum-ii remix)-bg13.jpg=1.000=0=1=0,
274.500=LOVE (signum-ii remix)-bg14.jpg=1.000=0=1=0,
275.250=LOVE (signum-ii remix)-bg15.jpg=1.000=0=1=0,
275.750=LOVE (signum-ii remix)-bg16.jpg=1.000=0=1=0,
276.000=LOVE (signum-ii remix)-bg17.jpg=1.000=0=1=0,
276.250=LOVE (signum-ii remix)-bg18.jpg=1.000=0=1=0,
276.750=LOVE (signum-ii remix)-bg19.jpg=1.000=0=1=0,
277.000=LOVE (signum-ii remix)-bg1.jpg=1.000=0=1=0,
277.250=LOVE (signum-ii remix)-bg2.jpg=1.000=0=1=0,
277.750=LOVE (signum-ii remix)-bg3.jpg=1.000=0=1=0,
278.250=LOVE (signum-ii remix)-bg4.jpg=1.000=0=1=0,
278.500=LOVE (signum-ii remix)-bg5.jpg=1.000=0=1=0,
278.750=LOVE (signum-ii remix)-bg6.jpg=1.000=0=1=0,
279.250=LOVE (signum-ii remix)-bg7.jpg=1.000=0=1=0,
279.500=LOVE (signum-ii remix)-bg8.jpg=1.000=0=1=0,
280.000=LOVE (signum-ii remix)-bg9.jpg=1.000=0=1=0,
280.500=LOVE (signum-ii remix)-bg10.jpg=1.000=0=1=0,
280.750=LOVE (signum-ii remix)-bg11.jpg=1.000=0=1=0,
281.250=LOVE (signum-ii remix)-bg12.jpg=1.000=0=1=0,
281.750=LOVE (signum-ii remix)-bg13.jpg=1.000=0=1=0,
282.000=LOVE (signum-ii remix)-bg14.jpg=1.000=0=1=0,
282.750=LOVE (signum-ii remix)-bg15.jpg=1.000=0=1=0,
283.375=LOVE (signum-ii remix)-bg16.jpg=1.000=0=1=0,
283.875=LOVE (signum-ii remix)-bg17.jpg=1.000=0=1=0,
284.500=LOVE (signum-ii remix)-bg18.jpg=1.000=0=1=0,
284.750=LOVE (signum-ii remix)-bg19.jpg=1.000=0=1=0,
285.250=LOVE (signum-ii remix)-bg1.jpg=1.000=0=1=0,
285.500=LOVE (signum-ii remix)-bg2.jpg=1.000=0=1=0,
285.750=LOVE (signum-ii remix)-bg3.jpg=1.000=0=1=0,
286.250=LOVE (signum-ii remix)-bg4.jpg=1.000=0=1=0,
286.500=LOVE (signum-ii remix)-bg5.jpg=1.000=0=1=0,
287.250=LOVE (signum-ii remix)-bg6.jpg=1.000=0=1=0,
287.500=LOVE (signum-ii remix)-bg7.jpg=1.000=0=1=0,
287.750=LOVE (signum-ii remix)-bg8.jpg=1.000=0=1=0,
288.000=LOVE (signum-ii remix)-bg.png=1.000=1=1=0,
99999=-nosongbg-=1.000=0=0=0 // don't automatically add -songbackground-
;
#KEYSOUNDS:;
#ATTACKS:;

//---------------dance-single - Itsugo15----------------
#NOTES:
     dance-single:
     Itsugo15:
     Challenge:
     11:
     0.818,0.939,0.159,0.815,0.996:
0000
0000
0000
0000
,
0000
0000
0000
0000
,
0000
0000
0000
0000
,
0000
0000
0000
0000
,
0000
0000
0000
0000
,
0000
0000
0000
0000
,
0000
0000
0000
0000
,
0000
0000
0000
0000
,
1000
0000
0100
1000
0100
0000
1000
0000
0010
0000
0100
0001
0100
0000
0010
0000
,
1000
0000
0001
0010
0001
0000
0010
0000
0001
0000
1000
0010
1000
0000
0001
0000
,
0100
0000
0010
1000
0001
0000
0010
0000
0100
0000
1000
0001
0100
0000
0010
1000
,
0010
0000
0100
0001
0100
0000
0001
0010
0001
0000
1000
0100
1000
0000
0001
0000
,
1001
0000
0001
0100
0010
0000
1000
0000
0001
0000
0100
0000
0001
0000
1000
0100
,
0010
0000
0001
0010
0100
0000
1000
0000
0100
0000
0010
0000
0001
0000
1000
0000
,
1001
0001
0100
0010
1000
0100
0010
0001
,
1000
0100
0010
0100
1000
0001
0100
0001
1000
0010
0100
0001
1000
0000
M000
0000
,
1100
0000
1000
0100
1000
0000
0001
0000
0010
0000
0100
0000
0001
0100
0000
2000
,
0000
0000
3100
0000
0010
0001
0000
0020
0000
0000
1030
0000
0010
0100
0000
2000
,
0000
0000
3001
0000
0100
0000
0010
1000
0100
0000
0010
0000
0001
1000
0000
0020
,
0000
0000
0031
0000
0010
0000
0100
0010
1000
0001
0000
0010
0000
0200
0000
0000
,
1300
0000
0001
0010
0001
0000
1000
0000
0010
0000
0100
0000
1000
0100
0000
0002
,
0000
0000
1003
0000
0100
0000
0010
0001
1000
0010
0000
0100
0000
0001
0000
2000
,
0000
0000
3100
0000
0010
0000
0001
1000
0100
0000
1000
0000
0001
0000
0100
0000
,
0101
0000
0010
0000
1100
0000
0010
0001
0100
0000
0010
1000
0100
0000
0010
0001
,
0100
0000
0010
1000
0010
0000
0100
0000
0001
0000
0010
0000
1000
0010
0000
0002
,
0000
0000
0013
0000
0001
0000
0100
0000
0010
0001
0000
1000
0000
0100
0000
0002
,
0000
0000
1003
0000
0001
0000
0010
0100
1000
0000
0010
0000
0001
1000
0000
0200
,
0000
0000
0310
0000
1000
0001
0000
0010
1000
0001
0000
0200
0000
2300
0000
0000
,
3001
0000
0100
0001
0100
0000
0010
0000
1000
0000
0100
0000
0001
1000
0000
0020
,
0000
0000
0031
0000
1000
0000
0100
0000
0010
0000
0001
0000
0100
1000
0000
0002
,
0000
0013
1000
0001
0100
0010
1000
0001
,
0101
0000
1000
0000
1100
0000
0001
0000
1001
0000
1000
0001
0010
0000
0001
0010
,
0100
1000
0001
0100
0010
1000
0000
0020
0000
0130
0001
1000
0100
0010
0001
0010
,
0200
0000
0000
0000
1300
0000
0002
0000
0000
0000
1003
0000
0010
0100
0002
0000
0000
0000
1003
0000
0002
0000
0000
0000
0013
0000
0001
0000
1000
0000
0010
0000
,
0100
0000
0001
0100
0010
1000
0001
0020
0000
0031
0100
0010
1000
0010
0100
0001
,
1000
0000
0100
0000
0010
0000
0000
0000
0001
0000
0000
0000
0010
0000
0000
0000
0100
0000
1000
0000
0000
0000
0001
0000
0000
0000
0100
0000
0000
0000
0001
0100
,
0001
0000
1000
0100
0000
0010
0001
0100
0010
1000
0100
1000
0000
0001
0100
0010
,
1000
0010
0100
0001
0000
0010
0100
1000
0000
0010
0100
0002
0000
0003
0000
1000
,
0200
0000
0000
0000
0310
0000
0001
0000
0000
0000
0011
0000
0000
0000
0001
1000
0001
0000
0100
0000
0000
0000
1000
0000
0200
0000
0000
0000
0302
0000
0000
0000
,
2003
0000
0000
0000
0000
0000
3200
0000
0000
0000
0000
0000
0302
0000
0000
0000
0000
0000
0103
0000
1000
0000
0001
0000
1000
0000
0000
0010
0000
0000
0000
0000
0000
0100
0000
0000
0001
0000
0000
0000
0000
0000
1000
0000
0000
0000
0000
0000
,
1002
0000
1003
0000
0010
0100
0000
0010
0100
0001
0000
1000
0000
0100
0020
0000
,
0031
0000
0010
0000
0100
0000
2000
0000
0000
0000
3001
0000
0100
0010
2000
0000
0000
0000
3010
0000
0100
0000
0001
0000
0000
0000
0001
0000
0200
0000
0000
0000
,
0310
0000
1000
0000
0100
0000
1000
0000
0010
0000
1000
0000
0001
0000
0010
0001
0010
0000
0100
0000
1000
0001
1000
0000
0010
0000
0100
0000
0001
0000
0010
0000
,
0200
0000
1300
0020
0000
1030
0001
0100
0000
0010
1000
0002
0000
0013
0010
0010
,
0012
0000
1003
0010
0000
0010
1000
0000
0002
0000
1003
0200
0000
1300
0000
0100
,
0010
0001
0000
0010
0100
1000
0000
0002
0000
0103
0010
2000
0000
3010
1000
0000
,
1002
0000
0000
0000
0013
0000
0001
0000
0000
0000
0100
0000
0000
0000
0010
1000
0001
0000
2000
0000
0000
0000
3100
0000
0020
0000
0000
0000
0032
0000
0000
0000
,
2003
0000
3010
0200
0000
0301
0100
0010
0000
1000
0001
0020
0000
0130
1000
0100
,
0010
0000
0001
0010
0100
0000
1000
0001
2000
0000
3002
0000
0103
0010
0000
0002
,
0000
0000
0013
0000
0200
0000
0001
0302
0000
0000
1003
0000
0100
0000
1000
2000
,
0000
0000
3100
0000
0010
0000
0000
0001
0020
0000
0230
0000
2300
0000
3002
0003
,
0101
0000
1000
0000
1100
0000
0001
0000
0011
0001
0000
2000
0000
0000
0000
0000
,
3010
0000
1000
0001
0010
0000
0002
0000
2003
0000
3020
0000
0032
0000
2003
0000
,
3200
0000
0302
0000
0103
0010
0000
2000
0000
0000
3010
0000
0100
0001
0000
2000
,
0000
0000
3100
0000
0001
0000
0100
2000
0000
0000
3200
0000
0320
0000
0031
0000
,
0011
0000
1000
0000
1010
0000
0001
0000
0101
0002
0000
0023
0000
0230
0000
0300
,
1100
0000
1000
0001
0100
0000
0020
0000
0032
0000
0023
0000
0130
0010
0000
2000
,
0000
0000
3002
0000
1003
0000
0100
0020
0000
0000
0130
0000
0001
0100
0010
0002
,
0000
0000
2003
0000
3010
0000
0100
0001
2000
0000
3200
0000
0310
0100
0000
0002
,
0000
0000
0203
0000
2300
0000
3010
0000
0100
0002
0000
2003
0000
0000
3020
0000
,
0130
0000
0001
1000
0100
0000
0010
0001
2000
0000
3200
0000
0310
1000
0000
0002
,
0000
0000
0103
1000
0001
0000
0100
0000
2000
0000
3100
0010
0000
0001
0010
2000
,
0000
0000
3100
0000
0010
0000
2000
0000
3002
0000
0103
2000
0000
3100
1000
0000
,
1100
0000
1000
0000
0011
0000
0001
0000
1000
0010
0000
0010
0100
0000
0001
1000
,
0002
0000
0013
0000
0100
1000
0000
0010
0100
0001
0000
1000
0000
0010
0200
0000
,
0310
0000
1000
0000
0100
0000
0020
0000
0000
0000
0031
0000
1000
0001
0020
0000
0000
0000
0130
0000
1000
0000
0001
0000
0000
0000
0001
0000
2000
0000
0000
0000
,
3010
0000
0100
0000
0001
0000
0010
0000
0001
0000
0100
0000
0010
0000
1000
0001
1000
0000
0100
0000
0010
0001
0010
0000
0100
0000
1000
0000
0001
0000
0100
0000
,
0020
0000
0130
0001
0000
1000
0100
0010
0000
0001
0100
0020
0000
0130
0100
0010
,
0010
0000
0100
0010
0000
0010
1000
0001
2000
0000
3100
2000
0000
3002
0000
0013
,
0100
1000
0000
0010
0100
0001
0000
0001
0000
0100
0010
1000
0000
0001
1000
0000
,
1002
0000
0000
0000
0013
0000
0100
0000
0000
0000
0010
0000
0000
0000
0001
0010
0001
0000
2000
0000
0000
0000
3010
0000
0200
0000
0000
0000
0302
0000
0000
0000
,
2003
0000
3010
0100
0000
0001
1000
0100
0000
0010
0001
2000
0000
3100
0010
0001
,
1000
0000
0000
0M00
0000
0000
0M00
0000
0000
0000
00M0
0000
0000
00M0
0000
0000
,
M000
0000
0000
M000
0000
0000
M000
0000
0000
0000
000M
0000
000M
0000
0000
0000
,
00M0
0000
0000
00M0
0000
0000
00M0
0000
0000
0000
0000
0000
0000
0000
0000
0000
;

//---------------dance-single - Itsugo15----------------
#NOTES:
     dance-single:
     Itsugo15:
     Hard:
     9:
     0.649,0.753,0.094,0.390,0.783:
0000
0000
0000
0000
,
0000
0000
0000
0000
,
0000
0000
0000
0000
,
0000
0000
0000
0000
,
0000
0000
0000
0000
,
0000
0000
0000
0000
,
0000
0000
0000
0000
,
0000
0000
0000
0000
,
1000
0000
0100
0000
1000
0000
0001
0000
0100
0000
0000
0010
0000
0000
1000
0000
,
0001
0000
0010
0000
0100
0000
1000
0000
0100
0000
0000
0010
0000
0000
0001
0000
,
0100
0000
0010
0000
1000
0000
0001
0000
0010
0000
0000
0100
0000
0000
1000
0000
,
0001
0000
0100
0000
0010
0000
1000
0000
0010
0000
0000
0100
0000
0000
0001
0000
,
0101
0000
0000
0100
0000
0000
0100
0000
0000
0000
0001
0000
1000
0000
0001
0000
,
1000
0000
0000
1000
0000
0000
1000
0000
0000
0000
0100
0000
0010
0000
0001
0000
,
1000
0001
1000
0100
0010
0001
0100
0010
,
1000
0010
1000
0010
1000
0010
1000
0010
1000
0010
1000
0010
0100
0000
0000
0000
,
1001
0000
0000
1000
0100
0000
1000
0000
0001
0000
0100
0000
0010
0100
0000
0002
,
0000
0000
1003
0000
0100
0010
0000
0002
0000
0000
0103
0000
0001
0010
0000
0200
,
0000
0000
1300
0000
0100
0000
1000
0000
0001
0000
0100
0000
0010
1000
0000
0002
,
0000
0000
1003
0000
0100
0000
0010
0000
0001
1000
0000
0010
0000
0200
0000
0000
,
0301
0000
0000
0100
0010
0000
1000
0000
0001
0000
0010
0000
0100
1000
0000
0002
,
0000
0000
0103
0000
0010
0000
1000
0000
0001
0010
0000
0100
0000
1000
0000
0100
,
0000
0010
0001
1000
0001
0010
0100
1000
,
1100
0000
0000
0000
1001
0000
0000
0000
1000
0000
0001
0100
0001
0000
1000
0000
,
1001
0000
0000
0001
1000
0000
0100
0000
1000
0000
0010
0000
0100
0001
0000
2000
,
0000
0000
3001
0000
0010
0000
0100
0000
0010
0001
0000
1000
0000
0010
0000
0100
,
0000
0000
0001
0000
1000
0000
0001
0000
0010
0000
0100
0000
1000
0001
0000
2000
,
0000
0000
3001
0000
0100
0000
0010
0000
0100
0001
0000
0010
0000
0100
0000
0000
,
1000
0000
0000
0001
1000
0000
0100
0000
0001
0000
0100
0000
1000
0010
0000
0200
,
0000
0000
0301
0000
0100
0000
0001
0000
1000
0000
0100
0000
0010
0100
0000
1000
,
0000
0001
1000
0010
0100
0001
1000
0100
,
1100
0000
0000
0000
0101
0000
0000
0000
0001
0000
1000
0100
0010
0000
0001
0000
,
0100
0000
0010
0000
1000
0001
0000
2000
0000
3001
0010
0000
0100
0000
1000
0010
,
0200
0000
0301
2000
0000
3001
0000
2000
0000
3001
0010
0000
0100
0000
1000
0000
,
0001
0000
1000
0010
1000
0001
0000
0020
0000
0031
0010
0001
1000
0000
0001
0000
,
0100
0000
0010
0000
1000
0000
0001
0000
1000
0001
0000
0010
0000
0100
0000
0000
,
0110
0000
0100
1000
0000
0001
0100
0000
0001
0000
0010
0001
0000
1000
0010
0000
,
1000
0001
1000
0001
0000
0010
0000
0100
0000
0010
0000
0002
0000
0003
0000
0000
,
2000
0000
3001
1000
0000
0010
0000
0100
0000
0001
0000
0010
0200
0000
2300
0000
,
3020
0230
0302
1003
0001
0100
0010
1000
,
0020
0000
0130
0000
0001
1000
0000
0100
0010
0001
0000
0010
0000
0000
0200
0000
,
1300
0000
0001
0200
0000
0310
0000
2000
0000
0000
3001
0020
0000
0000
0230
0000
,
1300
0100
0010
0100
1000
0010
0100
0010
1000
0001
0100
0001
1000
0100
0010
0001
,
1000
0000
0001
0200
0000
0310
0000
1000
0000
0001
1000
0010
0000
0010
1000
0001
,
0010
0000
0001
1000
0000
1000
0001
0000
0100
0000
0010
1000
0000
0001
0000
0010
,
0000
0100
0000
1000
0001
0100
0000
0010
0000
0100
0001
0100
0000
0001
1000
0000
,
1001
0000
0001
1000
0000
0100
0000
0010
0000
0001
0000
1000
0020
0000
0230
0000
,
0301
0000
1000
0001
0000
0010
0100
0010
0000
0001
1000
0001
0000
1000
0010
0100
,
0001
0000
0000
0001
0000
0000
1000
0000
0100
0000
0010
0000
0100
1000
0000
0002
,
0000
0000
0103
0000
0010
1000
0000
0002
0000
0000
0013
0000
0100
1000
0000
0020
,
0000
0130
0001
1000
0100
0010
0100
1000
,
0001
0000
0100
0000
0010
0000
1000
0000
0001
0010
0000
0200
0000
0000
0000
0000
,
1300
0000
0000
0100
1000
0000
0001
0000
1000
0000
0010
0000
0100
0000
0001
0000
,
1000
0000
0100
0000
0010
0001
0000
2000
0000
0000
3010
0000
1000
0001
0000
0020
,
0000
0000
0130
0000
1000
0000
0001
0200
0000
0000
0301
0000
1000
0000
0001
0000
,
0010
0000
1000
0000
0010
0000
0001
0000
1000
0010
0000
0100
0000
0002
0000
0000
,
1003
0000
0000
0001
0010
0000
0100
0000
1000
0000
0010
0000
0100
0001
0000
2000
,
0000
0000
3010
0000
0100
0010
0000
2000
0000
0000
3001
0000
0010
0100
1000
0200
,
0000
0000
0310
0000
0001
0000
0100
0010
1000
0000
0001
0000
0010
0100
0000
2000
,
0000
0000
3100
0000
0010
0000
0001
0000
0100
0010
0000
2000
0000
0000
3002
0000
,
0013
0000
0000
0001
0100
0000
0010
0000
1000
0000
0100
0000
0010
0100
0000
2000
,
0000
0000
3001
0000
0100
0000
0010
0000
1000
0000
0001
0010
0000
0100
1000
0002
,
0000
0000
1003
0000
0100
0000
1000
0000
0001
0000
0010
0001
0000
0001
1000
0000
,
1001
0000
0000
0000
0110
0000
0000
0000
1001
0000
0000
1000
0001
0000
1000
0000
,
0002
0000
0103
0000
0001
1000
0000
0100
0010
0001
0000
1000
0000
0001
0200
0000
,
0310
1000
0001
2000
0000
3100
0000
2000
0000
3100
0010
0100
0000
1000
0002
0000
,
1003
0010
1000
0010
0100
0001
0100
0001
1000
0001
1000
0001
0010
0100
1000
0000
,
0001
0000
1000
0020
0000
0130
0001
1000
0000
0001
1000
0001
0000
1000
0100
0010
,
0001
0000
0010
0001
0000
0010
0001
0000
1000
0000
0010
1000
0000
0001
0000
0010
,
0100
1000
0000
0100
0010
0001
0000
0010
0000
0100
1000
0001
0000
1000
0001
0000
,
1001
0000
1000
0001
0000
0100
0000
0010
0000
1000
0000
0001
0020
0000
0032
0000
,
1003
0000
0100
0010
0000
0001
0000
1000
0000
0001
0010
0100
0000
1000
0001
0100
,
0010
0000
0000
0000
;

//---------------dance-single - Itsugo15----------------
#NOTES:
     dance-single:
     Itsugo15:
     Medium:
     7:
     0.470,0.468,0.123,0.108,0.458:
0000
0000
0000
0000
,
0000
0000
0000
0000
,
0000
0000
0000
0000
,
0000
0000
0000
0000
,
0000
0000
0000
0000
,
0000
0000
0000
0000
,
0000
0000
0000
0000
,
0000
0000
0000
0000
,
0001
0000
0000
0000
1000
0000
0000
0000
0010
0000
0000
0100
0000
0000
0002
0000
,
0000
0000
1003
0000
0100
0000
0000
0000
0100
0000
0000
0010
0000
0000
0002
0000
,
0000
0000
1003
0000
0001
0000
0000
0000
0100
0000
0000
0010
0000
0000
2000
0000
,
0000
0000
3010
0000
0100
0000
0000
0000
0100
0000
0000
0001
0000
0000
0010
0000
,
0011
0000
0000
0001
0000
0000
0010
0000
0000
0000
0001
0000
0000
1000
0000
0000
,
0010
0000
0000
0100
0000
0000
0010
0000
0000
0000
1000
0000
0001
0000
0000
0000
,
0010
0000
0000
0000
0100
0000
0000
0000
1000
0000
0000
0001
0000
0000
0100
0000
,
0010
1000
0001
1000
0001
0010
0100
0000
,
1001
0000
0000
0000
1000
0000
0000
0000
0010
0000
0100
0000
0001
1000
0000
0001
,
0000
0000
0010
0000
0100
0010
0000
0001
0000
0000
1000
0000
0010
1000
0000
0001
,
0000
0000
0010
0000
0001
0000
0100
0000
0010
0000
1000
0000
0100
0010
0000
0001
,
0000
0000
0010
0000
0100
0000
1000
0000
0001
0100
0000
0010
0000
1000
0000
0000
,
1010
0000
0000
0100
0000
0000
0001
0000
1000
0000
0001
0000
1000
0100
0000
0010
,
0000
0000
0001
0000
0010
0000
0001
0000
1000
0010
0000
0100
0000
0001
0000
1000
,
0000
0100
1000
0001
0100
0010
1000
0001
,
0010
0000
0000
0000
0011
0000
0000
0000
0001
0000
0000
0100
0000
0000
0001
0000
,
1000
0000
0000
0100
0000
0000
0010
0000
0001
0000
1000
0000
0010
1000
0000
0001
,
0000
0000
0010
0000
0001
0000
1000
0000
0010
0100
0000
0001
0000
1000
0000
0100
,
0000
0000
0010
0000
0001
0000
1000
0000
0010
0000
1000
0000
0001
0100
0000
0010
,
0000
0000
1000
0000
0001
0010
0000
0000
0100
1000
0000
0001
0000
0010
0000
0000
,
0011
0000
0000
0001
0000
0000
1000
0000
0010
0000
0100
0000
0001
1000
0000
0100
,
0000
0000
0010
0000
0001
0000
1000
0000
0010
0000
0100
0000
0001
1000
0000
0100
,
0000
1000
0001
0100
0010
1000
0001
0010
,
0200
0000
1000
0000
1300
0000
1000
0100
,
1000
0000
1000
0000
0001
0000
0000
0100
0000
0000
0001
0000
0001
0000
0010
0000
,
0100
0000
0000
1000
0000
0001
0000
1000
0000
0000
0001
0000
0100
0000
0100
0000
,
0100
0000
0010
0000
1000
0000
0000
0001
0000
0000
0010
0000
0100
0000
1000
0000
,
0001
0000
0100
0000
0001
0000
1000
0000
0010
0100
0000
0001
0000
1000
0000
0000
,
0001
0000
0000
0010
0000
0000
0100
0000
1000
0000
0000
0001
0000
0000
0100
0000
,
0010
0000
0000
1000
0000
0001
0000
1000
0000
0000
0000
1100
0000
0000
1000
0000
,
0001
0000
0000
1000
0000
0010
0000
1000
0000
0001
0000
0000
1000
0000
0100
0000
,
1000
0100
1000
0100
0010
0001
0100
0000
,
0010
0000
1000
0000
0001
0000
0000
0000
0100
0000
0000
0001
0000
0000
1000
0000
,
0100
0000
0000
1000
0000
0001
0000
1000
0000
0000
0000
0010
0000
0000
0100
0000
,
0001
0001
1000
1000
0001
0001
0010
0010
,
0100
0000
0000
1000
0000
0000
0000
0001
0000
0000
0000
0100
0000
0000
0010
0000
,
1000
0000
0000
0001
0000
0000
0010
0000
0001
0000
0000
0100
0000
0010
0000
1000
,
0000
0001
0000
1000
0000
0100
0000
1000
0000
0001
0000
0100
0000
0000
0010
0000
,
1000
0000
0000
0010
0000
0100
0000
0100
0000
0001
0000
0000
1000
0000
0100
0000
,
0010
0110
0001
1001
,
1000
0000
0000
0000
0001
0000
0000
0000
0010
0000
0100
0000
1000
0001
0000
0200
,
0000
0000
0310
0000
2000
0000
0000
3001
0000
0000
0001
0000
0010
0001
0000
2000
,
0000
3010
0100
0001
1000
0100
1000
0010
,
0100
0000
0001
0000
1000
0000
0100
0000
0010
0001
0000
2000
0000
0000
0000
0000
,
3001
0000
1000
0010
0100
0010
1000
0001
,
1000
0000
0100
0000
0010
0001
0000
2000
0000
0000
3010
0000
1000
0001
0000
0020
,
0000
0130
0010
0001
1000
0010
0100
0001
,
1000
0000
0000
0000
1001
0000
0000
0000
0001
0100
0000
0010
0000
1000
0000
0000
,
0001
0000
0000
0000
0010
0000
0000
0000
0001
0000
0010
0000
0100
1000
0000
0002
,
0000
0000
1003
0000
0001
0010
0000
0200
0000
0000
1300
0000
0001
0100
0001
2000
,
0000
0000
3100
0000
1000
0000
0000
0000
0001
0000
1000
0000
0001
0000
0000
0010
,
0000
0000
0100
0000
0010
0000
0001
0000
1000
0010
0000
0100
0000
0000
0001
0000
,
1000
0000
0000
0000
1000
0000
0001
0000
0010
0000
0100
0000
1000
0001
0000
0200
,
0000
0000
0310
0000
0100
0000
0001
0000
1000
0000
0100
0010
0000
0100
0000
2000
,
0000
0000
3001
0000
0100
0000
0010
0000
1000
0000
0000
0001
0000
0000
0100
0000
,
0101
1100
0101
1001
,
0001
0000
0010
0000
0100
0000
0000
0000
0010
0000
0000
0001
0000
0000
1000
0000
,
0001
0000
0000
0100
0000
0010
0000
0100
0000
0000
0000
0001
0000
0000
1000
0000
,
0100
0100
0010
0010
0001
0001
1000
1000
,
0010
0000
0000
1000
0000
0000
0000
0001
0000
0000
0010
0000
0000
0000
0100
0000
,
0010
0000
0000
0001
0000
0000
1000
0000
0001
0000
0000
1000
0000
0000
0100
0000
,
1000
0000
0000
0010
0000
0000
0100
0000
0010
0000
0000
0100
0000
0000
0001
0000
,
1000
0000
0000
0100
0000
0000
0010
0000
0000
0100
0000
0000
1000
0000
0100
0000
,
1100
0011
1010
0101
,
1000
0000
0000
0000
;

//---------------dance-single - Itsugo15----------------
#NOTES:
     dance-single:
     Itsugo15:
     Easy:
     4:
     0.359,0.364,0.115,0.072,0.007:
0000
0000
0000
0000
,
0000
0000
0000
0000
,
0000
0000
0000
0000
,
0000
0000
0000
0000
,
0000
0000
0000
0000
,
0000
0000
0000
0000
,
0000
0000
0000
0000
,
0000
0000
0000
0000
,
0001
0000
1000
0000
0100
1000
0001
0000
,
0100
0000
0010
0000
0100
0000
0001
1000
,
0001
0000
0010
0000
0001
1000
0001
0000
,
0100
0000
0020
0000
1030
0001
1000
0000
,
0100
0000
0010
0001
0010
0000
0001
0000
,
1000
0000
0010
0100
0010
0000
1000
0000
,
0001
1000
0001
0000
0010
0100
0010
0000
,
0001
1000
0010
0100
,
1001
0000
0001
0000
0010
0100
1000
0000
,
0010
0000
0100
0000
0001
1000
0100
0000
,
0010
0000
0001
0000
0100
0010
1000
0000
,
0001
0000
0010
0000
0100
0010
0001
0000
,
1000
0000
0001
0000
0100
0010
0100
0000
,
0001
0000
1000
0000
0010
0100
0001
0000
,
1000
0000
0100
0000
0010
0100
1000
0000
,
0001
0101
0100
0010
,
1001
0000
0001
0000
0010
0100
0010
0000
,
0001
0000
1000
0000
0010
0100
0001
0000
,
1000
0000
0100
0000
1000
0001
0100
0000
,
0001
0000
1000
0000
0100
0010
0002
0000
,
1003
0000
0001
0000
0100
0010
1000
0000
,
0010
0000
0100
0000
0001
1000
0001
0000
,
0010
0000
0100
0000
1000
0100
0010
0000
,
0001
0001
0001
1000
,
0001
0001
0010
0000
0001
0000
1000
0010
,
1000
0000
0100
0000
0010
0001
0010
0010
,
0001
0000
1000
0010
0100
0000
0001
0000
,
1000
0100
1000
0001
1000
0000
0001
0000
,
1000
0010
0000
0100
0001
1000
0000
0100
,
0010
0001
0000
1000
0000
0001
0000
0100
,
0010
0000
1000
0000
0001
0000
1000
0010
,
1000
0010
1000
0001
0010
0000
0010
0100
,
1000
0010
0100
0100
,
0001
1000
0001
0000
0010
0100
0010
0000
,
0001
0010
0001
0010
0001
0000
1000
0000
,
0100
0010
0001
1000
,
1001
0001
1000
1000
,
0100
0000
0010
0000
0001
1000
0001
0000
,
0101
0000
0001
0000
1000
0010
1000
0000
,
1010
1010
0101
0001
,
1000
0000
0001
0000
1000
0001
0010
0000
,
0200
0000
2300
0000
3002
0000
0103
0010
,
1000
0000
0001
0000
0010
0100
0010
0000
,
0001
0000
0011
0000
0001
1000
0010
0000
,
0100
0000
0010
1000
0010
0000
0100
0001
,
1000
0000
0100
0000
2000
0000
3001
0100
,
0001
0000
1000
0000
0200
0000
0310
0001
,
1000
2010
3010
1000
,
0001
0000
0010
0000
0100
1000
0001
1000
,
0002
0000
0103
0000
0010
0000
1000
0010
,
0100
0000
0001
0000
1000
0100
1000
0000
,
0001
0000
0001
0010
0001
0000
1000
0000
,
0010
0000
0100
0000
0010
1000
0010
1000
,
0002
0000
0013
0000
0100
1000
0100
0000
,
1000
0010
0100
0001
,
0101
0000
0110
0000
1010
0000
1000
0001
,
0100
0000
0000
0000
0010
0000
0000
0000
1000
0000
0000
0100
0000
0000
1000
0000
,
0100
0000
1000
0000
0001
0000
0000
0000
1000
0000
0000
0010
0000
0000
0100
0000
,
0001
1000
0001
1000
0001
0010
0001
0000
,
1000
0010
0100
0001
,
1000
0001
1000
0100
,
1000
0001
0001
0100
,
0101
0010
1000
0001
,
1001
0010
1001
0100
,
0001
0000
0000
0000
;

//---------------dance-single - Itsugo15----------------
#NOTES:
     dance-single:
     Itsugo15:
     Beginner:
     2:
     0.105,0.182,0.007,0.000,0.000: // measure 1
0000
0000
0000
0000
,  // measure 2
0000
0000
0000
0000
,  // measure 3
0000
0000
0000
0000
,  // measure 4
0000
0000
0000
0000
,  // measure 5
0000
0000
0000
0000
,  // measure 6
0000
0000
0000
0000
,  // measure 7
0000
0000
0000
0000
,  // measure 8
0000
0000
0000
0000
,  // measure 9
0001
0000
0000
0000
,  // measure 10
1000
0000
0000
0000
,  // measure 11
0100
0000
0000
0000
,  // measure 12
1000
0000
0000
0000
,  // measure 13
0001
0000
0000
0000
,  // measure 14
0100
0000
0000
0000
,  // measure 15
0001
0000
1000
0000
,  // measure 16
0001
0000
0010
0000
,  // measure 17
0100
0000
0000
0000
,  // measure 18
1000
0000
0000
0000
,  // measure 19
0010
0000
0000
0000
,  // measure 20
0100
0000
0001
0000
,  // measure 21
1000
0000
0000
0000
,  // measure 22
0100
0000
0000
0000
,  // measure 23
0010
0000
0000
0000
,  // measure 24
0001
0000
0001
0000
,  // measure 25
1000
0000
0000
0000
,  // measure 26
0010
0000
0000
0000
,  // measure 27
0100
0000
0000
0000
,  // measure 28
0001
0000
0010
0000
,  // measure 29
0001
0000
0000
0000
,  // measure 30
1000
0000
0000
0000
,  // measure 31
0010
0000
0000
0000
,  // measure 32
0100
0000
0100
0000
,  // measure 33
0001
0000
1000
0000
,  // measure 34
0100
0000
1000
0000
,  // measure 35
0010
0000
0010
0000
,  // measure 36
1000
0000
0000
0000
,  // measure 37
0001
0000
0010
0000
,  // measure 38
0001
0000
0000
0000
,  // measure 39
1000
0000
0010
0000
,  // measure 40
0100
0100
0100
0000
,  // measure 41
0001
0000
1000
0000
,  // measure 42
0100
0000
0100
0000
,  // measure 43
1000
0001
1000
0001
,  // measure 44
1000
0000
0010
0000
,  // measure 45
0100
0000
0001
0000
,  // measure 46
1000
0000
0001
0000
,  // measure 47
0001
0000
0010
0000
,  // measure 48
0100
0000
0010
0000
,  // measure 49
0001
0000
0000
0000
,  // measure 50
1000
0000
0010
0000
,  // measure 51
0100
0000
0000
0000
,  // measure 52
0001
0000
0001
0000
,  // measure 53
0001
0000
0000
0000
,  // measure 54
0010
0000
0100
0000
,  // measure 55
1000
0000
0000
0000
,  // measure 56
0010
0000
0000
0000
,  // measure 57
1001
0000
0000
0000
,  // measure 58
0001
0000
0010
0000
,  // measure 59
0001
0000
0000
0000
,  // measure 60
1000
0000
0010
0000
,  // measure 61
0100
0000
0000
0000
,  // measure 62
0001
0000
1000
0000
,  // measure 63
0001
0000
0000
0000
,  // measure 64
0010
0000
0010
0000
,  // measure 65
0100
0000
1000
0000
,  // measure 66
0100
0000
1000
0000
,  // measure 67
0001
0000
0001
0000
,  // measure 68
0001
0000
0000
0000
,  // measure 69
0100
0000
0010
0000
,  // measure 70
1000
0000
0000
0000
,  // measure 71
0100
0000
0010
0000
,  // measure 72
0001
0000
1000
0000
,  // measure 73
0001
0000
0000
0000
;
