#TITLE:Hey!スミス!!;
#SUBTITLE:モンスター娘のいる日常;
#ARTIST:M.O.N;
#TITLETRANSLIT:Hey! Smith!!;
#SUBTITLETRANSLIT:Monster Musume no Iru Nichijou;
#ARTISTTRANSLIT:M.O.N;
#GENRE:Otaku's Dream 4th Mix (Pad);
#CREDIT:Itsugo15;
#BANNER:Hey! Smith!!-bn.png;
#BACKGROUND:Hey! Smith!!-bg.png;
#JACKET:Hey! Smith!!-Jacket.png;
#LYRICSPATH:Hey! Smith!!.lrc;
#CDTITLE:Itsugo15 SimifileS.png;
#MUSIC:Hey! Smith!!.mp3;
#OFFSET:0.483;
#SAMPLESTART:55.060;
#SAMPLELENGTH:30.000;
#SELECTABLE:YES;
#LISTSORT:;
#BPMS:0.000=216.000;
#STOPS:;
#TICKCOUNT:0.000=6;
#BGCHANGES:1.750=Hey! Smith!!.avi=1.000=1=1=0,
326.000=Hey! Smith!!-bg.png=1.000=1=1=0,
99999=-nosongbg-=1.000=0=0=0 // don't automatically add -songbackground-
;
#KEYSOUNDS:;
#ATTACKS:;

//---------------dance-single - Itsugo15----------------
#NOTES:
     dance-single:
     Itsugo15:
     Beginner:
     2:
     0.125,0.221,0.089,0.033,0.000:
0000
0000
0000
0000
,
0000
0000
0000
0000
,
1000
0000
0000
0000
,
0000
0000
0000
0000
,
0001
0000
0000
0000
,
0000
0000
0000
0000
,
0010
0000
0000
0000
,
0000
0000
0000
0000
,
0100
0000
0000
0000
,
0000
0000
0000
0000
,
1000
0000
0000
0000
,
1000
0000
0000
0000
,
0001
0000
0000
0000
,
0001
0000
0000
0000
,
0100
0000
0000
0000
,
0100
0000
0000
0000
,
0010
0000
0000
0000
,
0000
0000
0000
0000
,
0010
0000
0000
0000
,
1000
0000
0000
0000
,
0001
0000
0000
0000
,
0010
0000
0000
0000
,
0010
0000
0000
0000
,
0001
0000
0000
0000
,
1000
0000
0000
0000
,
0100
0000
0000
0000
,
0100
0000
0000
0000
,
0010
0000
0000
0000
,
0001
0000
0000
0000
,
1000
0000
0000
0000
,
1000
0000
0000
0000
,
0010
0000
0000
0000
,
0100
0000
0000
0000
,
0001
0000
0000
0000
,
0001
0000
0000
0000
,
0000
0000
0000
0000
,
0001
0000
0000
0000
,
0000
0000
0000
0000
,
1000
0000
0000
0000
,
0000
0000
0000
0000
,
1000
0000
0000
0000
,
0001
0000
0000
0000
,
1001
0000
0000
0000
,
0001
0000
0000
0000
,
0101
0000
0000
0000
,
0001
0000
0000
0000
,
0010
0000
0000
0000
,
0100
0000
0000
0000
,
1000
0000
0000
0000
,
0001
0000
0000
0000
,
1001
0000
0000
0000
,
1000
0000
0000
0000
,
1100
0000
0000
0000
,
1000
0000
0000
0000
,
0010
0000
0000
0000
,
0100
0000
0000
0000
,
0001
0000
0000
0000
,
1000
0000
0000
0000
,
0100
0000
0000
0000
,
0010
0000
0000
0000
,
0002
0000
0003
0000
,
0000
0000
0000
0000
,
0001
0000
0000
0000
,
0001
0000
0000
0000
,
1000
0000
0000
0000
,
1000
0000
0000
0000
,
0010
0000
0000
0000
,
0010
0000
0000
0000
,
0100
0000
0000
0000
,
0100
0000
0000
0000
,
0001
0000
0000
0000
,
0101
0000
0000
0000
,
1000
0000
0000
0000
,
1001
0000
0000
0000
,
0010
0000
0000
0000
,
1010
0000
0000
0000
,
0100
0000
0000
0000
,
0001
0000
0000
0000
,
0202
0000
0000
0000
,
0000
0000
0000
0303
;

//---------------dance-single - Itsugo15----------------
#NOTES:
     dance-single:
     Itsugo15:
     Easy:
     4:
     0.221,0.311,0.100,0.089,0.000:
0000
0000
0000
0000
,
0000
0000
0000
0000
,
1000
0000
0000
0000
,
1000
0000
0000
0000
,
0001
0000
0000
0000
,
0001
0000
0000
0000
,
0010
0000
0000
0000
,
0010
0000
0000
0000
,
0100
0000
0000
0000
,
0200
0000
0000
0000
,
1300
0000
1000
0000
,
0001
0000
0000
0000
,
0001
0000
0001
0000
,
1000
0000
0010
0000
,
0100
0000
0100
0000
,
0010
0000
0000
0000
,
0010
0000
0010
0000
,
0100
0000
0000
0000
,
0110
0000
0010
0000
,
0000
0000
1000
0000
,
0000
0000
0001
0000
,
0000
0010
0000
0010
,
0000
0000
0001
0000
,
0000
0000
1000
0000
,
0000
0000
0010
0000
,
0000
0100
0002
0000
,
1003
0000
0100
0000
,
0000
0000
0010
0000
,
0000
0000
0001
0000
,
0000
1000
0000
0001
,
0000
0000
0100
0000
,
0000
0000
0010
0000
,
0000
0000
1000
0000
,
0000
0100
0020
0000
,
0031
0000
0001
0000
,
0000
0000
0000
0000
,
1000
0000
1000
0000
,
0000
0000
0000
0000
,
0010
0000
0010
0000
,
0000
0000
0000
0000
,
1000
0000
0000
0010
0000
0000
0200
0000
,
0000
0000
0301
0000
,
0101
0000
0001
0000
,
1000
0000
1000
0000
,
1001
0000
0001
0000
,
0010
0000
0010
0000
,
0100
0000
1000
0000
,
0001
0000
0100
0000
,
0010
0000
0010
0000
,
1000
0000
1000
0000
,
1010
0000
1000
0000
,
0001
0000
0001
0000
,
1001
0000
1000
0000
,
0100
0000
0100
0000
,
0010
0000
0001
0000
,
0100
0000
0010
0000
,
1000
0000
0001
0000
,
0020
0000
0230
0000
,
2300
0000
0001
0000
,
0000
0000
3001
0000
,
1000
1000
0000
0000
,
0000
0000
0000
0000
,
0001
0000
0001
0000
,
1000
0000
0000
0000
,
1000
0000
1000
0000
,
0001
0000
0100
0000
,
0010
0000
0010
0000
,
0100
0000
0000
0000
,
0100
0000
0100
0000
,
0010
0000
1000
0000
,
0001
0000
0001
0000
,
1001
0000
0000
0000
,
1000
0000
1000
0000
,
1001
0000
0100
0000
,
0010
0000
0010
0000
,
0110
0000
0000
0000
,
0100
0000
0100
0000
,
0110
0000
0010
0000
,
0000
0000
1000
0000
0000
0001
0000
0000
,
0010
0000
0000
0100
0000
0000
2000
0000
,
0000
3000
0000
0000
;

//---------------dance-single - Itsugo15----------------
#NOTES:
     dance-single:
     Itsugo15:
     Medium:
     7:
     0.392,0.532,0.476,0.299,0.000:
0000
0000
0000
0000
,
0000
0000
0000
0000
,
1000
0000
0000
1000
0000
0000
1100
0000
,
0000
0000
0000
0000
,
0001
0000
0000
0001
0000
0000
0101
0000
,
0000
0000
0000
0000
,
1000
0000
0000
1000
0000
0000
1010
0000
,
0000
0000
0000
0000
,
0001
0000
0000
0001
0000
0000
0011
0000
,
0200
0000
0000
0000
,
1300
0000
1100
0000
,
0001
0000
0101
0000
,
1000
0000
1010
0000
,
0002
0000
0023
0000
,
0031
0000
0011
0000
,
1000
0000
1010
0000
,
0001
0000
0101
0000
,
2000
0000
3200
0000
,
1300
0000
1000
0000
,
0100
0000
0100
0000
,
0010
0000
0010
0000
,
0002
1003
2000
3001
,
0100
0000
0100
0000
,
0010
0000
0010
0000
,
1000
0000
1000
0000
,
0001
0020
0032
0000
,
1003
0000
0010
0000
,
0100
0000
0001
0000
,
1000
0000
0100
0000
,
0010
0002
1003
2000
,
3001
0000
0100
0000
,
0010
0000
1000
0000
,
0100
0000
0010
0000
,
0001
2000
3002
0000
,
0013
0000
0010
0000
,
0010
0000
0010
0000
,
0100
0000
0100
0000
,
0100
0000
0100
0000
,
1100
0000
1000
0000
,
1000
0000
1000
0000
,
1100
0000
0000
0101
0000
0000
1001
0000
,
0002
0000
0200
0303
,
0101
0000
0110
0000
,
0010
1000
0001
0000
,
1001
0000
1100
0000
,
0100
0010
0001
0000
,
1000
0010
0100
0000
,
0001
0010
0100
0000
,
1000
0010
0100
0001
,
1000
0100
0010
0001
,
0011
0000
1001
0000
,
1000
0010
0100
0000
,
0110
0000
0101
0000
,
0100
0001
1000
0000
,
0100
0010
0001
0000
,
1000
0010
0100
0000
,
0001
1000
0100
0010
,
0002
0000
0203
0000
,
0310
1000
0001
0100
,
0010
1000
0001
0010
,
0011
0011
0000
0000
,
0000
0000
0000
0000
,
0001
0000
0011
0000
,
1000
0000
1010
0000
,
0001
0000
0101
0000
,
2000
0000
3200
0000
,
1300
0000
1100
0000
,
0001
0000
0101
0000
,
1000
0000
1010
0000
,
0002
0000
0023
0000
,
0031
0000
0011
0000
,
1001
0000
1010
0000
,
0001
0000
0101
0000
,
2000
0000
3200
0000
,
1300
0000
1100
0000
,
1001
0000
0101
0000
,
1000
0000
1010
0000
,
0002
0000
0023
0000
,
0031
0000
0011
0000
0000
1001
0000
0000
,
1010
0000
0000
0110
0000
0000
0202
0000
,
0000
0303
0000
0000
0000
0000
0000
0000
;

//---------------dance-single - Itsugo15----------------
#NOTES:
     dance-single:
     Itsugo15:
     Hard:
     9:
     0.659,0.842,0.741,0.719,0.033:
0000
0000
0000
0000
,
0000
0000
0000
0000
,
1010
0000
0000
1001
0000
0000
0011
0000
,
0001
0010
0000
0010
0001
0000
1000
0000
,
1001
0000
0000
0011
0000
0000
1010
0000
,
1000
0010
0000
0010
1000
0000
0100
0000
,
1100
0000
0000
1010
0000
0000
0101
0000
,
0001
0100
0000
0100
0001
0000
1000
0000
,
1001
0000
0000
0101
0000
0000
1100
0000
,
2000
0000
0000
0000
0200
0000
0000
3300
,
0110
0000
0000
0011
0000
0000
0001
0000
,
2000
0000
0000
0000
0020
0000
0000
3030
,
0110
0000
0000
0101
0000
0000
0001
0000
,
2000
0000
0000
0000
0200
0000
0000
3300
,
0110
0000
0000
0011
0000
0000
0001
0000
,
2000
0000
0000
0000
0020
0000
0000
3030
,
0110
0000
0000
0101
0000
0000
0001
0000
,
1000
0000
0000
0000
,
0001
0100
0101
0001
,
1000
0100
1100
1000
,
0010
0100
0110
0010
,
0100
0101
0100
0101
,
0002
0003
0100
0000
0010
0000
1000
0002
,
0003
0000
0010
0000
0100
0000
0010
0002
,
0003
0000
1000
0000
0010
0000
0100
0002
,
0000
0203
0320
0000
,
1030
0000
0010
0000
0100
0000
0001
1000
,
0000
0000
0100
0000
0010
0000
0001
1000
,
0000
0000
0010
0100
0001
0000
1000
0000
,
1100
0000
0101
0000
,
1001
0000
1000
0010
1000
0010
1000
0001
,
0000
0010
0001
0010
0001
0010
0001
1000
,
0000
0010
0100
0001
1000
0100
0010
0002
,
1000
0003
2000
0000
0020
0000
0000
3030
,
1010
0010
0200
0001
,
0301
0100
0001
1000
,
1001
0001
0020
0100
,
0130
0010
0001
1000
,
1001
0001
0200
0010
,
0310
0100
0001
1000
,
1001
0000
0001
1001
0000
1000
1001
0000
,
0001
0010
0100
1000
0002
0000
0000
0000
,
0113
0000
1001
0000
,
0001
0100
0010
2000
0000
0002
0000
3003
,
1001
0000
0110
0000
,
0100
0010
1000
0001
0000
0010
0000
0000
,
0012
0203
0320
2030
,
3200
0000
0320
0000
0032
2003
0000
3020
,
0000
0230
0302
0003
0100
0001
1000
0000
,
0100
1000
0001
0000
0100
0010
2000
0000
,
0200
3300
0000
0000
1001
0000
0000
0000
,
0001
0100
0010
2000
0000
0020
3030
0000
,
0101
0000
1001
0000
,
1000
0100
0010
0001
0000
0100
0000
0000
,
0201
0320
2030
3200
,
0302
2003
3020
0032
,
2003
0000
3100
0020
0000
0031
1000
0000
,
0010
0000
1000
0000
0010
0000
1000
0000
0000
0001
0000
0000
0010
0000
0001
0000
0010
0000
0001
0000
0010
0000
0100
0000
,
2000
0000
0000
0000
0000
0000
0000
3000
,
1100
0000
0000
0000
2000
0002
0000
3003
,
0101
0101
0000
0000
,
0000
0000
0000
0000
,
0110
0000
0000
1100
0000
0000
1000
0000
,
0002
0000
0000
0000
0200
0000
0000
0303
,
0110
0000
0000
1010
0000
0000
1000
0000
,
0002
0000
0000
0000
0020
0000
0000
0033
,
0110
0000
0000
1100
0000
0000
1000
0000
,
0002
0000
0000
0000
0200
0000
0000
0303
,
0110
0000
0000
1010
0000
0000
1000
0000
,
0001
1000
0000
1000
0001
1000
0100
0000
,
0110
0000
0000
0011
0000
0000
0001
0000
,
2000
0000
0000
0000
0020
0000
0000
3030
,
0110
0000
0000
0101
0000
0000
0001
0000
,
2000
0000
0000
0000
0200
0000
0000
3300
,
0110
0000
0000
0011
0000
0000
0001
0000
,
2000
0000
0000
0000
0020
0000
0000
3030
,
0110
0000
0000
0101
0000
0000
0001
0000
,
1000
0100
0010
0001
0010
0100
1000
0001
,
0000
0000
0101
0000
0000
1010
0000
0000
,
1001
0000
0000
0110
0000
0000
2002
0000
,
0000
3003
0000
0000
0000
0000
0000
0000
;

//---------------dance-single - Itsugo15----------------
#NOTES:
     dance-single:
     Itsugo15:
     Challenge:
     11:
     0.890,0.888,0.741,0.719,0.077: // measure 1
0000
0000
0000
0000
,  // measure 2
0000
0000
0000
0000
,  // measure 3
1010
0000
0000
1100
0000
0000
1010
0000
,  // measure 4
1000
0002
0000
0013
0001
0000
1000
0000
,  // measure 5
1001
0000
0000
1100
0000
0000
1001
0000
,  // measure 6
0001
0200
0000
0310
2000
0000
3001
1000
,  // measure 7
1001
0000
0000
0110
0000
0000
1001
0000
,  // measure 8
1000
0100
0000
0010
0001
0000
1000
0000
,  // measure 9
1001
0000
0000
0011
0000
0000
1100
0000
,  // measure 10
1000
0100
0010
0001
0010
0100
2000
0000
0000
0000
0000
3000
,  // measure 11
1100
0000
1000
0001
0100
0001
1000
0100
,  // measure 12
0020
0000
0032
0013
,  // measure 13
0011
0000
0001
1000
0010
1000
0001
0100
,  // measure 14
0102
0000
1003
0100
2100
0000
3001
0010
,  // measure 15
0011
0000
0001
0100
0010
1000
0100
1000
,  // measure 16
0020
0000
0230
0301
,  // measure 17
0101
0000
1000
0100
0000
0100
1000
0001
,  // measure 18
0200
0000
0000
0000
0000
0300
0000
0000
,  // measure 19
1001
0000
0001
0100
0010
1000
0100
0010
,  // measure 20
0000
0001
1000
0100
0010
0001
0010
0200
,  // measure 21
0000
1300
0001
0010
0100
1000
0100
0010
,  // measure 22
0002
0003
1100
0000
0002
0003
1100
0000
,  // measure 23
1000
0001
0010
0001
0100
0010
1000
0100
,  // measure 24
0000
0100
1000
0010
0100
0001
0100
0020
,  // measure 25
0000
1030
0010
0100
0001
1000
0100
0010
,  // measure 26
0002
0000
1003
0000
2002
0000
0000
3003
,  // measure 27
0001
0010
0100
0010
0001
0100
0010
1000
,  // measure 28
0000
1000
0100
0010
0100
1000
0001
0200
,  // measure 29
0000
0310
1000
0001
0010
0100
1000
0100
,  // measure 30
0020
0030
0110
0000
0200
0300
0110
0000
,  // measure 31
0010
0001
1000
0010
1000
0001
0100
0001
,  // measure 32
0000
0001
0100
0010
1000
0100
0010
0200
,  // measure 33
0000
1300
0100
0010
0001
0010
0100
1000
,  // measure 34
1100
0100
0010
0110
0010
0001
0011
0011
,  // measure 35
0002
0000
1003
0010
0100
0010
1000
0001
,  // measure 36
0010
0000
0001
1000
0010
0100
0010
1000
,  // measure 37
0100
0000
1000
0001
0100
0010
0001
0010
,  // measure 38
1000
0000
0010
1000
0010
0100
0001
1000
,  // measure 39
1001
0000
0001
0010
0100
1000
0100
0010
,  // measure 40
0001
0000
1000
0010
0100
0001
0100
0010
,  // measure 41
0110
0000
1000
1001
0000
0001
0011
0000
,  // measure 42
0010
0100
1000
0001
0200
0000
0000
0000
,  // measure 43
0311
0001
1001
1000
,  // measure 44
0001
0010
0100
1000
0000
0001
1000
0000
,  // measure 45
1001
0010
0110
0100
,  // measure 46
0010
1000
0001
0020
0000
0130
1000
0000
,  // measure 47
2100
3020
0032
0023
,  // measure 48
2030
0000
3002
0000
0013
0200
0000
2300
,  // measure 49
0000
3100
0020
0000
0031
1000
0020
0000
,  // measure 50
1030
0001
0020
0000
0130
0100
1000
0000
,  // measure 51
1100
1000
1001
0001
,  // measure 52
1000
0100
0010
0001
0000
1000
0001
0000
,  // measure 53
1001
0100
0110
0010
,  // measure 54
0100
0001
1000
0200
0000
0310
0001
0000
,  // measure 55
0012
0203
2300
3200
,  // measure 56
0302
2003
3200
0320
,  // measure 57
0000
0031
2000
0000
3010
0100
0002
0000
,  // measure 58
1003
0000
0100
0000
0010
0000
0001
0000
0000
0010
0000
0000
0100
0000
1000
0000
0100
0000
0010
0000
0100
0000
1000
0000
,  // measure 59
0002
0000
0000
0000
0203
0000
0000
0000
0320
0000
0000
0000
2030
0000
0000
3000
,  // measure 60
1020
0230
0301
1000
,  // measure 61
1001
1001
0000
2000
,  // measure 62
3200
0000
0000
0320
0000
0000
0031
0000
,  // measure 63
0011
0000
0000
0101
0000
0000
0011
0000
,  // measure 64
0001
2000
0000
3010
1000
0000
0001
0000
,  // measure 65
1001
0000
0000
0101
0000
0000
1001
0000
,  // measure 66
1000
0200
0000
0310
0002
0000
1003
0001
,  // measure 67
1001
0000
0000
0110
0000
0000
1001
0000
,  // measure 68
0001
0100
0000
0010
1000
0000
0001
0000
,  // measure 69
1001
0000
0000
1010
0000
0000
0101
0000
,  // measure 70
1100
0100
2000
0000
3001
0100
0010
1000
,  // measure 71
1010
0000
1000
0001
0010
0010
0200
0000
,  // measure 72
1300
0100
0100
0010
0001
0001
0010
0100
,  // measure 73
0110
0000
0010
0001
1000
1000
0020
0000
,  // measure 74
0130
0001
0001
1000
0100
0100
1000
0001
,  // measure 75
1001
0000
0001
1000
0100
0100
1000
0001
,  // measure 76
0100
0100
0010
1000
0100
0100
0010
0001
,  // measure 77
0011
0000
0001
1000
0000
1000
0001
0000
,  // measure 78
0010
0000
0100
0000
1000
0000
0100
0000
0010
0000
0001
0000
1000
0000
0000
1000
0000
0000
0010
0000
0000
0010
0000
0000
,  // measure 79
0100
0000
0110
0000
0000
0101
0000
0000
,  // measure 80
1010
0000
0000
0011
0000
0000
2202
0000
,  // measure 81
3003
0300
0000
0000
;
