#TITLE:Here With You;
#SUBTITLE:;
#ARTIST:コイ。;
#TITLETRANSLIT:Here With You;
#SUBTITLETRANSLIT:;
#ARTISTTRANSLIT:Koi;
#GENRE:Electro;
#CREDIT:Itsugo15;
#MENUCOLOR:;
#BANNER:Here With You-bn.png;
#BACKGROUND:Here With You-bg.png;
#LYRICSPATH:Here With You.lrc;
#CDTITLE:Itsugo15 SimifileS.png;
#MUSIC:Here With You.ogg;
#OFFSET:0.000;
#SAMPLESTART:17.238;
#SAMPLELENGTH:11.532;
#SELECTABLE:YES;
#LISTSORT:;
#BPMS:0.000=166.500;
#STOPS:;
#TICKCOUNT:0.000=6;
#BGCHANGES:0.000=Here With You-bg1.jpg=1.000=1=1=0,
96.000=Here With You-bg2.jpg=1.000=1=1=0,
192.000=Here With You-bg3.jpg=1.000=1=1=0,
272.000=Here With You-bg.png=1.000=1=1=0,
99999=-nosongbg-=1.000=0=0=0 // don't automatically add -songbackground-
;
#KEYSOUNDS:;
#ATTACKS:;

//---------------dance-single - Itsugo15----------------
#NOTES:
     dance-single:
     Itsugo15:
     Beginner:
     1:
     0.108,0.170,0.000,0.010,0.000:
0000
0000
0000
0000
,
0000
0000
0000
0000
,
0000
0000
0000
0000
,
0000
0000
0000
0000
,
1000
0000
0000
0000
,
1000
0000
0000
0000
,
1000
0000
0000
0000
,
1000
0000
0000
0000
,
0001
0000
0000
0000
,
0010
0000
0000
0000
,
0100
0000
0000
0000
,
1000
0000
0000
0000
,
0001
0000
0000
0000
,
0100
0000
0000
0000
,
0010
0000
0000
0000
,
1000
0000
0000
0000
,
0001
0000
0010
0000
,
0001
0000
1000
0000
,
0001
0000
0100
0000
,
0010
0000
1000
0000
,
0001
0000
1000
0000
,
0100
0000
1000
0000
,
0010
0000
0100
0000
,
0001
0000
1000
0000
,
0100
0000
0000
0000
,
0100
0000
0000
0000
,
0100
0000
0000
0000
,
0100
0000
0000
0000
,
0010
0000
0000
0000
,
0010
0000
0000
0000
,
0010
0000
0000
0000
,
0010
0000
0000
0000
,
0001
0000
0000
0000
,
0000
0000
0000
0000
,
0001
0000
0000
0000
,
0000
0000
0000
0000
,
0000
1000
0000
0000
,
0000
1000
0000
0000
,
0000
1000
0000
0000
,
0000
0000
0000
0000
,
0010
0000
0000
0000
,
0100
0000
0000
0000
,
0001
0000
0000
0000
,
1000
0000
0000
0000
,
0100
0000
0000
0000
,
0010
0000
0000
0000
,
0001
0000
0000
0000
,
0100
0000
0000
0000
,
0010
0000
1000
0000
,
0001
0000
0100
0000
,
0001
0000
1000
0000
,
0100
0000
1000
0000
,
0010
0000
0100
0000
,
0001
0000
1000
0000
,
0100
0000
0010
0000
,
0001
0000
1000
0000
,
0010
0000
0000
0000
,
0010
0000
0000
0000
,
0100
0000
0000
0000
,
0100
0000
0000
0000
,
0001
0000
0000
0000
,
0001
0000
0000
0000
,
1000
0000
0000
0000
,
1000
0000
0000
0000
,
0100
0000
0000
0000
,
0010
0000
0000
0000
,
0001
0000
0000
0000
,
0100
0000
0000
0000
,
0020
0000
0000
0000
,
0000
0000
0000
0000
,
0000
0000
0000
0000
,
0030
0000
0000
0000
;

//---------------dance-single - Itsugo15----------------
#NOTES:
     dance-single:
     Itsugo15:
     Challenge:
     11:
     0.704,0.756,0.162,0.764,0.244: // measure 1
0000
0000
0000
0000
,  // measure 2
0000
0000
0000
0000
,  // measure 3
0000
0000
0000
0000
,  // measure 4
0000
0000
0000
0000
,  // measure 5
1010
0000
0000
0000
0010
0000
0100
0001
0000
0000
1000
0000
0100
0000
0000
0000
,  // measure 6
1100
0000
0000
0000
0100
0000
0010
0001
0000
0000
1000
0000
0010
0000
0000
0000
,  // measure 7
1010
0000
0000
0000
1000
0000
0001
0010
0000
0000
0100
0000
1000
0000
0000
0000
,  // measure 8
1100
0000
0000
0000
1000
0000
0010
0100
0000
0000
0001
0000
1000
0000
0000
0000
,  // measure 9
1100
0000
0100
0000
0010
0000
0001
1000
0010
0000
0001
0000
0010
0000
0100
0000
,  // measure 10
0001
0000
1000
0000
0100
0000
0010
0001
1000
0000
0010
0000
0100
0000
0001
0000
,  // measure 11
0100
0000
0010
0000
1000
0000
0001
0010
0100
0000
1000
0000
0100
0000
0010
0000
,  // measure 12
0001
0000
1000
0000
0010
0000
0100
0001
1000
0000
0100
0000
0010
0000
0001
0000
,  // measure 13
0011
0000
0010
0000
0001
0000
0100
0010
1000
0000
0001
0000
0010
0000
0001
0000
,  // measure 14
0100
0000
0010
0000
1000
0000
0100
0010
0001
0000
1000
0000
0010
0000
0100
0000
,  // measure 15
0010
0000
1000
0000
0001
0000
0100
0010
1000
0000
0001
0000
0010
0000
0001
0000
,  // measure 16
0100
0000
0010
0000
1000
0000
0100
0010
0001
0000
0010
0000
0100
0000
1000
0000
,  // measure 17
1100
0000
0000
0000
0000
0000
0000
0000
0000
1000
0000
0000
0002
0000
0000
0000
0000
0000
0000
0000
0003
0100
0000
0000
0002
0000
0000
0000
0000
0000
0000
0000
0000
0000
0000
0000
0000
0000
0000
0000
0000
0000
0010
0000
0000
0000
0000
0000
,  // measure 18
2000
0000
0003
0000
3020
0000
0000
0230
0000
0000
0302
0000
0000
0000
1000
0000
,  // measure 19
0200
0000
0003
0000
0320
0000
0000
2030
0000
0000
3002
0000
0100
0000
0010
0000
,  // measure 20
2000
0000
0003
0000
3002
0000
0000
0023
0000
0000
0230
0000
0000
0000
1000
0000
,  // measure 21
0020
0300
0000
0031
2000
0000
0000
3010
2000
0000
0000
0000
0000
0000
0010
0000
,  // measure 22
0002
0000
3000
0000
0203
0000
0000
2300
0000
0000
3200
0000
0000
0000
0010
0000
,  // measure 23
0002
0000
0300
0000
2003
0000
0000
3020
0000
0000
0230
0000
0000
0000
1000
0000
,  // measure 24
0002
0000
0300
0000
0023
0000
0000
0032
0000
0000
0100
0000
2000
0000
0003
0000
,  // measure 25
3001
0010
1000
0010
0001
0100
1000
0100
,  // measure 26
0001
0010
1000
0010
0001
0100
1000
0100
,  // measure 27
0001
0010
1000
0010
0001
0100
1000
0100
,  // measure 28
0001
0010
0100
1000
0001
0100
0010
0100
,  // measure 29
1000
0100
0001
0010
1000
0010
0001
0100
,  // measure 30
1000
0100
0001
0010
1000
0010
0001
0100
,  // measure 31
1000
0100
0001
0010
1000
0010
0001
0100
,  // measure 32
1000
0100
0001
0010
0100
1000
0100
0010
,  // measure 33
0002
0000
0000
0000
,  // measure 34
2003
0000
0000
0000
,  // measure 35
3020
0000
0000
0000
,  // measure 36
0230
0000
0000
0000
,  // measure 37
0302
2000
0003
0200
,  // measure 38
3000
0020
0300
0002
,  // measure 39
0030
0200
0003
0020
,  // measure 40
0330
0000
0000
0000
,  // measure 41
1001
0000
0000
0000
0001
0000
1000
0100
0000
0000
0010
0000
0001
0000
0000
0000
,  // measure 42
0011
0000
0000
0000
0010
0000
0001
1000
0000
0000
0010
0000
0100
0000
0000
0000
,  // measure 43
0110
0000
0000
0000
0010
0000
0100
0001
0000
0000
1000
0000
0100
0000
0000
0000
,  // measure 44
1100
0000
0000
0000
1000
0000
0001
0100
0000
0000
0010
0000
1000
0000
0000
0000
,  // measure 45
1010
0000
0000
0000
0010
0000
0100
0001
0000
0000
1000
0000
0100
0000
0010
0000
,  // measure 46
0110
0000
0000
0000
0100
0000
1000
0001
0000
0000
0100
0000
0010
0000
1000
0000
,  // measure 47
1010
0000
0000
0000
0010
0000
1000
0001
0000
0000
0010
0000
0001
0000
1000
0000
,  // measure 48
1001
0000
0000
0000
0001
0000
0100
0010
0000
0000
1000
0000
0001
0000
0010
0000
,  // measure 49
0011
0000
0001
0000
0100
0000
1000
0100
0010
0000
1000
0000
0001
0000
0010
0000
,  // measure 50
0001
0000
0100
0000
0010
0000
1000
0100
0010
0000
0001
0000
0010
0000
0100
0000
,  // measure 51
1000
0000
0001
0000
0100
0000
0010
1000
0001
0000
0010
0000
0100
0000
0010
0000
,  // measure 52
0001
0000
1000
0000
0100
0000
0010
0001
1000
0000
0100
0000
1000
0000
0001
0000
,  // measure 53
1001
0000
1000
0000
0001
0000
0100
0010
1000
0000
0010
0000
0100
0000
1000
0000
,  // measure 54
0100
0000
0001
0000
0100
0000
0010
1000
0001
0000
0010
0000
0001
0000
0100
0000
,  // measure 55
0010
0000
1000
0000
0001
0000
0010
0100
1000
0000
0100
0000
0010
0000
0001
0000
,  // measure 56
1000
0000
0010
0000
0100
0000
0001
1000
0100
0000
0010
0000
0100
0000
1000
0000
,  // measure 57
0002
0000
1000
0000
0100
0000
0103
0002
0000
0000
0200
0000
0003
0000
0310
0000
,  // measure 58
2000
0000
0001
0000
0001
0000
3100
0020
0000
0000
0002
0000
0030
0000
1003
0000
,  // measure 59
0020
0000
0100
0000
0100
0000
1030
0002
0000
0000
0200
0000
0003
0000
0320
0000
,  // measure 60
1000
0000
1000
0000
0130
0000
0001
2000
0000
0000
3002
0000
0010
0000
1000
0000
,  // measure 61
0010
0000
0010
0000
1003
0000
0010
2000
0000
0000
0020
0000
3000
0000
0130
0000
,  // measure 62
0002
0000
1000
0000
1003
0000
0100
0020
0000
0000
0002
0000
0030
0000
1003
0000
,  // measure 63
0200
0000
0010
0000
0310
0000
0001
2000
0000
0000
0020
0000
3000
0000
0130
0000
,  // measure 64
0002
0000
1000
0000
1003
0000
0100
0020
0000
0000
0032
0000
2000
0000
0000
0003
,  // measure 65
3001
0000
0000
0010
0002
0000
0000
1003
0002
0000
0000
0000
0000
0000
0100
0000
,  // measure 66
2003
0000
0000
0000
3200
0000
0000
0320
0000
0000
0032
0000
0000
0000
0100
0000
,  // measure 67
0023
0000
0000
0000
0230
0000
0000
2300
0000
0000
3200
0000
0000
0000
1000
0000
,  // measure 68
0320
0000
0000
0000
0032
0000
0000
2003
0000
0000
0100
0000
0000
0000
3001
0000
,  // measure 69
M200
M000
M000
M000
,  // measure 70
0320
0M00
0M00
0M00
,  // measure 71
0032
00M0
00M0
00M0
,  // measure 72
0003
0000
000M
0000
000M
0000
000M
M000
,  // measure 73
000M
0000
0000
0000
;

//---------------dance-single - Itsugo15----------------
#NOTES:
     dance-single:
     Itsugo15:
     Hard:
     9:
     0.587,0.653,0.086,0.592,0.119:
0000
0000
0000
0000
,
0000
0000
0000
0000
,
0000
0000
0000
0000
,
0000
0000
0000
0000
,
1010
0000
0010
0100
0000
0100
0001
0000
,
0101
0000
0100
0010
0000
0010
1000
0000
,
1010
0000
1000
0001
0000
0001
0010
0000
,
0011
0000
0001
1000
0000
1000
0100
0000
,
1100
0000
0010
0001
1000
0001
0010
0100
,
1000
0000
0100
0010
0001
1000
0010
0100
,
0001
0000
1000
0001
0010
0100
0010
0001
,
1000
0000
0010
0100
0001
1000
0100
1000
,
0001
0000
1000
0010
0100
0001
0010
0001
,
1000
0000
0010
0100
0010
1000
0001
0010
,
0100
0000
1000
0100
0010
0100
1000
0001
,
0100
0000
0010
1000
0001
0010
0001
1000
,
0020
0000
0230
0000
0302
0000
0000
1000
,
2003
0000
0000
0000
3200
0000
0000
0320
0000
0000
0032
0000
0000
0000
0010
0000
,
0023
0000
0000
0000
0230
0000
0000
2300
0000
0000
0001
0000
0000
0000
3001
0000
,
0002
0000
0000
0000
2003
0000
0000
3200
0000
0000
0010
0000
0000
0000
1300
0000
,
2000
0000
3002
0000
0203
0000
0000
0010
,
0320
0000
0000
0000
2030
0000
0000
3002
0000
0000
0023
0000
0000
0000
0001
0000
,
0002
0000
0030
0000
2003
0000
0000
3200
0000
0000
0320
0000
0000
0000
0001
0000
,
0002
0000
0030
0000
0203
0000
0000
0320
0000
0000
1000
0000
2000
0000
0030
0000
,
3001
1000
0001
1000
0010
1000
0010
1000
,
0001
0100
0001
0100
0001
1000
0001
1000
,
0001
0010
0001
0010
0100
1000
0100
1000
,
0001
0100
0010
1000
0100
0010
0001
0010
,
0100
1000
0100
1000
0001
1000
0001
1000
,
0001
0100
0001
0100
0001
1000
0001
1000
,
0001
0010
0001
0010
0001
1000
0100
1000
,
0100
0010
0001
1000
0010
0100
0001
1000
,
0200
0000
0000
0000
,
0320
0000
0000
0000
,
0032
0000
0000
0000
,
2003
0000
0000
0000
,
0010
0001
0000
0001
,
0000
0100
0000
0100
,
0000
0001
0000
0001
,
0000
0000
0000
0000
0000
0000
0000
3000
,
1001
0000
1000
0001
0000
0001
0100
0000
,
0101
0000
0001
0100
0000
0100
0010
0000
,
0110
0000
0100
0001
0000
0001
1000
0000
,
1001
0000
0001
0010
0000
0010
0100
0000
,
2000
0000
3100
0010
0000
0010
0001
1000
,
0020
0000
0130
0001
0000
0001
1000
0100
,
0020
0000
0031
1000
0000
1000
0010
0100
,
0002
0000
0103
0010
0000
0010
1000
0001
,
0010
0100
1000
0100
0010
0001
1000
0100
,
1000
0000
0100
1000
0001
0100
0010
1000
,
0001
0000
0010
0001
1000
0010
0100
0001
,
0100
0000
0010
1000
0001
0010
0001
0100
,
0010
0000
1000
0010
0100
0001
1000
0100
,
0010
0000
0100
1000
0001
0100
0010
1000
,
0001
0000
1000
0100
0010
0001
0010
0100
,
1000
0000
0100
0010
0001
1000
0010
0100
,
0002
0000
0000
1000
0000
0000
1000
0000
0000
0100
0000
0000
0100
0000
0100
0000
,
0203
0000
0000
0001
0000
0000
0001
0000
0000
0010
0000
0000
0010
0000
0010
0000
,
0320
0000
0000
1000
0000
0000
1000
0000
0000
0100
0000
0000
0100
0000
0100
0000
,
0230
0000
0000
0001
0000
0000
0001
0000
0000
0010
0000
0000
0010
0000
0010
0000
,
0320
0000
0000
0100
0000
0000
0100
0000
0000
1000
0000
0000
1000
0000
1000
0000
,
2030
0000
0000
0010
0000
0000
0010
0000
0000
0001
0000
0000
0001
0000
0001
0000
,
3002
0000
0000
0010
0000
0000
0010
0000
0000
0100
0000
0000
0100
0000
0100
0000
,
0203
0000
0000
0010
0000
0000
0010
0000
0000
0010
0000
0000
0020
0000
0300
0000
,
2030
0000
3002
0000
0023
0000
0000
0130
,
0200
0000
0000
0000
2300
0000
0000
3002
0000
0000
0203
0000
0000
0000
0010
0000
,
0320
0000
0000
0000
0230
0000
0000
0302
0000
0000
2003
0000
0000
0000
0100
0000
,
3200
0000
0000
0000
0320
0000
0000
0032
0000
0000
0010
0000
0003
0000
0001
0000
,
4000
0000
0000
0000
,
3040
0000
0000
0000
,
0430
0000
0000
0000
,
030M
0000
000M
0000
000M
0000
000M
00M0
,
000M
0000
0000
0000
;

//---------------dance-single - Itsugo15----------------
#NOTES:
     dance-single:
     Itsugo15:
     Easy:
     4:
     0.220,0.305,0.010,0.038,0.000:
0000
0000
0000
0000
,
0000
0000
0000
0000
,
0000
0000
0000
0000
,
0000
0000
0000
0000
,
1000
0000
0000
0000
,
0010
0000
0000
0000
,
0100
0000
0000
0000
,
0001
0000
0000
0000
,
1000
0000
0100
0000
,
1000
0000
0001
0000
,
0100
0000
0010
0000
,
1000
0000
0001
0000
,
0010
0000
0001
0000
,
0100
0000
0010
0000
,
1000
0000
0100
0000
,
0010
0000
0001
0000
,
1000
1000
1000
0000
,
0001
0001
0001
0000
,
0100
0100
0100
0000
,
0010
0010
0010
0000
,
1000
0001
0010
0000
,
0010
0001
0100
0000
,
0100
0010
1000
0000
,
1000
0010
0100
0000
,
0001
0000
1000
0000
,
0100
0000
0010
0000
,
0001
0000
0100
0000
,
0010
0000
1000
0000
,
0001
0000
0010
0000
,
0100
0000
1000
0000
,
0100
0000
0010
0000
,
0001
0000
1000
0000
,
1001
0000
0000
0000
,
0001
0000
0000
0000
,
0001
0000
0000
0000
,
0001
0000
0000
0000
,
1000
0001
0000
1000
,
0000
0001
0000
1000
,
0000
0001
0000
1000
,
2000
0000
3000
0000
,
0010
0000
0100
0000
,
0001
0000
1000
0000
,
0100
0000
0010
0000
,
0001
0000
0100
0000
,
0010
0000
1000
0000
,
0001
0000
0010
0000
,
0001
0000
1000
0000
,
0010
0000
0100
0000
,
0001
0001
0001
0000
,
1000
1000
1000
0000
,
0100
0100
0100
0000
,
0010
0010
0010
0000
,
0001
0100
0010
0000
,
0010
0100
0001
0000
,
0001
1000
0100
0000
,
0100
1000
0001
0000
,
0100
0010
0010
0010
,
0010
1000
1000
1000
,
1000
0001
0001
0001
,
0001
0010
0010
0010
,
0010
0100
1000
0100
,
0010
0001
1000
0010
,
1000
0001
0010
0001
,
0100
0010
1000
0100
,
0010
0001
0010
0000
,
0001
0000
1000
0000
,
0010
0000
0100
0000
,
0001
0000
0100
0000
,
0020
0000
0000
0000
,
2030
0000
0000
0000
,
3002
0000
0000
0000
,
0003
0000
0000
0000
;

//---------------dance-single - Itsugo15----------------
#NOTES:
     dance-single:
     Itsugo15:
     Medium:
     6:
     0.383,0.509,0.096,0.029,0.000:
0000
0000
0000
0000
,
0000
0000
0000
0000
,
0000
0000
0000
0000
,
0000
0000
0000
0000
,
1000
0000
0000
0010
0000
0000
0100
0000
,
0001
0000
0000
1000
0000
0000
0100
0000
,
0010
0000
0000
0001
0000
0000
1000
0000
,
0001
0000
0000
0100
0000
0000
0010
0000
,
1000
0001
0010
0100
,
0010
0001
1000
0010
,
0100
0001
0010
0100
,
0010
0001
1000
0010
,
0100
0000
0001
0000
0100
0001
0100
0000
,
0010
0000
1000
0000
0010
1000
0010
0000
,
0100
0000
0001
0000
1000
0001
1000
0000
,
0100
0000
0010
0000
0001
0010
0001
0000
,
0100
0010
1000
0010
,
0001
0010
1000
0010
,
0100
0001
0010
0100
,
1000
0010
0100
0001
,
1000
0100
0001
0100
,
1000
0010
0100
0001
,
0010
0100
1000
0100
,
0010
0001
1000
0010
,
0100
0001
0100
0000
0010
1000
0010
0000
,
1000
0001
1000
0000
0001
0010
0001
0000
,
0010
0100
0010
0000
0100
1000
0100
0000
,
1000
0010
0100
0001
0010
0100
1000
0000
,
0001
0100
0001
0000
1000
0100
1000
0000
,
0001
0010
0001
0000
0100
0010
0100
0000
,
0001
1000
0001
0000
0010
0100
1000
0000
,
0100
0010
0001
1000
0010
0100
0001
0010
,
0100
0000
0000
0000
,
1000
0000
0000
0000
,
0001
0000
0000
0000
,
0100
0000
0000
0000
,
0001
0100
0000
0010
,
0000
1000
0000
0001
,
0000
0010
0000
0100
,
0000
0000
0000
0000
,
1000
0000
0100
0000
0010
0001
1000
0000
,
0001
0000
0010
0000
0100
1000
0001
0000
,
0100
0000
0010
0000
1000
0010
0100
0000
,
0001
0000
1000
0000
0100
0010
0001
0000
,
1000
0000
0100
0000
0010
0001
1000
0000
,
0010
0000
0100
0000
0001
1000
0100
0000
,
0010
0000
0001
0000
1000
0010
0100
0000
,
0001
0000
1000
0000
0100
0010
0001
0000
,
0011
0001
0010
0001
,
1000
0010
0100
0001
,
0010
0100
1000
0100
,
0010
0001
1000
0010
,
0100
0000
0001
0000
1000
0001
1000
0000
,
0100
0000
0010
0000
0001
0010
0001
0000
,
0100
0000
0010
0000
1000
0010
1000
0000
,
0001
0010
0100
1000
,
1100
1000
0001
0001
,
1001
0001
0100
0100
,
0101
0100
0010
0010
,
0110
0010
1000
1000
,
1010
0010
0100
0100
,
0110
0100
0001
0001
,
0101
0001
1000
1000
,
1001
1000
0100
0100
,
1100
0100
1000
1000
,
0010
0100
0001
0001
,
0100
0010
1000
1000
,
0001
0010
0100
0100
,
2000
0000
0000
0000
,
3002
0000
0000
0000
,
0203
0000
0000
0000
,
0300
0000
0000
0000
;
