#TITLE:Hello!;
#SUBTITLE:Mindless Act;
#ARTIST:EastNewSound;
#TITLETRANSLIT:Hello!;
#SUBTITLETRANSLIT:Mindless Act;
#ARTISTTRANSLIT:EastNewSound;
#GENRE:Otaku's Dream 4th Mix (Pad);
#CREDIT:Itsugo15 & CondorTalon (sm);
#BANNER:hello bn.png;
#BACKGROUND:hello bg.png;
#JACKET:Hello-Jacket.png;
#LYRICSPATH:Hello!.lrc;
#CDTITLE:Itsugo15 SimifileS.png;
#MUSIC:Hello!.ogg;
#OFFSET:-0.218;
#SAMPLESTART:103.044;
#SAMPLELENGTH:13.713;
#SELECTABLE:YES;
#LISTSORT:;
#DISPLAYBPM:140.000;
#BPMS:0.000=140.000,240.000=210.843,244.000=140.000;
#STOPS:240.000=0.048
,240.333=0.048
,240.667=0.048
,241.000=0.048
,241.333=0.048
,241.667=0.048
,242.000=0.048
,242.333=0.048
,242.667=0.048
,243.000=0.048
,243.333=0.048
,243.667=0.048
;
#TICKCOUNT:0.000=6;
#BGCHANGES:16.000=hello bg1.jpg=1.000=1=1=0,
48.000=hello bg2.jpg=1.000=1=1=0,
80.000=hello bg3.jpg=1.000=1=1=0,
112.000=hello bg4.jpg=1.000=1=1=0,
144.000=hello bg5.jpg=1.000=1=1=0,
176.000=hello bg6.jpg=1.000=1=1=0,
208.000=hello bg7.jpg=1.000=1=1=0,
244.000=hello bg8.jpg=1.000=1=1=0,
272.000=hello bg9.jpg=1.000=1=1=0,
304.000=hello bg1.jpg=1.000=1=1=0,
320.000=hello bg.png=1.000=1=1=0,
346.000=hello bg.jpg=1.000=1=1=0,
99999=-nosongbg-=1.000=0=0=0 // don't automatically add -songbackground-
;
#KEYSOUNDS:;
#ATTACKS:;

//---------------dance-single - Itsugo15----------------
#NOTES:
     dance-single:
     Itsugo15:
     Challenge:
     10:
     0.730,0.987,0.376,1.000,0.362:
0000
0000
0000
0000
,
0000
0000
0000
0000
,
0000
0000
0000
0000
,
0000
0000
0000
0000
,
1000
0000
0000
0010
0000
0000
0001
0000
0000
0010
0000
0000
0100
0000
0000
0001
,
0000
0000
1000
0000
0000
0100
0000
0000
0010
0000
0000
0001
0000
0000
1000
0000
,
0010
0000
0000
0100
0000
0000
0001
0000
0000
0100
0000
0000
1000
0000
0000
0100
,
0000
0000
0010
0000
0000
1000
0000
0000
0001
0000
0000
0010
0000
0000
0100
0000
,
1000
0000
0000
0001
0000
0000
0100
0000
0000
1000
0000
0000
0001
0000
0000
0010
,
0000
0000
1000
0000
0000
0001
0000
0000
0010
0000
0000
1000
0000
0000
0001
0000
,
0100
0000
0000
1000
0000
0000
0001
0000
0000
0100
0000
0000
0010
0000
0000
0001
,
0000
0000
1000
0000
0000
0100
0000
0000
0001
0000
0000
0100
0000
0000
0010
0000
,
0110
0000
0010
1000
1010
0000
1000
0001
,
1001
0000
0000
0000
0001
0000
0010
0000
0011
0000
0000
0000
0001
0000
0000
1000
,
0010
0000
1000
0010
0110
0000
0100
0001
,
0101
0000
0000
0000
0001
0000
1000
0000
1001
0000
0001
0100
0000
1000
0100
0000
,
1100
0000
0010
0001
0011
0000
0001
1000
,
1001
0000
0000
0000
1000
0000
0010
0000
1010
0000
0000
0000
0100
0000
0000
0001
,
1000
0000
1000
0100
1100
0000
0100
0010
,
0110
0000
0000
0000
0010
0000
0001
0000
0011
0000
0001
1000
0000
1000
0001
0000
,
0101
0100
0010
0100
0110
0000
0010
1000
,
1010
0000
0010
0000
0100
0000
0001
0000
0101
0000
0000
0000
1000
0000
0100
0010
,
0001
0010
0100
1000
1100
0000
0100
0010
,
0110
0000
0010
0000
0001
0000
1000
0000
1001
0000
1000
0010
0000
0001
0010
0000
,
1001
0000
1000
0010
1010
0000
1000
0001
,
1001
0000
0000
0000
0001
0000
0010
0000
0011
0000
0000
0000
0010
0000
0000
0100
,
1000
0000
1000
0001
1001
0000
1000
0010
,
1010
0000
0000
0000
0002
0000
0000
0000
2003
0000
0001
0001
0000
0001
3002
0000
,
2200
0000
0000
0000
,
3000
0300
0003
0000
,
1000
0000
0000
1000
0000
0000
0001
0000
0000
0001
0000
0000
1000
0000
0000
1000
,
0000
0000
0001
0000
0000
0001
0000
0000
0010
0000
0000
0100
0000
0000
1000
0000
,
0001
0000
0000
0001
0000
0000
1000
0000
0000
1000
0000
0000
0001
0000
0000
0001
,
0000
0000
1000
0000
0000
0010
0000
0000
0100
0000
0000
0001
0000
0000
1000
0000
,
0100
0000
0000
0010
0000
0000
0001
0000
0000
1000
0000
0000
0010
0000
0000
0100
,
0000
0000
0001
0000
0000
1000
0000
0000
0100
0000
0000
1000
0000
0000
0001
0000
,
1001
0000
0000
0200
0000
0000
0020
0000
0000
0000
0330
0000
0002
0000
2000
0000
,
0000
0003
3001
0000
0010
0000
1000
0000
0010
0000
0100
0000
1000
0000
0001
0000
,
0010
0000
0000
0200
0000
0000
2000
0000
0000
0000
0300
0000
3002
0000
0200
0000
,
0003
0301
0100
1000
0100
0010
1000
0100
,
0010
0000
0000
0002
0000
0000
2000
0000
0000
0000
0003
0000
3020
0000
0200
0000
,
0030
0301
1000
0100
0010
1000
0010
0001
,
1000
0000
0000
1001
0000
0000
0202
0000
0000
0000
0303
0000
1001
0000
2200
0000
,
3300
1000
0010
0001
0010
1000
0001
0010
,
0011
0000
0000
0000
0010
0000
0000
0100
1000
0000
0000
0000
0001
0000
0000
0100
,
0010
1000
0001
0010
0001
1000
0010
0100
,
0001
0000
0000
0000
1000
0000
0000
0100
0010
0000
0000
0000
0001
0000
0000
1000
,
0010
0100
0001
0100
0010
1000
0001
0010
,
0100
0100
1000
1000
0010
0010
0100
0100
,
0001
0001
1000
1000
0100
0100
0010
0010
,
0001
0010
0100
0010
0001
1000
0100
0010
0100
1000
0001
0100
0010
1000
0100
1000
,
0010
0100
0001
1000
0100
0010
0001
1000
0100
0000
0000
0000
0000
0000
0000
0000
,
1200
0000
0302
0000
0203
0000
2300
0000
3020
0000
0230
0000
0302
0000
0013
0100
,
2000
0000
3002
0000
0203
0000
2300
0000
3200
0000
0320
0000
2030
0000
3001
0010
,
0200
0000
0302
0000
0203
0000
2300
0000
3020
0000
2030
0000
3002
0000
0103
0010
,
2000
0000
3002
0000
0023
0000
0130
0000
0110
0000
0100
1000
0000
0001
0100
0000
,
0201
0000
2300
0000
3200
0000
0320
0000
2030
0000
3002
0000
0023
0000
0031
1000
,
0020
0000
0032
0000
0023
0000
2030
0000
3020
0000
0230
0000
0302
0000
1003
0100
,
0020
0000
0032
0000
0023
0000
2030
0000
3002
0000
0203
0000
2300
0000
3001
0100
,
0010
0000
2000
0000
3002
0000
0023
0000
0130
0000
0010
0001
0000
1000
0100
0000
,
1000
0010
0001
1000
0100
0001
1000
0100
0001
1000
0010
0001
,
0200
0000
2300
0000
3200
0000
0320
0000
2030
0000
3002
0000
0023
0000
0130
1000
,
0200
0302
0203
0320
0032
0023
0230
2300
,
3020
0000
0032
0000
0023
0000
2030
0000
3100
0000
1000
0001
0000
0100
0001
0000
,
0201
0000
0000
0302
0000
0000
0203
0000
0000
2300
0000
0000
3200
0000
0000
0320
0000
0000
1030
0000
0001
0000
1000
0000
,
0200
0000
0302
0000
0203
0000
0320
0000
0230
0000
2300
0000
3020
0000
0130
0001
,
0100
0000
0010
1000
0100
1000
0010
0100
0001
0010
0001
0000
0010
0000
0100
0000
,
0220
0000
0000
0000
0000
0000
0000
0330
0110
0000
0100
1000
0000
0001
0100
0000
,
0210
0302
0203
2300
3200
0320
2030
3002
,
0023
0000
2030
0000
3020
0000
0230
0000
2300
0000
3002
0000
0203
0000
0310
1000
,
0002
0023
0230
2300
3200
0302
0203
0320
,
0032
0000
2003
0000
3020
0000
0230
0000
0301
0000
1000
0100
0000
0001
0100
0000
,
0201
0302
0203
2300
3002
0023
2030
3020
,
0230
0000
0000
0000
0302
0000
0000
0000
0203
0000
0000
0000
0302
0000
0000
0000
2003
0000
0000
0000
3200
0000
0000
0000
0310
0000
0000
0001
0000
0000
1000
0000
,
0020
0032
0023
0230
0320
2030
3200
0320
,
0230
0302
0203
2300
3020
0230
0302
1003
,
1002
0000
2103
0000
,
3102
0000
0000
0000
0000
0000
0000
0000
1013
0000
0000
0000
0000
0000
0000
1000
,
0001
0000
0101
0000
,
1001
0000
0000
0000
0000
0000
0000
0000
1100
0000
0100
0010
0000
0001
1000
0000
,
1001
0000
1010
0000
,
0101
0000
0000
0000
0000
0000
0000
0000
0011
0000
0000
0000
0000
0000
0000
0001
,
1000
0000
1001
0000
,
1010
0000
0000
0000
0000
0000
0000
0000
0101
0000
0001
1000
0000
1000
0200
0000
,
0000
0000
0000
0000
,
0000
0000
0000
0000
,
0000
0000
0300
0000
;

//---------------dance-single - Itsugo15----------------
#NOTES:
     dance-single:
     Itsugo15:
     Hard:
     7:
     0.424,0.552,0.248,0.282,0.185:
0000
0000
0000
0000
,
0000
0000
0000
0000
,
0000
0000
0000
0000
,
0000
0000
0000
0000
,
1000
0000
0000
1000
0000
0000
0010
0000
0000
0010
0000
0000
0100
0000
0000
0100
,
0000
0000
0001
0000
0000
0001
0000
0000
1000
0000
0000
1000
0000
0000
0100
0000
,
0010
0000
0000
0010
0000
0000
0100
0000
0000
0100
0000
0000
1000
0000
0000
1000
,
0000
0000
0001
0000
0000
0001
0000
0000
0100
0000
0000
0100
0000
0000
0010
0000
,
1000
0000
0000
1000
0000
0000
0001
0000
0000
0001
0000
0000
1000
0000
0000
1000
,
0000
0000
0010
0000
0000
0010
0000
0000
1000
0000
0000
1000
0000
0000
0100
0000
,
0010
0000
0000
0010
0000
0000
0001
0000
0000
0001
0000
0000
1000
0000
0000
1000
,
0000
0000
0010
0000
0000
0010
0000
0000
0100
0000
0000
0100
0000
0000
0001
0000
,
0101
0000
1010
0000
,
1000
0000
0000
0000
0000
0000
0000
0000
1001
0000
0000
0000
0000
0000
0000
1000
,
0100
0000
0011
0000
,
0001
0000
0000
0000
0000
0000
0000
0000
1001
0000
0001
0100
0000
0001
1000
0000
,
0100
0000
1100
0000
,
0001
0000
0000
0000
0000
0000
0000
0000
0011
0000
0000
0000
0000
0000
0000
0001
,
1000
0000
1100
0000
,
1000
0000
0000
0000
0000
0000
0000
0000
1001
0000
1000
0001
0000
0100
0001
0000
,
0101
0000
0110
0000
,
0010
0000
0000
0000
0000
0000
0000
0000
1010
0000
0000
0000
0000
0000
0000
0100
,
0001
0000
0101
0000
,
0001
0000
0000
0000
0000
0000
0000
0000
1001
0000
0001
0010
0000
0100
1000
0000
,
0001
0000
1001
0000
,
1000
0000
0000
0000
0000
0000
0000
0000
1100
0000
0000
0000
0000
0000
0000
0100
,
0010
0000
0110
0000
,
0001
0000
0000
0000
0000
0000
0000
0000
0011
0000
0001
1000
0000
0010
0100
0000
,
0220
0000
0000
0000
,
0330
0000
0000
0000
,
1000
0000
0000
1000
0000
0000
0010
0000
0000
0010
0000
0000
0100
0000
0000
0100
,
0000
0000
0001
0000
0000
0001
0000
0000
0010
0000
0000
0010
0000
0000
0100
0000
,
1000
0000
0000
1000
0000
0000
0001
0000
0000
0001
0000
0000
0100
0000
0000
0100
,
0000
0000
0010
0000
0000
0010
0000
0000
1000
0000
0000
1000
0000
0000
0100
0000
,
0010
0000
0000
0010
0000
0000
0001
0000
0000
0001
0000
0000
1000
0000
0000
1000
,
0000
0000
0010
0000
0000
0010
0000
0000
1000
0000
0000
1000
0000
0000
0100
0000
,
0010
0000
0001
2000
0000
3000
0001
2000
,
0000
3100
0010
0001
1000
0001
0100
0010
,
0000
0000
1000
0002
0000
0003
1000
0002
,
0000
0013
0100
1000
0001
0100
0010
1000
,
0000
0000
0001
0200
0000
0300
0001
0200
,
0000
0310
1000
0001
1000
0100
0010
0001
,
0000
0000
1000
0200
0000
0300
1000
0200
,
0000
0310
0001
0010
0100
1000
0001
0100
,
0101
0001
0100
0001
,
1000
0010
0100
0001
,
0010
0100
1000
0100
,
0010
0001
1000
0001
,
0100
0100
0001
0001
1000
1000
0100
0100
,
0010
0010
0100
0100
1000
1000
0001
0001
,
4000
0004
0000
0000
0000
0000
0000
0000
0000
0000
0000
0000
0000
0000
0000
0000
,
0000
0000
3003
0000
,
1001
0001
0100
0010
1000
0000
0100
0010
,
0001
1000
0001
0100
0010
0000
1000
0001
,
0010
0100
1000
0100
0010
0000
0001
0100
,
0010
0000
1000
0000
0100
0000
0010
0000
0002
0003
0000
2000
3000
0000
0002
0003
,
0010
0100
1000
0100
0010
0000
0001
0100
,
0010
1000
0001
1000
0100
0000
0010
0001
,
0010
0100
1000
0001
0100
0000
0010
1000
,
0001
0000
1000
0000
0100
0000
0010
0000
0001
0000
0200
0300
0020
0030
2000
3000
,
0004
0000
0000
0000
0000
0000
0000
0000
0000
0000
0000
0000
0000
0000
0000
0003
,
1000
04M0
00M0
00M0
00M0
0310
0001
1000
,
1001
0000
0001
0020
0000
0030
0100
2000
,
0000
304M
000M
000M
000M
0130
0001
1000
,
1001
0000
0001
0020
0000
0030
0100
2000
,
0000
3M04
0M00
0M00
0M00
1003
0010
0100
,
0110
0000
0010
2000
0000
3000
0100
0020
,
0000
0000
0000
0000
0000
0000
0000
0000
0032
0000
0000
0000
0000
0000
0000
0000
0000
0000
0000
0000
0000
0000
0000
0003
0010
0000
0000
0000
0000
0000
0000
0000
0001
0000
0000
0000
0000
0000
0000
0000
0010
0000
0000
0000
0000
0000
0000
0000
0100
0000
0000
0000
0000
0000
0000
0000
1000
0000
0000
0000
0000
0000
0000
0000
,
1100
0000
0001
0200
0000
0300
0001
0200
,
0000
M340
M000
M000
M000
0130
0001
1000
,
1001
0000
0100
0020
0000
0030
0001
0020
,
0000
0M34
0M00
0M00
0M00
0013
0100
1000
,
1100
0000
1000
0002
0000
0003
0010
0002
,
0000
04M3
00M0
00M0
00M0
0310
1000
0001
,
1001
0000
0001
2000
0000
3000
0100
2000
,
0000
3M04
0M00
0M00
0M00
1003
0010
0100
,
0110
0000
1001
0000
,
0001
0000
0000
0000
0000
0000
0000
0000
0101
0000
0000
0000
0000
0000
0000
0001
,
1000
0000
0110
0000
,
1000
0000
0000
0000
0000
0000
0000
0000
1100
0000
0100
0010
0000
0001
0100
0000
,
0010
0000
1010
0000
,
0100
0000
0000
0000
0000
0000
0000
0000
0101
0000
0000
0000
0000
0000
0000
0100
,
0010
0000
1001
0000
,
0100
0000
0000
0000
0000
0000
0000
0000
1100
0000
1000
0001
0000
0001
0200
0000
,
0000
0000
0000
0000
,
0000
0000
0000
0000
,
0000
0000
0300
0000
;

//---------------dance-single - Itsugo15----------------
#NOTES:
     dance-single:
     Itsugo15:
     Medium:
     5:
     0.258,0.310,0.161,0.060,0.030:
0000
0000
0000
0000
,
0000
0000
0000
0000
,
0000
0000
0000
0000
,
0000
0000
0000
0000
,
1000
0000
0000
0100
0000
0000
0010
0000
,
0000
0001
0000
0000
1000
0000
0000
0010
,
1000
0000
0000
0001
0000
0000
0100
0000
,
0000
0010
0000
0000
1000
0000
0000
0001
,
0010
0000
0000
0100
0000
0000
1000
0000
,
0000
0001
0000
0000
0100
0000
0000
0010
,
1000
0000
0000
0100
0000
0000
0010
0000
,
0000
0100
0000
0000
1000
0000
0000
0001
,
0100
0000
0010
0000
,
1000
0000
0100
0000
,
0010
0000
0001
0000
,
1000
0000
0000
0000
0000
0000
0000
0000
0010
0000
0000
0100
0000
0000
0001
0000
,
1000
0000
0100
0000
,
0010
0000
0001
0000
,
1000
0000
0010
0000
,
0100
0000
0000
0000
0000
0000
0000
0000
0001
0000
0000
1000
0000
0000
0010
0000
,
1000
0000
0100
0000
,
0010
0000
0001
0000
,
1000
0000
0010
0000
,
1000
0000
0000
0000
0000
0000
0000
0000
0001
0000
0000
0100
0000
0000
0010
0000
,
1000
0000
0100
0000
,
0010
0000
0100
0000
,
1000
0000
0001
0000
,
1000
0000
0000
0000
0000
0000
0000
0000
0010
0000
0000
0100
0000
0000
0010
0000
,
1000
0000
0000
0000
,
0000
0000
0000
0000
,
0000
0000
0000
0000
,
0000
0000
0000
0000
,
0001
0000
0000
0010
0000
0000
0100
0000
,
0000
1000
0000
0000
0001
0000
0000
0100
,
0010
0000
0000
1000
0000
0000
0100
0000
,
0000
0010
0000
0000
0001
0000
0000
1000
,
0001
0000
1000
0002
0000
0003
1000
0002
,
0000
0103
0000
0001
0000
0010
0000
0100
,
0000
0000
1000
0200
0000
0300
1000
0200
,
0000
0310
0000
0001
0000
0010
0000
0100
,
0000
0000
1000
0020
0000
0030
1000
0020
,
0000
0130
0000
0001
0000
1000
0000
0001
,
0000
0000
0010
0200
0000
0300
0010
0200
,
0000
1300
0000
0001
0000
0100
0000
0001
,
1000
0100
0010
0001
,
1000
0100
0010
0001
,
1000
0010
0100
0001
,
1000
0010
0100
0001
,
1000
1000
1000
1000
,
0100
0100
0100
0100
,
0010
0010
0010
0010
,
0001
0001
0011
0000
,
1001
0000
0000
0000
1100
0000
0100
0010
,
0001
0000
0011
0000
,
1000
0000
0000
0000
1010
0000
0010
0100
,
0001
0000
0101
0000
,
1000
0000
0000
0000
1100
0000
0100
1000
,
0010
0000
1010
0000
,
1000
0000
0000
0000
1001
0000
0001
0100
,
0010
0000
0110
0000
,
0200
0000
0000
0000
0000
0000
0000
0000
0000
0000
0000
0300
,
0101
0000
1001
0000
,
1000
0000
0000
0000
1001
0000
0001
0100
,
0010
0000
0000
0000
0000
0000
0000
0000
1000
0000
0000
0010
0000
0000
1000
0000
,
0001
0000
0000
0000
1001
0000
1000
0001
,
0100
0000
0101
0000
,
1000
0000
0000
0000
1100
0000
1000
0001
,
0010
0000
0000
0000
0000
0000
0000
0000
0100
0000
0000
1000
0000
0000
0001
0000
,
0100
0000
0000
0000
0101
0000
0100
0001
,
1000
0000
1001
0000
,
1000
0000
0000
0000
1100
0000
0100
1000
,
0001
0000
0000
0000
0000
0000
0000
0000
1000
0000
0000
0001
0000
0000
1000
0000
,
0100
0000
0000
0000
1100
0000
1000
0001
,
0100
0000
0101
0000
,
0001
0000
0000
0000
1001
0000
1000
0010
,
0100
0000
0110
0000
,
1010
0000
1000
0000
,
0001
0000
0010
0000
,
0100
0000
1000
0000
,
0001
0000
0000
0000
0000
0000
0000
0000
0100
0000
0000
0010
0000
0000
1000
0000
,
0001
0000
0010
0000
,
0100
0000
1000
0000
,
0001
0000
1000
0000
,
0001
0000
0000
0000
0000
0000
0000
0000
0100
0000
0000
0010
0000
0000
1000
0000
;

//---------------dance-single - Itsugo15----------------
#NOTES:
     dance-single:
     Itsugo15:
     Easy:
     2:
     0.160,0.224,0.000,0.007,0.000:
0000
0000
0000
0000
,
0000
0000
0000
0000
,
0000
0000
0000
0000
,
0000
0000
0000
0000
,
0001
0000
0000
1000
,
0000
0000
0010
0000
,
0100
0000
0000
0001
,
0000
0000
1000
0000
,
0010
0000
0000
1000
,
0000
0000
0001
0000
,
0010
0000
0000
0100
,
0000
0000
1000
0000
,
0001
0000
1000
0000
,
0010
0000
1000
0000
,
0100
0000
0010
0000
,
0001
0000
1000
0000
,
0001
0000
1000
0000
,
0100
0000
0010
0000
,
0100
0000
1000
0000
,
0001
0000
1000
0000
,
0010
0000
0100
0000
,
0010
0000
1000
0000
,
0001
0000
0010
0000
,
0100
0000
0010
0000
,
0001
0000
1000
0000
,
0010
0000
1000
0000
,
0001
0000
0100
0000
,
0001
0000
0010
0000
,
0100
0000
0000
0000
,
0000
0000
0000
0000
,
0000
0000
0000
0000
,
0000
0000
0000
0000
,
1000
0000
0000
0100
,
0000
0000
0010
0000
,
0001
0000
0000
1000
,
0000
0000
0010
0000
,
1000
0100
0000
0010
,
0000
0001
1000
0001
,
0000
1000
0000
0010
,
0000
0100
0001
1000
,
0000
0010
0000
1000
,
0000
0100
0010
0001
,
0000
1000
0000
0001
,
0000
1000
0010
0100
,
0001
0000
1000
0000
,
0010
0000
1000
0000
,
0001
0000
0010
0000
,
0100
0000
1000
0000
,
0001
0100
0001
0000
,
1000
0100
1000
0000
,
0001
0010
0001
1000
,
0010
1000
0001
0000
,
1000
0000
0100
0000
,
0010
0000
0001
0000
,
1000
0000
0010
0000
,
1000
0000
0001
0010
,
0100
0000
1000
0000
,
0001
0000
0100
0000
,
0010
0000
1000
0000
,
0001
0000
1000
0010
,
2000
0000
0000
0000
,
3001
0000
0010
0100
,
0000
1000
0000
0001
,
0000
1000
0010
1000
,
0000
0001
0000
0100
,
0000
0010
1000
0001
,
0000
1000
0000
0100
,
0000
0010
0001
0010
,
0000
0001
0000
1000
,
0000
0010
0100
0001
,
0000
1000
0000
0001
,
0000
0010
0100
1000
,
0000
0100
0000
1000
,
0000
0001
0100
0010
,
0000
1000
0000
0100
,
0000
1000
0001
0010
,
0001
0000
0010
0000
,
0100
0000
1000
0000
,
0001
0000
0100
0000
,
0010
0000
0100
0000
,
0001
0000
1000
0000
,
0100
0000
0010
0000
,
0001
0000
1000
0000
,
0001
0000
0100
0000
;

//---------------dance-single - Condor Talon----------------
#NOTES:
     dance-single:
     CondorTalon:
     Beginner:
     1:
     0.080,0.111,0.000,0.000,0.000: // measure 1
0000
0000
0000
0000
,  // measure 2
0000
0000
0000
0000
,  // measure 3
0000
0000
0000
0000
,  // measure 4
0000
0000
0000
0000
,  // measure 5
0001
0000
0000
0010
,  // measure 6
0000
0000
0001
0000
,  // measure 7
0001
0000
0000
0100
,  // measure 8
0000
0000
0010
0000
,  // measure 9
0010
0000
0000
1000
,  // measure 10
0000
0000
0001
0000
,  // measure 11
0001
0000
0000
1000
,  // measure 12
0000
0000
0010
0000
,  // measure 13
0010
0000
0000
0000
,  // measure 14
0100
0000
0000
0000
,  // measure 15
0010
0000
0000
0000
,  // measure 16
1000
0000
0000
0000
,  // measure 17
0100
0000
0000
0000
,  // measure 18
1000
0000
0000
0000
,  // measure 19
0001
0000
0000
0000
,  // measure 20
0100
0000
0000
0000
,  // measure 21
0010
0000
0000
0000
,  // measure 22
1000
0000
0000
0000
,  // measure 23
0001
0000
0000
0000
,  // measure 24
0010
0000
0000
0000
,  // measure 25
0100
0000
0000
0000
,  // measure 26
1000
0000
0000
0000
,  // measure 27
0001
0000
0000
0000
,  // measure 28
0100
0000
0000
0000
,  // measure 29
0010
0000
0000
0000
,  // measure 30
0000
0000
0000
0000
,  // measure 31
0000
0000
0000
0000
,  // measure 32
0000
0000
0000
0000
,  // measure 33
0001
0000
0000
0010
,  // measure 34
0000
0000
0100
0000
,  // measure 35
0100
0000
0000
1000
,  // measure 36
0000
0000
0001
0000
,  // measure 37
0001
0000
0000
0000
,  // measure 38
1000
0000
0000
0000
,  // measure 39
0010
0000
0000
0000
,  // measure 40
0100
0000
0000
0000
,  // measure 41
0001
0000
0000
0000
,  // measure 42
0010
0000
0000
0000
,  // measure 43
0100
0000
0000
0000
,  // measure 44
1000
0000
0000
0000
,  // measure 45
0100
0000
0000
0000
,  // measure 46
1000
0000
0000
0000
,  // measure 47
0001
0000
0000
0000
,  // measure 48
0100
0000
0000
0000
,  // measure 49
0010
0000
0000
0000
,  // measure 50
1000
0000
0000
0000
,  // measure 51
0001
0000
0000
0000
,  // measure 52
0010
0000
0000
0000
,  // measure 53
0100
0000
0000
0000
,  // measure 54
1000
0000
0000
0000
,  // measure 55
0100
0000
0000
0000
,  // measure 56
1000
0000
0000
0000
,  // measure 57
0001
0000
0000
0000
,  // measure 58
0100
0000
0000
0000
,  // measure 59
0010
0000
0000
0000
,  // measure 60
1000
0000
0000
0000
,  // measure 61
0001
0000
0000
0000
,  // measure 62
0010
0000
0000
0000
,  // measure 63
0100
0000
0000
0000
,  // measure 64
1000
0000
0000
0000
,  // measure 65
0100
0000
0000
0000
,  // measure 66
0010
0000
0000
0000
,  // measure 67
0001
0000
0000
0000
,  // measure 68
1000
0000
0000
0000
,  // measure 69
0001
0000
0000
0000
,  // measure 70
0100
0000
0000
0000
,  // measure 71
0010
0000
0000
0000
,  // measure 72
1000
0000
0000
0000
,  // measure 73
0001
0000
0000
0000
,  // measure 74
1000
0000
0000
0000
,  // measure 75
0100
0000
0000
0000
,  // measure 76
0010
0000
0000
0000
,  // measure 77
0001
0000
0000
0000
,  // measure 78
0010
0000
0000
0000
,  // measure 79
0100
0000
0000
0000
,  // measure 80
1000
0000
0000
0000
,  // measure 81
0001
0000
0000
0000
,  // measure 82
0100
0000
0000
0000
,  // measure 83
0001
0000
0000
0000
,  // measure 84
1000
0000
0000
0000
;
