#TITLE:春擬き;
#SUBTITLE:やはり俺の青春ラブコメはまちがっている. 続;
#ARTIST:やなぎなぎ;
#TITLETRANSLIT:Harumodoki;
#SUBTITLETRANSLIT:Yahari Ore no Seishun Lovecome wa Machigatte Iru. Zoku;
#ARTISTTRANSLIT:Yanagi Nagi;
#GENRE:Anime;
#CREDIT:Huzure & Itsugo;
#BANNER:Yukino-bn.png;
#BACKGROUND:Yukino-bg.png;
#JACKET:Yukino-Jacket.png;
#LYRICSPATH:Harumodoki.lrc;
#CDTITLE:Collab.png;
#MUSIC:Harumodoki.mp3;
#OFFSET:-0.856;
#SAMPLESTART:60.080;
#SAMPLELENGTH:23.650;
#SELECTABLE:YES;
#LISTSORT:;
#BPMS:0.000=174.000;
#STOPS:;
#TICKCOUNT:0.000=6;
#BGCHANGES:-3.250=Oregairu 2 OP.avi=1.000=1=0=0,
256.500=Yukino-bg.png=1.000=1=0=0,
99999=-nosongbg-=1.000=0=0=0 // don't automatically add -songbackground-
;
#KEYSOUNDS:;
#ATTACKS:;

//---------------dance-single - Huzure----------------
#NOTES:
     dance-single:
     Huzure:
     Challenge:
     11:
     0.871,1.000,0.522,0.300,0.577: // measure 1
0000
0000
0000
0000
,  // measure 2
0000
0000
0000
0000
,  // measure 3
0000
0000
0000
0000
,  // measure 4
0000
0000
0000
0000
,  // measure 5
0000
0000
0000
0000
0000
0000
0000
1000
0001
0100
0001
0100
0001
0100
0002
0000
,  // measure 6
0000
0000
1003
0100
1000
0001
0010
0100
1000
0010
1000
0010
0100
0010
0100
0010
,  // measure 7
1000
0001
1000
0001
0100
0001
0100
0001
1000
0001
1000
0000
0001
0000
2001
0000
,  // measure 8
0000
0000
3001
0100
0001
1000
0100
1000
0010
0100
0010
0100
0001
1000
0001
1000
,  // measure 9
0001
0010
0001
0010
0100
1000
0100
1000
0010
1000
0010
0000
1000
0000
1002
0000
,  // measure 10
0000
0000
0013
0001
0010
0100
1000
0001
0100
0010
0100
0010
1000
0001
1000
0001
,  // measure 11
0010
0001
0010
0001
1000
0100
1000
0100
0010
0001
0010
0100
1000
0001
2000
0000
,  // measure 12
0000
3010
1000
0000
0010
0000
1000
0000
,  // measure 13
0100
0000
1000
0100
1000
0000
0100
0001
0100
0000
1100
0000
0000
0000
0110
0000
,  // measure 14
0000
0000
0010
0000
0001
0000
0000
0000
1000
0100
1000
0001
0000
0001
1000
0000
,  // measure 15
0000
0001
0100
0000
0100
0000
0000
0000
0110
0000
0110
0000
0000
0000
0200
0000
,  // measure 16
0000
0310
0100
0001
0100
1000
0100
0001
,  // measure 17
0000
1000
0101
0000
1010
1010
0000
0020
,  // measure 18
0000
0000
0031
0000
0010
0000
0000
0000
1000
0001
0100
0010
0000
0010
0100
0000
,  // measure 19
0000
0001
1000
0000
1000
0000
0000
1000
0001
0000
0100
0000
0000
0000
0101
0000
,  // measure 20
0000
0000
0000
0000
,  // measure 21
0000
0000
0000
0000
0000
0000
1000
0010
1000
0000
0010
0000
0000
0000
0110
0000
,  // measure 22
0000
0100
0001
1000
0010
0001
0010
0100
,  // measure 23
0010
1000
0002
0000
1000
0100
1003
1010
,  // measure 24
0000
0000
1000
0000
0100
0000
0010
0000
1000
0000
0010
0000
0001
0000
0010
0100
,  // measure 25
1000
0010
0100
0001
1001
1001
0100
0210
,  // measure 26
0000
0301
0100
0010
0001
1000
0100
0010
,  // measure 27
1000
0010
0001
0010
0200
0010
0300
0110
,  // measure 28
0000
0000
0100
0000
0001
0000
0010
0000
0001
0000
0100
0000
0010
0000
1000
0100
,  // measure 29
0010
0000
0000
0001
0000
0000
1001
0000
0000
0000
0000
0000
1000
0000
0100
0000
1000
0000
0010
0000
0100
0000
0010
0000
,  // measure 30
1010
0000
0010
0010
1001
0000
1000
1000
,  // measure 31
0100
0000
2000
0000
0000
0000
3010
0100
0020
0000
0000
0000
1030
0000
0001
0000
,  // measure 32
0002
0000
1003
0100
0010
0000
0001
0001
,  // measure 33
0010
0100
1000
0100
0110
0100
1100
1000
,  // measure 34
1001
0001
0100
0010
1020
0000
1000
0130
,  // measure 35
0000
0101
0000
0100
0001
0000
1000
0001
,  // measure 36
1000
0000
0001
0010
0100
0010
0001
0001
,  // measure 37
1000
0100
0000
0100
0011
0000
0110
0000
,  // measure 38
1001
0000
1100
0000
0100
0100
1000
0200
,  // measure 39
0000
0010
1000
0000
0010
1000
1300
0000
,  // measure 40
0110
0000
0001
0010
0100
1000
0010
0100
0001
1000
0001
1000
0010
0100
0001
1000
,  // measure 41
0001
1000
0100
0010
0001
0010
0001
0010
0100
0010
0001
0010
0100
1000
0001
1000
,  // measure 42
0100
0010
0001
1000
0010
1000
0001
0010
0100
1000
0100
0000
0100
0000
1001
0000
,  // measure 43
0000
0000
0000
0000
0000
0000
0000
0000
0000
0000
0001
0010
0100
0000
0000
0000
,  // measure 44
1001
1000
1001
0001
1001
0100
1001
0100
,  // measure 45
1001
0010
1002
0000
0100
0010
1003
0000
,  // measure 46
0001
0000
1000
0000
0100
0010
0001
0000
0010
0000
1000
0000
0010
0000
0001
0000
,  // measure 47
0020
0000
0100
0000
0001
0000
0130
1000
0100
0010
0001
0000
0100
0000
0000
0000
,  // measure 48
0110
0000
0100
0000
0001
0001
1100
0012
,  // measure 49
0000
1000
1003
0000
0010
1000
0010
0000
,  // measure 50
0110
0000
0100
0000
1001
0000
0000
0000
0001
0100
0001
0010
0100
1000
0010
0000
,  // measure 51
0000
0000
0100
0000
0010
0000
0110
0000
0000
0000
0010
0000
1000
0001
1000
0001
,  // measure 52
2000
0100
3200
0001
2300
0001
3002
0100
,  // measure 53
0203
1000
0302
0010
0023
0100
0230
1000
,  // measure 54
1300
0000
1100
0100
0110
0010
0011
0001
,  // measure 55
0100
1000
0100
0010
0000
0100
0002
0000
,  // measure 56
0013
0001
0010
0100
0001
0100
1000
0010
,  // measure 57
0001
0000
0010
0000
1000
0000
0100
1000
0001
0000
0000
0000
1001
0000
0000
0000
,  // measure 58
1000
0000
0100
1000
0100
0000
0001
0000
0100
1000
0000
0100
1000
0000
0001
0000
,  // measure 59
0000
0000
1000
0001
0100
0010
1000
0100
0010
0001
0010
0001
1000
0100
1000
0100
,  // measure 60
0010
0001
1000
0100
1000
0001
0100
0010
,  // measure 61
0100
0001
0010
0001
0100
0010
1000
0000
,  // measure 62
1001
0000
0001
0000
0100
0000
0010
0000
0100
0001
0100
0010
1000
0010
0200
0000
,  // measure 63
0000
0000
0000
0000
,  // measure 64
0000
0000
0000
0000
,  // measure 65
0000
0300
0000
0000
0000
0000
0000
0000
;

//---------------dance-single - Huzure----------------
#NOTES:
     dance-single:
     Huzure:
     Easy:
     7:
     0.536,0.534,0.233,0.200,0.000:
0000
0000
0000
0000
,
0000
0000
0000
0000
,
0000
0000
0000
0000
,
0000
0000
0000
0000
,
0000
0000
0000
0000
0000
0000
0000
1001
,
0000
1000
0001
0100
0010
0100
0001
0020
,
0100
0000
1000
0000
0100
0000
0031
0011
,
0000
0010
0001
1000
0010
0100
0001
0200
,
1000
0000
0001
0000
0010
0000
0301
1001
,
0000
1000
0100
0010
0001
0010
0100
2000
,
0001
0000
0100
0000
0010
0000
3100
1100
,
0000
0100
1000
0000
0001
0000
1000
0000
,
0100
0000
1000
0000
0001
1000
0000
1100
,
0000
0100
0010
0000
0010
0001
0000
1000
,
0000
0010
1000
0000
0010
0100
0000
0001
,
0000
0010
0001
0000
0100
0100
0000
0010
,
0000
1000
0001
0000
0010
0010
0000
0100
,
0000
1000
0100
0000
1000
0001
0000
0010
,
0000
0001
0100
0000
0001
0001
0000
1010
,
0000
0000
0000
0000
,
0000
0000
0000
0000
0001
0001
0000
1001
,
0000
1000
0100
0000
0010
0001
0010
0000
,
0100
1000
0001
0000
0100
0010
0000
0020
,
0000
0130
0001
0000
1000
0100
0010
0001
,
1000
0100
1000
0000
0001
1000
0000
1010
,
0000
1000
0010
0100
0001
0010
0001
1000
,
0010
0000
0110
0000
0100
0010
1000
0001
,
0000
0010
0001
0010
0001
1000
0100
1000
,
0000
0001
0100
0000
0020
0000
0100
0000
,
1030
0000
0101
1001
,
1000
0100
0000
0100
0010
0000
0001
1000
,
0200
0000
0300
0010
0001
0000
1000
0100
,
0000
1000
0001
0100
0010
0000
1001
0000
,
0110
0000
0002
0100
,
0013
0001
0000
1000
0100
0000
0000
0100
,
1000
0000
0001
0100
0001
0000
0100
0001
,
0000
1000
0000
0010
1000
0000
0110
0000
,
0101
0000
0001
0000
1000
0100
1000
0001
,
0000
1000
0100
0000
1000
0010
1000
0000
,
0002
0000
0103
2000
0000
3100
0002
0000
,
1003
1100
0000
0010
0011
0000
0001
0000
,
0100
0010
0001
0010
0100
0010
1000
0001
,
0000
0000
0000
0000
,
1001
0001
0001
1000
,
1000
0000
0001
0000
0100
0010
1000
0000
,
0001
0000
0100
0000
0010
1000
0010
0000
,
0001
0010
1000
0010
0000
1000
0100
0000
,
0110
0000
0010
0000
0001
0010
0001
0100
,
0000
0010
1000
0000
0001
0100
0001
0000
,
0200
0000
0320
0000
2030
0000
3002
1000
,
0003
1000
0001
1000
0000
0001
0200
0000
,
0301
0001
0010
0010
,
0100
0000
0100
0000
1000
0100
0010
0100
,
1000
0000
0001
0100
0010
0100
0001
1000
,
0010
0100
0000
0001
0000
0100
0010
0000
,
1000
0100
1000
0010
1000
0000
0001
0010
,
0001
0100
0001
0000
1000
0000
1100
0000
,
0110
0000
0010
0001
0000
0100
0010
1000
,
0000
0001
0010
0001
0100
0010
1000
0000
,
0001
0100
0001
0200
0000
0302
0000
1003
,
0100
1000
0001
0100
0000
0010
0100
0001
,
1000
0000
0010
1000
0010
0100
0001
2000
,
0000
0000
0000
0000
,
0000
0000
0000
0000
,
0000
3000
0000
0000
0000
0000
0000
0000
;

//---------------dance-single - Huzure----------------
#NOTES:
     dance-single:
     Huzure:
     Medium:
     8:
     0.627,0.605,0.344,0.167,0.039:
0000
0000
0000
0000
,
0000
0000
0000
0000
,
0000
0000
0000
0000
,
0000
0000
0000
0000
,
0000
0000
0000
0000
0000
1000
0010
1010
,
0000
1000
0001
0010
0001
0010
0100
0010
,
1000
0010
0100
0010
0001
1000
0010
0110
,
0000
0100
0001
1000
0100
0010
0100
1000
,
0001
1000
0010
1000
0100
0010
0010
0011
,
0000
0001
0100
0001
0010
0100
0010
0001
,
1000
0010
1000
0001
0010
0100
1000
1001
,
0000
0001
0100
0000
0001
0000
0100
0000
,
0001
0000
1000
0000
0010
1010
0000
0020
,
0000
0130
0001
1000
0100
0010
0000
0001
,
0000
0010
0001
0000
0011
0100
0000
1100
,
0000
0100
1000
0010
0100
0001
0000
1000
,
0000
0010
0100
0000
0101
0001
0000
1100
,
0000
1000
0001
1000
0010
0100
0000
0001
,
0000
0010
0100
0000
1001
0100
0000
1001
,
0000
0000
0000
0000
,
0000
0000
0000
0000
1100
1100
0000
2000
,
0000
3100
0010
0001
0010
0100
1000
0001
,
0000
0100
0010
0000
1000
1000
0001
2000
,
0000
3001
0010
0001
0010
1000
0010
0002
,
0000
0103
0001
1000
0100
0200
0000
1300
,
0000
0010
0001
1000
0100
0001
0010
0200
,
0000
1300
0100
0000
0100
0001
0000
0101
,
0000
0001
0100
1000
0001
0010
0100
1000
,
0000
0000
0000
1000
0000
0000
0001
0000
0000
0000
0000
0000
0010
0000
0001
0000
0010
0000
0100
0000
1000
0000
0100
0000
,
2000
0000
0001
0001
3001
0000
1000
0001
,
0010
0200
0000
1300
0100
0000
0010
1000
,
0020
0000
0000
0001
0031
0000
1000
1000
,
0001
0010
0100
1000
0001
0100
0010
1000
,
0001
0000
0100
0001
0200
0000
0010
0010
,
0300
0110
0000
0010
1000
0000
0001
1000
,
0100
0000
0010
0001
1000
0000
0010
0100
,
0000
1100
0000
0100
0001
0000
1001
0000
,
1100
0000
0011
0000
0001
0100
0010
0100
,
0000
0001
1000
0000
0100
1000
0100
0000
,
0010
0001
0001
0100
0001
0001
1000
0010
,
0010
1000
0100
0100
0110
0000
1001
0000
,
0001
0010
0100
0001
0100
1000
0100
0101
,
0000
0000
0000
0000
0000
0000
0000
0000
0000
0000
1000
0001
1000
0000
0000
0000
,
2001
0100
0010
0100
,
3001
1000
0100
0000
0100
0010
0001
0000
,
1000
0010
0001
0010
0100
0010
1000
0000
,
0001
0010
0100
1000
0001
1000
0100
0010
,
0011
0000
0110
0000
0100
0100
1000
0001
,
0000
0100
0010
0000
1000
0001
1000
0000
,
1100
0000
0101
0000
0001
0100
0010
1000
,
0000
0010
0100
0100
0000
0001
0200
0000
,
0310
0100
1000
0100
0001
0100
0010
1000
,
0100
0010
0001
0010
0100
0010
1000
0010
,
0001
1100
0101
0110
,
1000
0010
0001
0010
0000
1000
0200
0000
,
0310
0001
1000
0100
0010
0000
0001
1000
,
0100
0010
0001
1000
0010
0000
0110
0000
,
0100
0000
0010
0000
1000
0000
0001
0000
1000
0001
0000
0001
1000
0000
0002
0000
,
0000
0010
0010
0010
,
1003
0001
1000
0010
0100
0001
0100
0010
,
1000
0010
0001
0010
0100
0010
1000
0000
,
0001
0100
0010
1000
0100
0010
0001
0200
,
0000
0000
0000
0000
,
0000
0000
0000
0000
,
0000
0300
0000
0000
0000
0000
0000
0000
;

//---------------dance-single - Huzure----------------
#NOTES:
     dance-single:
     Huzure:
     Beginner:
     4:
     0.344,0.463,0.067,0.211,0.000:
0000
0000
0000
0000
,
0000
0000
0000
0000
,
0000
0000
0000
0000
,
0000
0000
0000
0000
,
0000
0000
0000
0000
0000
0000
0000
2000
,
0000
0000
3100
0000
,
1000
0000
0000
0000
0001
0000
0010
0002
,
0000
0000
1003
0000
,
0100
0000
0000
0000
1000
0000
0001
0200
,
0000
0000
0310
0000
,
0100
0000
0000
0000
0001
0000
1000
0200
,
0000
0300
0000
0000
,
0000
0000
0000
0000
0000
0000
0000
0110
,
0000
0000
0010
0000
0000
0000
0000
0010
,
0000
0001
0010
0000
0010
0001
0000
1000
,
0000
0000
0100
0000
0000
0000
0000
1000
,
0000
0001
1000
0000
0010
1000
0000
0001
,
0000
0000
0100
0000
0000
0000
0000
0010
,
0000
0100
0001
0000
1000
0100
0000
1100
,
0000
0000
0000
0000
,
0000
0000
0000
0000
0000
0000
0000
2000
,
0000
3001
0100
0001
,
1000
0000
0100
0000
0010
0001
0000
0002
,
0000
0103
0010
1000
,
0100
0000
1000
0000
0001
1000
0000
2000
,
0000
3001
1000
0010
,
0100
0000
0001
0000
1000
0010
0000
0020
,
0000
0000
0130
0000
0010
0000
1000
0001
,
0000
0010
0100
0000
2000
0000
3200
0000
,
0310
0000
0110
0000
,
0000
0010
0000
0001
0010
0000
0000
0000
,
0100
0000
0000
0000
0110
0000
0100
1000
,
0000
0020
0000
0000
0130
0000
0001
0000
,
1000
0000
0001
0000
,
0000
1000
0000
0100
1000
0000
0001
0000
,
0100
0000
0000
0000
0110
0000
0010
1000
,
0000
0001
0010
0100
,
1001
1000
1000
1000
,
0000
0001
0001
0001
,
1000
0000
0000
0100
0000
0000
0010
0000
,
0000
0001
0000
0000
2000
0000
3001
0000
,
0100
0000
0010
0000
0100
0000
0001
1000
,
0000
0000
0000
0000
,
0001
1000
0100
1000
,
0010
0100
0001
0010
,
0100
1000
0001
0100
,
0010
1000
0100
1000
,
0001
0000
0100
0000
0010
0000
0100
0001
,
0000
1000
0010
0000
0100
0000
0001
0000
,
2000
0000
3200
0000
0320
0000
0032
0010
,
0003
0010
0001
0010
0000
0100
2000
0000
,
3001
0001
1000
1000
,
0010
0010
0100
0100
,
0001
1000
0100
0010
,
0001
1000
0010
0100
,
0001
0001
1000
0100
,
0100
1000
0010
0100
,
0001
0000
1000
0100
0000
1000
0001
2000
,
0000
0000
0000
0000
,
3001
0100
0010
0100
,
0001
0010
0100
1000
,
0100
0000
0010
0000
0001
0000
1000
0200
,
0000
0000
0000
0000
,
0000
0000
0000
0000
,
0000
0300
0000
0000
0000
0000
0000
0000
;

//---------------dance-single - Itsugo15----------------
#NOTES:
     dance-single:
     Itsugo15:
     Hard:
     9:
     0.652,0.636,0.866,0.300,0.000:
0000
0000
0000
0000
,
0000
0000
0000
0000
,
0000
0000
0000
0000
,
0000
0000
0000
0000
,
0000
0000
0000
0000
0000
0000
0000
1001
,
0000
0001
0100
1000
0100
0010
1000
0100
,
0001
0100
0010
0001
2000
0100
3100
1100
,
0000
1000
0001
0100
1000
0001
0010
0100
,
1000
0100
0010
1000
0002
0010
0013
0011
,
0000
0001
0010
1000
0001
0100
1000
0001
,
0010
0100
1000
0100
0010
0001
1000
1001
,
0000
0001
1000
0000
1000
0000
0001
0000
,
0200
0000
0000
0000
0000
0000
0020
0000
0330
0000
0000
0000
0110
0000
0000
0110
0000
0000
0000
0000
0000
1010
0000
0000
,
0000
0000
1000
0000
0001
1000
0000
1010
,
0000
0101
0001
0000
2000
3002
0003
1001
,
0000
0001
0010
0000
0100
0110
0000
0110
,
0000
0010
0011
0000
1100
1001
0000
0101
,
0000
0100
0010
0000
1000
0001
0000
2001
,
3000
0001
0011
0000
0100
1000
0000
1100
,
0000
M000
0M00
00M0
000M
M000
0000
00M0
,
0000
0M00
000M
M000
1001
1001
0000
0110
,
0000
0010
1000
0001
1000
0010
0100
0001
,
0100
0010
1000
0001
0010
0010
0000
0011
,
0000
0010
0001
0010
1000
0010
0001
0010
,
0100
1000
0001
0100
0010
0010
0000
0110
,
0000
0100
0001
0010
0001
0100
0010
1000
,
0100
1000
0010
0100
0002
2003
3000
1001
,
0000
1000
0001
1000
0100
0010
0001
0010
,
0200
0000
1300
0001
0400
0000
0010
0300
,
0110
0000
0010
0100
0110
0000
1000
1000
,
0000
0001
0001
0000
1001
0000
0001
1000
,
1001
0000
1000
0001
1001
0000
0010
0010
,
0000
0100
0100
0000
1000
0100
0010
0001
,
0011
0000
0001
0010
0011
0000
0001
1001
,
0000
1000
1001
0000
1010
0000
0010
1000
,
1010
0000
1000
0010
1010
0000
1000
1000
,
0000
0001
0001
0000
1001
0000
0110
0000
,
1001
0000
0101
0000
0100
0100
0010
0110
,
0000
0010
1010
0000
1001
0000
0011
0000
,
0220
0000
0030
2000
0000
0300
0002
0000
,
3000
0200
0000
0003
0020
0300
2000
0030
,
3001
0010
0100
2000
0000
3100
0010
0002
,
0000
0000
0000
0000
0000
1003
0001
0000
,
1001
0000
0101
0000
0100
0010
1000
0000
,
1010
0000
1001
0000
0001
0010
0100
0000
,
0100
0010
0001
0000
0100
0010
1000
0000
,
0001
0010
0100
2000
0000
3100
0010
0001
,
0011
0000
0001
0000
1000
0010
0000
1010
,
0000
1000
0001
0000
0100
0001
0100
0000
,
0010
1000
0010
0000
0100
0001
1000
1001
,
0000
1100
0000
1001
0000
0001
0400
0000
,
0310
1010
1001
1010
,
0001
0101
1001
0101
,
1000
1100
0110
1100
,
0001
0011
0110
0011
,
1000
0100
1000
0100
0010
0000
0100
0010
,
0100
0010
0001
0000
1000
0000
0010
0000
,
2010
0000
0001
3002
0000
0010
0003
0021
,
0000
1000
0100
0031
,
0011
0101
1010
1100
,
1001
0110
1001
0110
,
0001
0000
0000
0000
0010
0000
0100
0000
0000
0000
4000
0000
0000
3000
1100
0000
,
0000
1000
0010
0200
,
0000
0000
0000
0000
0000
0300
0000
0000
;
