#TITLE:ハレルヤ;
#SUBTITLE:空戦魔導士候補生の教官;
#ARTIST:la la larks;
#TITLETRANSLIT:Hallelujah;
#SUBTITLETRANSLIT:Kuusen Madoushi Kouhosei no Kyoukan;
#ARTISTTRANSLIT:La La Larks;
#GENRE:Otaku's Dream 4th Mix (Pad);
#CREDIT:Itsugo15;
#BANNER:Hallelujah-bn.png;
#BACKGROUND:Hallelujah-bg.png;
#JACKET:Hallelujah-Jacket.png;
#LYRICSPATH:Hallelujah.lrc;
#CDTITLE:Itsugo15 SimifileS.png;
#MUSIC:Hallelujah.mp3;
#OFFSET:-0.113;
#SAMPLESTART:46.120;
#SAMPLELENGTH:30.000;
#SELECTABLE:YES;
#LISTSORT:;
#BPMS:0.000=124.000;
#STOPS:;
#TICKCOUNT:0.000=6;
#BGCHANGES:-0.245=Hallelujah.avi=1.000=1=1=0,
183.000=Hallelujah-bg.png=1.000=1=1=0,
99999=-nosongbg-=1.000=0=0=0 // don't automatically add -songbackground-
;
#KEYSOUNDS:;
#ATTACKS:;

//---------------dance-single - Itsugo15----------------
#NOTES:
     dance-single:
     Itsugo15:
     Challenge:
     9:
     0.586,0.634,0.526,0.503,0.229: // measure 1
0000
0000
0000
0000
,  // measure 2
0000
0000
0000
0000
,  // measure 3
0000
0000
0000
0000
,  // measure 4
1000
0000
0000
0010
0000
0000
0100
0000
0001
0000
0000
1000
0000
0000
0001
0000
,  // measure 5
0010
0100
0010
0001
1000
0010
0100
0001
,  // measure 6
0101
0000
0000
0100
0001
0000
0010
0000
0100
0000
1000
0000
0100
0000
0010
0000
,  // measure 7
0110
0000
0000
0100
1000
0000
0001
0000
0100
0000
0000
0010
1000
0000
0001
0000
,  // measure 8
1001
0000
0000
0000
0001
0000
0010
0000
0100
0000
1000
0000
0100
0010
0001
0000
,  // measure 9
0011
0000
0000
0000
1000
0000
0010
0000
0100
0000
0001
0000
0100
0010
1000
0000
,  // measure 10
1010
0000
0000
0000
1000
0010
1000
0000
0001
0000
0000
0000
0001
0010
0001
0000
,  // measure 11
1000
0000
0001
0010
0100
0000
2000
0000
0000
0000
0001
0000
0010
0000
3001
0000
,  // measure 12
1001
0000
0001
0000
0100
0000
0010
0000
1000
0001
0000
0001
1000
0000
0100
0000
,  // measure 13
0001
0000
0100
0000
0010
0000
0001
0000
1000
0010
0000
0100
0001
0000
1000
0000
,  // measure 14
1001
0000
0001
0000
0010
0000
0100
0000
1000
0100
0000
0100
1000
0000
0010
0000
,  // measure 15
0001
0000
0010
0000
0100
0000
0001
0000
1000
0100
0000
0010
0001
0000
1000
0000
,  // measure 16
1001
0001
0100
1000
0002
0013
1000
0002
,  // measure 17
0013
1000
0002
0103
2000
0000
3001
0100
,  // measure 18
0010
0000
1000
0000
0100
0000
0010
0000
0001
1000
0000
1000
0010
0000
0100
0000
,  // measure 19
0010
0000
0110
0000
0110
0000
0100
0000
0100
0001
0000
0001
1000
0000
1000
0100
,  // measure 20
0020
0000
0001
0000
0100
0000
1030
0020
,  // measure 21
0000
0032
0000
2003
0000
0010
0000
3001
,  // measure 22
0200
0000
0000
0000
0000
0000
0000
0310
,  // measure 23
2000
0000
0200
0000
,  // measure 24
0020
0000
0000
0000
0002
0000
3333
0001
,  // measure 25
0011
0000
0000
1001
0000
0000
1010
0000
0010
0000
0100
0001
0000
0000
1000
0000
,  // measure 26
1001
0000
0000
1100
0000
0000
0101
0000
0100
0000
0010
1000
0000
0000
0001
0000
,  // measure 27
1001
0000
0000
0110
0000
0000
1001
0000
0000
0000
0002
0000
0000
0000
0013
0000
,  // measure 28
0100
0000
2000
0000
0000
3000
0001
0000
0100
0000
0010
1000
0002
0000
0010
0000
,  // measure 29
2003
0010
0010
0001
3001
1001
0011
1010
,  // measure 30
0000
0202
0303
2200
3300
0220
0000
0002
,  // measure 31
2000
0000
0000
0000
3333
0001
0100
0010
,  // measure 32
0110
1000
1010
0001
0101
1000
1100
0001
,  // measure 33
1001
0000
0000
0101
0000
0000
0011
0000
1010
0000
0000
0011
0000
0000
1001
0000
,  // measure 34
2200
0000
3300
0000
1000
0000
0001
0000
0100
0000
0010
1000
0000
0000
0001
0000
,  // measure 35
1001
0000
0000
0011
0000
0000
1100
0000
1000
0000
0100
0010
0000
0000
0001
0000
,  // measure 36
0010
0000
0100
1000
0000
0002
0000
0200
0003
0000
0310
0000
1000
0000
0001
0000
,  // measure 37
1002
1000
0100
0100
0013
1000
0010
0001
,  // measure 38
0012
0010
1000
0103
0201
0001
1000
0310
,  // measure 39
0120
0100
0001
0001
1000
1000
0100
0130
,  // measure 40
0110
0000
1010
0000
1010
0000
0010
1000
0001
0010
0000
0010
0100
0000
0100
1000
,  // measure 41
0002
0203
2300
3020
,  // measure 42
0032
0000
2003
0000
3010
0100
0001
0202
,  // measure 43
0000
0000
0000
2000
,  // measure 44
3020
0000
0000
2000
0000
0000
0000
0000
,  // measure 45
0000
0000
0000
0000
,  // measure 46
0000
0000
0000
3333
0000
0000
0000
0000
;

//---------------dance-single - Itsugo15----------------
#NOTES:
     dance-single:
     Itsugo15:
     Beginner:
     1:
     0.074,0.126,0.000,0.011,0.000:
0000
0000
0000
0000
,
0000
0000
0000
0000
,
0000
0000
0000
0000
,
0001
0000
0000
0000
,
0001
0000
0000
0000
,
1000
0000
0000
0000
,
1000
0000
0000
0000
,
0010
0000
0000
0000
,
0010
0000
0000
0000
,
0100
0000
0000
0000
,
0100
0000
0000
0000
,
0001
0000
0000
0000
,
0010
0000
0000
0000
,
0100
0000
0000
0000
,
1000
0000
0000
0000
,
0001
0000
0000
0000
,
0100
0000
0000
0000
,
0010
0000
0000
0000
,
1000
0000
0000
0000
,
0001
0000
0000
0000
,
0010
0000
0000
0000
,
0100
0000
0000
0000
,
1000
0000
0001
0000
,
0100
0000
0010
0000
,
1000
0000
0000
0000
,
1000
0000
0000
0000
,
0010
0000
0000
0000
,
0010
0000
0000
0000
,
0100
0000
0000
0000
,
0100
0000
0000
0000
,
0001
0000
0000
0000
,
0001
0000
1000
0000
,
0100
0000
0000
0000
,
0100
0000
0000
0000
,
0010
0000
0000
0000
,
0010
0000
0000
0000
,
0001
0000
0000
0000
,
0001
0000
0000
0000
,
1000
0000
0000
0000
,
1000
0000
0010
0000
,
0100
0000
0000
0000
,
0100
0000
0000
0000
0000
0000
0001
2000
,
0000
0000
0000
0000
,
0000
0000
0000
0000
,
0000
0000
0000
0000
,
3000
0000
0000
0000
;

//---------------dance-single - Itsugo15----------------
#NOTES:
     dance-single:
     Itsugo15:
     Easy:
     3:
     0.145,0.252,0.022,0.145,0.000:
0000
0000
0000
0000
,
0000
0000
0000
0000
,
0000
0000
0000
0000
,
0001
0000
0000
0000
,
0001
0000
0000
0000
,
0100
0000
0000
0000
,
0100
0000
0000
0000
,
0010
0000
0000
0000
,
0010
0000
0000
0000
,
1000
0000
0000
0000
,
1000
0000
0000
0001
0000
0000
0000
0000
,
0010
0000
0010
0000
,
0100
0000
0100
0000
,
1000
0000
1000
0000
,
0001
0000
0001
0000
,
0100
0000
0010
0000
,
1000
0000
0001
0000
,
0010
0000
0100
0000
,
1000
0000
0100
0000
,
0020
0000
0001
0000
,
0032
0000
1000
0000
,
2003
0000
0010
0000
,
3020
0000
0230
0000
,
0302
0000
0000
0000
2003
0000
0000
3000
,
1001
0000
0001
0000
,
0010
0000
0100
0000
,
1000
0000
1000
0000
,
0100
0000
0010
0000
,
0002
0000
0013
0000
,
0100
0000
1000
0000
,
0002
0000
0103
0000
,
0010
1000
0001
0010
,
0011
0000
0001
0000
,
0100
0000
0010
0000
,
1000
0000
0001
0000
,
0010
0000
0100
0000
,
2000
0000
3100
0000
,
0010
0000
0001
0000
,
0200
0000
0310
0000
,
1000
0000
0001
0000
,
0010
0000
0010
0000
,
0100
0000
0000
0000
0100
0000
1000
0002
,
0000
0000
0000
0000
,
0203
0000
0000
0000
,
0000
0000
0000
0000
,
0300
0000
0000
0000
;

//---------------dance-single - Itsugo15----------------
#NOTES:
     dance-single:
     Itsugo15:
     Medium:
     6:
     0.286,0.378,0.112,0.201,0.006:
0000
0000
0000
0000
,
0000
0000
0000
0000
,
0000
0000
0000
0000
,
0001
0000
1000
0000
,
0010
0000
1000
0000
,
0001
0000
0010
0000
,
0100
0000
0010
0000
,
0001
0000
0100
0000
,
0010
0000
1000
0000
,
0001
0000
0010
0000
,
0100
0000
1000
0001
0000
0000
0000
0000
,
1000
0000
0010
0000
0100
0010
0100
0000
,
0001
0000
1000
0000
0100
1000
0100
0000
,
0010
0000
0001
0000
0100
0001
0100
0000
,
0010
0000
1000
0000
0001
1000
0001
0000
,
0010
0200
1000
1300
,
0001
0200
0010
0310
,
0100
0000
0001
0000
1000
0100
1000
0000
,
1000
0001
0100
0010
,
0110
0100
0100
0100
,
0101
0001
0001
0001
,
1001
1000
1000
1000
,
0002
0000
0023
0000
,
0230
0000
0000
0000
2300
0000
0000
3000
,
1100
0000
1000
0000
0001
1000
0001
0000
,
0100
0000
0010
0000
1000
0010
1000
0000
,
0001
0011
1000
1100
,
0001
0000
0100
0000
0010
1000
0001
0000
,
0020
0100
1000
0230
,
1300
0001
0100
0010
,
0210
0001
0310
1000
,
0200
0000
0320
0000
0032
0000
0100
0003
,
0101
0000
0000
0000
0002
0000
0000
0000
1000
0000
0000
1000
0000
0000
1003
0000
,
0001
0010
0100
1000
,
0100
0100
0010
0001
,
0100
0010
1000
0001
,
1001
1000
1000
0001
,
0010
0100
1000
0001
,
0200
0010
1000
0010
,
0301
0100
0010
1000
,
1010
1000
0001
0001
,
0010
0000
0100
0000
1000
0100
1000
0002
,
0000
0000
0000
0203
,
0320
0000
0000
2030
0000
0000
0000
0000
,
0000
0000
0000
0000
,
3000
0000
0000
0000
;

//---------------dance-single - Itsugo15----------------
#NOTES:
     dance-single:
     Itsugo15:
     Hard:
     8:
     0.503,0.529,0.369,0.336,0.218:
0000
0000
0000
0000
,
0000
0000
0000
0000
,
0000
0000
0000
0000
,
1010
0000
0000
0010
0000
0000
0100
0000
0001
0000
0000
1000
0000
0000
1001
0000
,
0000
1100
0000
0101
0000
0100
0010
1000
,
0002
0000
0013
0000
0001
0010
0001
2000
,
0000
0000
3010
0000
0000
0100
0000
0000
0001
0000
0000
0100
0000
0000
0010
0000
,
1000
0000
0001
0020
0000
0130
1000
0002
,
0000
1003
0001
0200
0000
0310
1000
0001
,
0010
0000
0000
0010
0001
0000
1000
0000
0010
0000
0000
0100
0001
0000
1000
0000
,
0100
0000
0010
0001
1000
0000
1001
0000
0000
0000
0001
0000
1000
0000
0001
0000
,
0011
0000
0010
0000
0001
0000
0100
0000
0010
1000
0000
1000
0010
0000
1000
0000
,
0100
0000
0010
0000
0001
0000
0010
0000
0100
1000
0000
1000
0100
0000
0010
0000
,
0001
0000
1000
0000
0010
0000
0100
0000
0001
0100
0000
0100
0001
0000
1000
0000
,
0010
0000
0100
0000
0001
0000
1000
0000
0100
0010
0000
0001
1000
0000
0010
0000
,
0200
0000
0310
0100
0002
0000
1003
0200
,
0000
0310
0100
1000
0002
0000
0013
0100
,
1000
0000
0010
0000
0100
0000
0001
0000
1000
0100
0000
0010
0001
0000
0010
0000
,
0100
0000
0110
0000
0110
0000
0000
0100
1000
0000
0000
0001
0100
0000
0000
0010
,
2000
0000
3002
0000
0023
0000
0130
2000
,
0000
3002
0000
0203
0000
0320
0000
1030
,
0002
0000
0010
0000
0010
0000
1003
0010
,
0200
0000
0302
0000
,
2003
0000
0000
0000
3200
0000
0000
0300
,
1100
0000
0000
0100
0000
0000
1000
0000
0001
0000
0100
0010
0000
0000
1000
0000
,
0001
0000
0000
0010
0000
0000
0100
0000
1000
0000
0001
0100
0000
0000
0010
0000
,
1010
0000
0000
1001
0000
0000
0011
0000
0000
0000
0100
0000
0000
0000
1000
0000
,
0001
0000
0100
0000
0000
0000
0010
0000
1000
0000
0001
1000
0100
0000
1000
0010
,
0200
0001
0001
0010
0310
0001
1000
1001
,
0000
0011
0000
0110
0000
1100
0000
1001
,
0002
0000
0100
0000
0103
0001
1000
0100
,
1100
0001
0011
1000
1010
0001
0101
1000
,
1001
0000
0000
0001
0000
0000
0010
0000
0011
0000
0000
1010
0000
0000
0110
0000
,
0001
0000
0000
1000
0000
0000
0100
0000
1100
0000
0100
0010
0000
0000
0001
0000
,
1001
0000
0000
1000
0000
0000
0010
0000
0100
0000
0001
0010
0000
0000
0100
0000
,
1000
0000
0001
0010
0000
0100
0000
1000
0000
0000
0010
0000
0100
0000
0001
0000
,
0102
0100
1000
1003
0001
0100
0010
0110
,
0000
1010
0000
1100
0000
0011
0000
1000
,
0002
0100
1000
0100
,
0103
0000
0001
0000
1000
0000
0000
0010
1000
0000
0000
0001
0010
0000
0000
0100
,
1000
0001
0100
0010
,
1000
0000
0010
0000
0100
0001
1000
2200
,
0000
0000
0000
0000
0000
3000
2000
0300
,
0002
0000
3000
0200
0000
0000
0000
0000
,
0000
0000
0000
0000
,
0303
0000
0000
0000
;
