#TITLE:Flyers;
#SUBTITLE:デス・パレード;
#ARTIST:BRADIO;
#TITLETRANSLIT:Flyers;
#SUBTITLETRANSLIT:Death Parade;
#ARTISTTRANSLIT:Bradio;
#GENRE:Otaku's Dream 4th Mix (Pad);
#CREDIT:Huzure & Itsugo;
#BANNER:Flyers-bn.png;
#BACKGROUND:Flyers-bg.png;
#JACKET:Flyers-Jacket.png;
#LYRICSPATH:Flyers.lrc;
#CDTITLE:Collab.png;
#MUSIC:Flyers.mp3;
#OFFSET:-0.098;
#SAMPLESTART:41.703;
#SAMPLELENGTH:27.500;
#SELECTABLE:YES;
#LISTSORT:;
#BPMS:0.000=139.000;
#STOPS:;
#TICKCOUNT:0.000=6;
#BGCHANGES:-0.750=Death Parade OP.avi=1.000=1=0=0,
183.000=Flyers-bg.png=1.000=1=0=0,
99999=-nosongbg-=1.000=0=0=0 // don't automatically add -songbackground-
;
#KEYSOUNDS:;
#ATTACKS:;

//---------------dance-single - Huzure----------------
#NOTES:
     dance-single:
     Huzure:
     Beginner:
     1:
     0.082,0.114,0.025,0.025,0.000:
0000
0000
0000
0000
,
0000
0000
0000
0000
,
0000
0000
0000
0000
,
0000
0000
0000
0000
,
0001
0000
0000
0000
,
1000
0000
0000
0000
,
1000
0000
0000
0000
,
0020
0000
0000
0030
,
0010
0000
0000
0000
,
0100
0000
0000
0000
,
0001
0000
0000
0000
,
0100
0000
0000
0000
,
0010
0000
0000
0000
,
1000
0000
0000
0000
,
1000
0000
0000
0000
,
0010
0000
0000
0000
,
0011
0000
0000
0000
,
0010
0000
0000
0000
,
0100
0000
0000
0000
,
0001
0000
0000
0000
,
1100
0000
0000
0000
,
1000
0000
0000
0000
,
0001
0000
0000
0000
,
0100
0000
0000
0000
,
0001
0000
0000
0000
,
1000
0000
0000
0000
,
0100
0000
0000
0000
,
0100
0000
0000
0000
,
1000
0000
0000
0000
,
0010
0000
0000
0000
,
0100
0000
0000
0000
,
0001
0000
0000
0000
,
0010
0000
0000
0000
,
0010
0000
0000
0000
,
0001
0000
0000
0000
,
0100
0000
0000
0000
,
0010
0000
0000
0000
,
1000
0000
0000
0000
,
0100
0000
0000
0000
,
0010
0000
0000
0000
,
0100
0000
0000
0000
,
1000
0000
0000
0000
,
0001
0000
0000
0000
,
0010
0000
0000
0000
,
0010
0000
0000
0000
0000
0000
0000
0002
,
0000
0000
0000
0003
;

//---------------dance-single - Huzure----------------
#NOTES:
     dance-single:
     Huzure:
     Easy:
     3:
     0.243,0.313,0.062,0.224,0.000:
0000
0000
0000
0000
,
0000
0000
0000
0000
,
0000
0000
0000
0000
,
0000
0000
0000
0000
,
0001
0001
0001
0001
,
2000
0000
3200
0000
,
1300
1000
1000
1000
,
0001
1000
0200
1000
,
1300
0001
0100
0001
,
1000
0100
1000
0100
,
0010
0001
0010
0001
,
0100
0001
0200
0000
,
0301
0010
0100
0010
,
0001
1000
0001
1000
,
0100
0010
0001
0010
,
0100
1000
0010
1000
,
0002
1000
0100
0103
,
0202
0000
0000
0303
,
2020
0000
0000
3030
,
0010
0000
0010
0000
,
2000
0001
0010
3010
,
2020
0000
0000
3030
,
0202
0000
0000
0303
,
1000
0000
0001
0000
,
0011
0000
0001
0000
,
1000
0000
1000
0000
,
0010
0000
1000
0000
,
0010
0000
0100
0100
,
0100
0000
0001
0000
,
1000
0000
0100
0000
,
1000
0000
0010
0000
,
0100
0000
0001
0100
,
0001
0000
0010
0000
,
0010
0000
0100
0000
,
1000
0000
0001
0000
,
1000
0000
0010
0000
,
1000
0000
0001
0000
,
0100
0000
0010
0000
,
1000
0000
0100
0000
,
0010
0000
0001
0000
,
0001
0010
0001
0010
,
0100
1000
0100
1000
,
0001
1000
0010
0100
,
0002
0000
2003
0000
,
3002
0000
1000
0000
1000
0000
1003
0002
,
0000
0000
0000
0003
;

//---------------dance-single - Huzure----------------
#NOTES:
     dance-single:
     Huzure:
     Challenge:
     9:
     0.709,0.796,0.448,0.410,0.423:
0000
0000
0000
0000
,
0000
0000
0000
0000
,
0000
0000
0000
0000
,
0100
1000
0000
1000
0001
0000
0010
0001
0000
0001
1000
0000
1010
0000
0010
0000
,
0201
0001
0001
0301
,
2000
0000
0000
3200
0000
0000
2300
0000
3002
0000
0000
0000
0023
0000
0230
0000
,
2300
0010
0010
3010
,
1000
0001
0000
0001
0100
0000
0010
1000
0100
0010
0001
0010
0100
0010
0001
0100
,
0001
1000
0100
1000
0100
0001
0100
1000
,
0010
0000
0001
0000
1000
0100
0020
0000
0000
0000
1030
0000
0001
0100
0001
0000
,
0100
0010
0100
0000
0001
0000
0100
0000
0010
0000
0100
0000
0001
0000
0010
0000
,
1000
0010
0100
0001
0200
0000
0310
0000
,
0001
0100
0010
0100
1000
0100
0010
0100
,
0001
0010
0010
0200
0000
1300
1100
0100
,
0001
0000
0100
0000
1000
0000
0010
0000
0001
0000
0010
0000
1000
0000
0010
1000
,
0100
1000
0001
0010
0100
0010
0001
0000
,
1001
0000
1010
0000
1100
0000
0010
0001
,
0100
0000
0100
0000
0001
0010
0100
1000
0010
0000
0001
0010
1000
0100
1000
0000
,
0010
0000
0010
0000
0100
0001
0010
0100
0010
0000
1000
0010
0001
0010
0100
0000
,
1000
0001
1000
0000
0200
0000
0310
0001
0010
0001
1000
0000
0100
0000
1000
0000
,
1001
0000
0101
0000
0011
0000
0100
1000
,
0001
0000
0001
0000
0010
0100
1000
0100
0010
0000
1000
0010
0001
0100
0001
0000
,
1000
0000
1000
0000
0100
1000
0100
0010
0001
0000
0010
1000
0010
0001
0100
0000
,
0010
1000
0010
0000
2000
0000
3010
1000
0001
0100
0001
0100
0001
0100
0001
0100
,
0001
0000
1001
0000
0000
0110
0000
0000
0001
0000
1000
0000
0002
0000
1000
0000
,
0003
0000
1100
0000
0000
1010
0000
0000
0001
0000
0100
0000
0020
0000
0100
0000
,
0030
0000
1100
0000
0000
0011
0000
0000
0100
0000
1000
0000
0200
0000
0010
0000
,
0300
0001
0001
0010
0020
0000
0130
1000
,
1001
0000
0002
0000
0000
1003
0000
0000
0002
0000
0000
1003
0000
0000
0010
0000
,
0001
0010
1000
0100
0020
0000
0001
0031
,
0000
0000
1000
0000
1000
0000
0100
0000
0100
0000
0000
0110
0000
0000
0011
0000
,
0000
0000
0100
0000
1000
0000
0001
0000
1000
0001
0100
0001
0010
0001
0100
0001
,
1000
0000
1100
0000
0000
0011
0000
0000
0001
0000
0100
0000
0020
0000
1000
0000
,
0030
0000
0011
0000
0000
0101
0000
0000
1000
0000
0100
0000
2000
0000
0001
0000
,
3000
0000
1001
0000
0000
1001
0000
0000
0100
0000
0010
0000
0200
0000
0010
0000
,
0300
0001
1000
0001
2000
0000
0100
3100
,
1100
0000
2000
0000
0000
0010
3000
0000
0002
0000
0000
0100
0003
0000
0001
0000
,
0001
1000
1000
0010
0020
0000
0100
0130
,
0110
0000
0010
0000
0100
0000
0001
0000
1000
0000
0000
1001
0000
0000
1010
0000
,
0000
0000
0002
0000
0000
0000
1003
0000
0010
1000
0100
0010
0100
1000
0100
1000
,
0002
0000
0000
0103
0000
0000
0001
0000
0100
0000
1000
0000
0100
0000
0001
0000
,
2001
0000
0000
0000
3100
0000
0010
0000
1000
0000
0010
0000
0001
1000
0100
0000
,
0000
0000
0010
0001
0010
0001
0010
0000
0100
0000
0010
0001
0010
0000
0100
0000
,
1000
0000
0011
0000
0000
1100
0000
0000
0110
0000
0000
1001
0000
0000
1000
0000
,
0102
0000
0100
0000
0100
0003
0101
0202
,
0000
0000
0000
0003
0000
0000
0300
0000
;

//---------------dance-single - Itsugo15----------------
#NOTES:
     dance-single:
     Itsugo15:
     Hard:
     8:
     0.602,0.622,0.522,0.460,0.112: // measure 1
0000
0000
0000
0000
,  // measure 2
0000
0000
0000
0000
,  // measure 3
0000
0000
0000
0000
,  // measure 4
0001
1000
0000
1000
0001
0000
0001
0010
0000
0010
0100
0000
1000
0000
0001
0000
,  // measure 5
0200
0001
0001
0301
,  // measure 6
0002
0000
0000
0013
0000
0000
0100
0000
2000
0000
0000
0000
3001
0000
1000
0000
,  // measure 7
0002
1000
1000
1000
,  // measure 8
1003
0001
0000
0001
1000
0000
0200
0000
1000
0000
1000
0000
1000
0000
1300
0000
,  // measure 9
1100
0000
0011
0000
0001
0010
0001
0100
,  // measure 10
0010
1000
0100
0001
0100
1000
0001
0100
,  // measure 11
0101
0000
1010
0000
1000
0010
0100
0010
,  // measure 12
1000
0001
0010
1000
0010
0001
1000
0100
,  // measure 13
1100
1000
1001
0001
0101
0001
0100
0010
,  // measure 14
0010
1000
0001
0020
0001
0000
0031
0000
,  // measure 15
0011
0000
0001
0000
1001
0000
1000
0000
1010
0000
0010
0000
0110
0000
0100
0010
,  // measure 16
0100
0001
1000
0100
0010
0001
1000
0000
,  // measure 17
1001
1010
0101
0110
,  // measure 18
1001
M00M
0110
0MM0
0110
0000
0010
0010
,  // measure 19
2000
0000
3001
0020
0000
0130
0010
0001
,  // measure 20
2000
0000
3010
0200
0000
0301
1000
0100
,  // measure 21
1100
0101
1100
0101
,  // measure 22
1001
M00M
0110
0MM0
0110
0000
0010
0010
,  // measure 23
0001
1000
0020
0000
0230
0000
0301
1000
,  // measure 24
0100
1000
0002
0000
2003
0010
0010
3010
,  // measure 25
1010
0000
1000
0000
0000
0001
0000
0000
0020
0000
0000
0000
1030
0000
0010
0000
,  // measure 26
0001
0000
1000
0000
0000
0010
0000
0000
0200
0000
0000
0000
1300
0000
0100
0000
,  // measure 27
0010
0000
1000
0000
0000
0001
0000
0000
0020
0000
0000
0000
0130
0000
0001
0000
,  // measure 28
0100
1000
0001
0100
2000
0000
3100
0001
,  // measure 29
0101
0000
0002
0000
0000
2003
0000
0000
3200
0000
0000
0310
0000
0000
0001
0000
,  // measure 30
0010
0001
1000
0010
0200
0300
0110
0000
,  // measure 31
1001
0000
0001
0000
0010
0000
0100
0000
1000
0000
0000
0001
0000
0000
1000
0000
,  // measure 32
1001
1000
0010
0100
0002
0100
0100
0103
,  // measure 33
0101
0000
0110
0000
0000
1010
0000
0000
1001
0000
0000
0000
0002
0000
0020
0000
,  // measure 34
0003
0001
0000
0031
2000
0000
3010
0200
,  // measure 35
0000
0000
0301
1000
0200
0000
0300
0020
,  // measure 36
0000
0000
0031
1000
0020
0000
0130
0001
,  // measure 37
0101
0000
0001
0000
0000
1000
0000
0000
0100
0000
0000
0010
0000
0000
0100
0000
,  // measure 38
1000
0001
0010
0100
2000
0000
0002
3003
,  // measure 39
1001
0000
0100
0010
0110
0000
1000
0001
,  // measure 40
1001
0000
0010
0100
0120
0100
0100
0130
,  // measure 41
0110
0000
0000
0011
0000
0000
0001
0000
1000
0000
0010
0000
1000
0000
0001
0000
,  // measure 42
1001
0000
1000
0010
0100
0001
1000
0100
,  // measure 43
0010
0010
0001
0001
1000
1000
0010
0010
,  // measure 44
0200
0010
1000
0001
,  // measure 45
0302
0000
0000
0000
0000
0000
2003
0200
,  // measure 46
0000
0000
3300
0000
;

//---------------dance-single - Itsugo15----------------
#NOTES:
     dance-single:
     Itsugo15:
     Medium:
     5:
     0.467,0.509,0.771,0.075,0.000:
0000
0000
0000
0000
,
0000
0000
0000
0000
,
0000
0000
0000
0000
,
0000
0000
0000
0000
,
1000
1000
0001
0001
,
0100
0010
1000
0001
,
0010
0010
0100
0100
,
1000
0001
0100
0010
,
0110
0000
1010
0000
1000
0010
1000
0000
,
1000
0001
1000
0000
0001
0000
0010
0000
,
0011
0000
0110
0000
0010
0100
0010
0000
,
0010
0001
0010
0000
0001
1000
0001
0000
,
1001
0110
1001
0001
,
1000
0100
0010
0001
,
0011
0101
1100
1010
,
0011
0001
1000
0010
,
1010
0011
1100
1000
,
0100
0010
0001
0000
0100
0010
1000
0000
,
0001
0010
1000
0000
0001
0010
1000
0000
,
0001
0100
1000
0000
0001
0100
1000
0000
,
1100
0101
1010
0001
,
0010
0100
1000
0000
0001
0100
0010
0000
,
1000
0100
0001
0000
1000
0100
0001
0000
,
1000
0010
0001
0000
1000
0010
0001
0000
,
0011
1100
0011
1000
,
1010
0101
1010
0001
,
1001
0110
1001
1000
,
1001
0110
1001
0001
,
0010
0100
1000
0000
0001
0100
0010
0000
,
1000
0010
0100
0000
0001
0010
0100
0000
,
1000
0001
0100
0001
0010
0100
1000
0010
,
0100
0001
1000
0100
0010
0001
0010
0100
,
1000
1100
0001
0101
,
1000
1010
0001
0011
,
1001
0110
1001
0110
,
1001
0110
1001
0110
,
1001
0001
0010
0100
,
1000
0100
1000
0001
1000
0000
0100
0000
,
1100
0100
0110
0010
,
0011
0000
0001
0000
2002
0000
0000
3003
,
1001
0000
1010
0000
1000
0010
0001
0000
,
0011
0000
0101
0000
0001
0100
1000
0000
,
1100
1010
0011
0101
,
1100
1010
0110
1001
,
0220
0000
0000
0000
0000
0330
0110
2002
,
0000
0000
3003
0000
;
