#TITLE:FLASH;
#SUBTITLE:COSMIC EXPLORER;
#ARTIST:Perfume;
#TITLETRANSLIT:Flash;
#SUBTITLETRANSLIT:Cosmic Explorer;
#ARTISTTRANSLIT:Perfume;
#GENRE:J-pop;
#CREDIT:Itsugo15;
#BANNER:FLASH-bn.png;
#BACKGROUND:FLASH-bg.png;
#JACKET:FLASH-Jacket.png;
#LYRICSPATH:FLASH.lrc;
#CDTITLE:Itsugo15 SimifileS.png;
#MUSIC:FLASH.mp3;
#OFFSET:-0.255;
#SAMPLESTART:38.255;
#SAMPLELENGTH:30.000;
#SELECTABLE:YES;
#LISTSORT:;
#BPMS:0.000=128.000;
#STOPS:;
#TICKCOUNT:0.000=6;
#BGCHANGES:2.000=FLASH-VD1.avi=1.000=1=1=0,
147.500=FLASH-VD2.avi=1.000=0=1=0,
244.000=FLASH-VD3.avi=1.000=0=1=0,
283.000=FLASH-VD4.avi=1.000=0=1=0,
99999=-nosongbg-=1.000=0=0=0 // don't automatically add -songbackground-
;
#KEYSOUNDS:;
#ATTACKS:;

//---------------dance-single - Itsugo15----------------
#NOTES:
     dance-single:
     Itsugo15:
     Challenge:
     10:
     0.729,0.827,0.269,0.837,0.240:
0000
0000
0000
0000
,
2000
0000
3010
0100
0001
1000
0100
0000
,
1100
1000
0001
0100
0010
1000
0001
0000
,
1002
0000
0000
0000
0013
0000
0100
0000
2000
0000
0000
3010
0200
0000
0010
0000
,
0301
0001
1000
0100
0010
0001
0100
0000
,
0201
0000
0000
0000
0310
0000
1000
0000
0002
0000
0000
0000
0020
0003
0000
0030
,
0012
0000
0000
0000
2003
0000
0000
0000
0020
0000
3000
0000
0230
0000
0000
0300
,
0110
0000
1001
0000
0110
0000
0000
0010
,
0100
1000
0100
0010
0001
1000
0100
0000
,
2000
0000
3010
0010
0100
0100
0001
000M
,
1000
1000
0100
0100
0010
0010
0001
000M
,
0011
0001
0100
0010
2000
0010
3010
1000
,
0001
0010
0100
1000
0002
1000
0103
0000
,
0201
000M
0301
2000
0100
0000
3100
0000
,
1000
0010
0100
0002
1000
0000
0013
0000
,
0011
0000
0000
0000
0010
0000
0100
0000
1000
0000
0001
1000
0001
0000
0001
0000
,
0100
0000
0100
0000
0010
0000
0010
0000
1000
0000
0010
1000
0001
0000
0100
0000
,
0101
0000
0100
0001
1000
0000
0100
0000
1000
0000
0010
0100
0001
0000
0100
0000
,
0101
0000
0001
0010
0100
0000
1000
0000
0100
0000
0010
0001
1000
0000
0010
0000
,
0100
0001
1000
0100
0010
0100
1000
0001
0010
0100
1000
0100
0010
0001
1000
0100
,
0020
0000
0000
0000
0000
0000
0031
0010
0100
0000
0000
1000
0001
0000
0100
0000
,
1001
0000
0000
0001
0100
0000
0010
0000
0001
0000
1000
0000
0100
0000
0010
0000
,
2000
3010
0002
0103
0020
2030
3002
0013
,
0011
0000
0000
0010
0100
0000
1000
0000
0100
0000
0001
0000
0100
0000
1000
0000
,
0001
0001
1000
2000
0010
0100
3010
1000
,
1010
0000
0000
0010
0100
0000
0001
0000
1000
0000
0100
0000
0010
0000
1000
0000
,
0020
0031
0200
1300
0002
2003
3020
0130
,
0110
0000
0000
0001
1000
0000
0100
0000
0020
0000
0001
0000
0100
0000
1030
0000
,
0020
1000
0001
0130
0410
0010
0310
0MM0
,
1001
0000
0000
1000
0010
0000
0100
0000
1000
0000
0001
0000
0010
0000
0100
0000
,
0002
0103
2000
3010
0200
0302
2003
3100
,
1100
0000
0000
0100
0010
0000
0001
0000
0010
0000
1000
0000
0010
0000
0001
0000
,
2000
0100
0010
0001
0100
0010
3001
0100
,
0M1M
0000
0000
0100
0010
0000
1000
0000
0001
0000
0010
0000
0100
0000
1000
0000
,
0200
1300
0002
0103
0020
2030
3002
0013
,
0021
0001
0031
1000
2001
0001
3001
0100
,
0102
0000
0000
1003
0010
0100
0001
1000
0100
0010
0001
0010
0100
0000
0000
1000
0000
0000
0001
0000
0000
0010
0000
0000
,
0021
0031
0002
0103
,
0200
0000
1000
0000
0010
0001
0301
0100
,
0020
0100
0200
0300
1000
1000
0031
0010
,
0400
0300
0004
0003
4000
3000
0400
0300
0040
0030
0004
0003
4000
3000
0000
0000
,
1002
1003
2000
3010
,
0020
0000
0001
0000
0100
1000
1030
0010
,
2020
0030
3010
0020
1000
1030
2000
0001
,
3001
0000
0000
0000
0000
0000
0001
0000
0010
0000
0100
0000
1000
0000
0001
0000
0010
0000
0100
0000
0010
0000
0001
0000
4000
0000
0000
3000
0000
0000
0040
0000
0000
0030
0000
0000
0400
0000
0000
0300
0000
0000
4000
0000
0000
3000
0000
0000
,
1100
0000
1000
0100
0001
0000
2000
0000
3200
0000
0302
0000
2003
0000
0000
0000
,
3001
0100
1000
0001
0200
1300
0002
0013
,
1000
0000
0001
0010
1000
0000
0002
0000
2003
0000
3020
0000
0032
0000
0000
0000
,
1003
0010
0001
1000
0002
0013
2000
3001
,
1001
0001
0010
0100
1000
0100
0010
0001
,
0011
0010
0001
1000
0010
0100
0001
1000
,
0100
0010
0001
1000
0010
0100
0001
1000
0100
0010
0100
1000
0001
0010
0100
1000
,
0002
0000
0000
0000
0103
0000
0010
1000
0001
0000
0020
0000
0031
0000
00MM
0000
,
1001
0000
0000
0001
0100
0000
0010
0000
0001
0000
1000
0000
0100
0000
0010
0000
,
2000
3010
0002
0103
0020
2030
3002
0013
,
0011
0000
0000
0010
0100
0000
1000
0000
0100
0000
0001
0000
0100
0000
1000
0000
,
0002
0010
0100
1000
0010
0100
1003
0010
,
1010
0000
0000
0010
0100
0000
0001
0000
1000
0000
0100
0000
0010
0000
1000
0000
,
0020
0031
0200
1300
0002
2003
3020
0130
,
0110
0000
0000
0001
1000
0000
0100
0000
0020
0000
1000
0000
0100
0000
0031
0000
,
0020
0001
1000
0130
0410
0010
0310
0MM0
,
1001
0000
0001
0100
0010
0000
1000
0000
0002
0000
0000
0000
0013
0000
0100
0000
,
2000
0000
3002
0000
1003
0010
0100
0001
,
2000
3200
0320
0032
,
1003
0010
0100
0010
1000
0001
0010
00MM
,
2100
3002
0203
0320
,
2030
0000
3002
0000
0013
0100
0010
0001
,
1000
0100
0010
0001
1000
0001
0100
0010
1000
0001
1000
0100
0010
0001
0100
0010
,
1000
0000
0000
0000
0000
0000
0010
0000
0000
0000
0000
0000
0100
0000
0001
0000
1000
0000
0100
0000
0010
0000
0001
0000
1000
0000
0100
0000
0010
0000
0004
0000
0000
0003
0000
0000
4000
0000
0000
3000
0000
0000
0040
0000
0000
0030
0000
0000
,
0400
0300
0001
0000
1000
0000
0100
0000
0010
0000
0001
0000
0010
0000
0100
0000
,
1000
1100
0001
0101
0400
0010
0010
0310
,
0MM0
0000
0000
0000
;

//---------------dance-single - Itsugo15----------------
#NOTES:
     dance-single:
     Itsugo15:
     Hard:
     8:
     0.569,0.698,0.138,0.626,0.095:
0000
0000
0000
0000
,
2000
0000
3010
0001
0010
1000
0001
0000
,
1000
1000
0100
0001
0100
1000
0001
0000
,
0200
0000
0320
0000
1030
0001
0001
0100
,
0010
1000
0001
0010
0100
1000
1000
0000
,
0200
0000
0310
0001
2000
0000
3020
0000
,
0230
0000
0302
0000
2003
0000
3002
0003
,
1001
0000
0110
0000
1001
0000
1000
0001
,
0100
0010
1000
0100
0010
0001
1000
0000
,
2001
0000
3001
0100
1000
0100
0001
0000
,
1000
0100
0001
0100
0010
0001
1000
0000
,
0010
0100
0001
0100
0010
0010
1000
0001
,
0010
0001
0100
0010
1000
0100
0010
0000
,
0002
0000
1003
0010
0100
0000
0100
0000
,
0010
1000
0001
0010
0100
0000
0100
0000
,
0110
0000
0010
0001
1000
0000
0010
0000
,
0100
0000
0001
0100
0010
1000
0001
0010
,
0011
0000
0001
1000
0001
0000
1000
0000
1000
0000
0001
0000
0001
0000
1000
0000
,
1001
0000
1000
0010
1000
0000
0010
0000
0010
0000
0100
0000
0100
0000
0001
0000
,
1000
0001
1000
0001
1000
0001
1000
0001
1000
0001
1000
0001
1000
0001
1000
0001
,
2000
0000
0000
0000
0000
0000
0000
0000
3001
0000
0000
0100
0000
0000
0010
0000
,
0110
0000
0000
0100
0001
0000
1000
0000
0200
0000
0000
0000
0320
0000
0000
0000
,
0032
0000
0023
0000
0130
1000
0001
0100
,
0010
0000
0000
1000
0001
0000
0010
0000
0200
0000
0000
0000
2300
0000
0000
0000
,
3002
0000
0203
0000
0310
1000
0001
0010
,
0011
0000
0000
0001
1000
0000
0010
0000
0200
0000
0000
0000
0302
0000
0000
0000
,
2003
0000
3200
0000
0310
0100
1000
0001
,
1001
0000
0000
0001
0100
0000
0010
0000
2000
0000
0000
0000
3002
0000
0000
0000
,
0013
0100
1000
0100
0010
0001
1000
M000
,
1001
0000
0000
0001
1000
0000
0001
0000
0020
0000
0000
0000
0230
0000
0000
0000
,
2300
0000
3200
0000
0310
0001
1000
0010
,
0100
0000
0000
0001
1000
0000
0100
0000
0020
0000
0000
0000
0032
0000
0000
0000
,
1003
0010
0100
0001
0100
0010
10M0
M000
,
1010
0000
0000
1000
0001
0000
0100
0000
0020
0000
0000
0000
2030
0000
0000
0000
,
3002
0000
0023
0000
0130
0010
0001
1000
,
1001
0000
0010
0100
0002
0000
1003
0100
,
0020
0000
0031
0010
0100
1000
0001
0100
,
0020
0030
0000
0000
2000
3000
0000
0000
,
0002
0000
0010
0000
0013
0001
0100
0020
,
1000
0000
1000
0000
1030
0001
0010
0100
,
1000
0100
0010
0001
1000
0100
0010
0000
,
0002
0003
0000
0000
2000
3000
0000
0000
,
0020
0000
0100
0000
0130
0001
1000
0200
,
0010
0000
0010
0000
0310
0100
1000
0001
,
0200
0000
0020
0300
2000
0030
3002
0000
,
0013
0000
0001
0010
0001
0000
0100
0000
0010
0000
1000
0000
0002
0000
0000
0000
,
0013
0100
1000
0010
0100
0001
2000
0000
,
3100
0000
1000
0100
1000
0000
0100
0000
0010
0000
0001
0000
2000
0000
0000
0000
,
3002
0000
0103
0010
1000
0001
0010
0100
,
1000
0100
0010
0001
1000
0001
0100
0010
,
1000
0010
0100
0001
1000
0001
0010
0100
,
1000
1000
0100
0100
0010
0010
0001
0001
,
2000
0000
0000
0000
3010
0000
0100
0010
0100
0000
0001
0000
1000
0000
M000
0000
,
1001
0000
0000
1000
0001
0000
1000
0000
0200
0000
0000
0000
0320
0000
0000
0000
,
0032
0000
0023
0000
0130
1000
0001
0100
,
0010
0000
0000
1000
0001
0000
0010
0000
0200
0000
0000
0000
2300
0000
0000
0000
,
3001
0100
0010
1000
0010
0100
0001
0M00
,
1100
0000
0000
1000
0001
0000
0100
0000
0020
0000
0000
0000
2030
0000
0000
0000
,
3002
0000
0023
0000
0130
0010
0001
1000
,
1001
0000
0000
1000
0010
0000
0100
0000
0002
0000
0000
0000
2003
0000
0000
0000
,
3100
0010
0001
0010
0100
1000
0001
000M
,
1001
0000
1000
0100
1000
0000
0001
0000
0200
0000
0000
0000
0320
0000
0000
0000
,
2030
0000
0010
0000
3010
1000
0001
0010
,
0012
2003
3020
0230
,
0301
0100
0010
1000
0001
0100
0010
00M0
,
0200
0302
2003
3200
,
0320
0000
0001
0000
0031
0010
0100
1000
,
0002
0203
0320
2030
,
3001
0010
0100
1000
0100
0010
0001
1000
,
1001
1000
0010
0100
,
0001
1000
0100
0001
0200
0000
1300
0002
,
0003
0000
0000
0000
;

//---------------dance-single - Itsugo15----------------
#NOTES:
     dance-single:
     Itsugo15:
     Beginner:
     2:
     0.080,0.129,0.015,0.044,0.000:
0000
0000
0000
0000
,
1000
0000
0000
0000
,
1000
0000
0000
0000
,
0001
0000
0000
0000
,
0001
0000
0000
0000
,
1000
0000
0000
0000
,
0010
0000
0000
0000
,
0100
0000
0000
0000
,
0001
0000
0000
0000
,
0001
0000
0000
0000
,
0010
0000
0000
0000
,
0100
0000
0000
0000
,
1000
0000
0000
0000
,
1000
0000
0000
0000
,
0100
0000
0000
0000
,
0010
0000
0000
0000
,
0001
0000
0000
0000
,
1000
0000
0000
0000
,
0001
0000
0000
0000
,
2000
0000
0000
0000
,
3000
0000
0000
0000
,
1001
0000
0000
0000
,
0001
0000
0000
0000
,
0100
0000
0000
0000
,
0010
0000
0000
0000
,
1000
0000
0000
0000
,
0001
0000
0000
0000
,
0010
0000
0000
0000
,
0100
0000
0000
0000
,
1000
0000
0000
0000
,
0100
0000
0000
0000
,
0010
0000
0000
0000
,
0001
0000
0000
0000
,
1000
0000
0000
0000
,
0010
0000
0000
0000
,
0100
0000
0000
0000
,
0001
0000
0000
0000
,
2000
3000
0000
0000
,
0002
0003
0000
0000
,
0020
0030
0000
0000
,
0200
0300
0000
0000
,
1000
0000
0000
0000
,
0001
0000
0000
0000
,
0100
0000
0000
0000
,
0010
0000
0000
0000
,
1000
0000
0000
0000
,
1000
0000
0000
0000
,
0001
0000
0000
0000
,
0001
0000
0000
0000
,
1000
0000
0000
0000
,
0001
0000
0000
0000
,
0100
0000
0000
0000
,
0010
0000
0000
0000
,
0110
0000
0000
0000
,
0100
0000
0000
0000
,
0001
0000
0000
0000
,
1000
0000
0000
0000
,
0100
0000
0000
0000
,
0010
0000
0000
0000
,
0001
0000
0000
0000
,
1000
0000
0000
0000
,
0010
0000
0000
0000
,
0100
0000
0000
0000
,
0001
0000
0000
0000
,
1000
0000
0000
0000
,
0001
0000
0000
0000
,
0010
0000
0000
0000
,
0100
0000
0000
0000
,
1000
0000
0000
0000
,
0001
0000
0000
0000
,
0002
0000
0000
0000
,
0003
0000
0000
0000
;

//---------------dance-single - Itsugo15----------------
#NOTES:
     dance-single:
     Itsugo15:
     Easy:
     3:
     0.171,0.233,0.044,0.036,0.000:
0000
0000
0000
0000
,
1000
0000
0000
0000
,
0001
0000
0000
0000
,
0100
0000
0000
0000
,
0010
0000
0000
0000
,
1000
0000
0000
0000
,
1000
0000
0000
0000
,
0001
0000
0000
0000
,
0001
0000
0000
0000
,
0010
0000
0010
0000
,
0100
0000
0100
0000
,
1000
0000
1000
0000
,
0001
0000
0001
0000
,
0100
0000
0000
0000
,
0010
0000
0000
0000
,
1000
0000
0000
0000
,
0001
0000
0000
0000
,
1000
0000
0001
0000
,
0010
0000
0100
0000
,
1000
0000
0001
0000
,
0100
0000
0000
0000
,
0101
0000
0001
0000
,
1000
0000
1000
0000
,
0100
0000
0010
0000
,
0001
0000
0001
0000
,
1000
0000
0010
0000
,
0100
0000
0100
0000
,
0001
0000
1000
0000
,
0010
0000
0010
0000
,
1010
0000
1000
0000
,
0001
0000
0001
0000
,
0010
0000
0100
0000
,
1000
0000
1000
0000
,
0010
0000
0100
0000
,
0001
0000
0001
0000
,
1000
0000
0001
0000
,
0010
0000
0100
0000
,
0110
0000
0100
0000
,
2000
0000
0000
3000
,
0001
0000
0001
0000
,
0200
0000
0000
0300
,
0010
0000
1000
0000
,
0002
0000
0000
0003
,
0010
0000
0001
0000
,
2000
0000
3010
0100
,
0001
0000
0001
0001
,
1000
0000
1000
1000
,
0100
0000
0100
0100
,
0010
0000
0010
0010
,
0001
0000
1000
0000
,
0010
0000
0100
0000
,
0001
1000
0100
0010
,
0001
1000
0001
0100
,
0101
0000
0100
0000
,
0010
0000
1000
0001
,
0010
0000
0010
0000
,
0001
0000
1000
0010
,
0100
0000
0100
0000
,
0001
0000
0001
1000
,
0100
0000
0100
0000
,
0010
0001
1000
0010
,
1010
1000
0001
0000
,
1000
0000
0100
0010
,
0001
1000
0010
0000
,
0100
0010
1000
0001
,
1001
1000
0001
0000
,
1000
0000
0100
0010
,
0001
0010
0100
1000
,
0001
0100
0010
1000
,
0001
0001
0010
0010
,
0100
1000
0001
0200
,
0300
0000
0000
0000
;

//---------------dance-single - Itsugo15----------------
#NOTES:
     dance-single:
     Itsugo15:
     Medium:
     5:
     0.345,0.388,0.226,0.371,0.000: // measure 1
0000
0000
0000
0000
,  // measure 2
0001
0000
0001
0001
,  // measure 3
1000
0000
1000
1000
,  // measure 4
0100
0000
0010
0001
,  // measure 5
1000
0010
0100
0001
,  // measure 6
1000
0000
1000
0001
,  // measure 7
1000
0000
0001
0010
,  // measure 8
0011
1001
0101
0000
,  // measure 9
0001
0100
0010
1000
,  // measure 10
1010
0000
0010
0000
1000
0001
1000
0000
,  // measure 11
0001
0000
0010
0000
0100
0010
0100
0000
,  // measure 12
1000
0000
0001
0000
0100
0001
0100
0000
,  // measure 13
0010
1000
0010
0000
1000
0001
1000
0000
,  // measure 14
0001
0010
0011
0011
,  // measure 15
0001
1000
1001
1001
,  // measure 16
0001
0100
0010
1000
,  // measure 17
1010
0010
0100
0001
,  // measure 18
0101
1000
1100
0001
,  // measure 19
0011
1000
1010
0010
,  // measure 20
0200
0001
0001
0001
,  // measure 21
0310
0000
1000
0001
,  // measure 22
1001
0000
1000
0100
,  // measure 23
0010
0001
1000
0010
,  // measure 24
0200
0300
0010
1000
,  // measure 25
0001
0010
0100
1000
,  // measure 26
1100
0000
0100
1000
,  // measure 27
0001
0100
0010
1000
,  // measure 28
0002
0003
0010
0100
,  // measure 29
1000
0001
0200
0310
,  // measure 30
0110
0000
0100
0001
,  // measure 31
1000
0100
0010
0001
,  // measure 32
2000
3000
0001
0100
,  // measure 33
0010
1000
0001
0010
,  // measure 34
0011
0000
0001
0100
,  // measure 35
0010
1000
0010
0100
,  // measure 36
0002
0003
2000
3000
,  // measure 37
0200
0010
0010
0300
,  // measure 38
0110
0000
0011
0000
,  // measure 39
2002
0000
0000
0000
0003
0000
3000
0001
,  // measure 40
1000
0000
1001
0000
,  // measure 41
0202
0300
0100
1003
,  // measure 42
1001
0000
0110
0000
,  // measure 43
2002
0000
0003
3001
,  // measure 44
1001
0000
0011
0000
,  // measure 45
2200
0300
3100
1000
,  // measure 46
0001
0001
0100
0020
,  // measure 47
1030
1000
0100
0020
,  // measure 48
0031
0001
0010
0200
,  // measure 49
1300
1000
0010
0200
,  // measure 50
0302
1003
2000
3100
,  // measure 51
0200
0310
0020
0031
,  // measure 52
0002
2003
3020
0230
,  // measure 53
0302
0103
0001
1000
,  // measure 54
1001
0000
0001
0010
,  // measure 55
0100
1000
0001
0100
,  // measure 56
0020
0030
0100
0001
,  // measure 57
1000
0100
0010
0001
,  // measure 58
0011
0000
0010
0001
,  // measure 59
1000
0010
0100
0001
,  // measure 60
2000
3000
0100
0010
,  // measure 61
0001
1000
0020
0130
,  // measure 62
0110
0100
0002
1003
,  // measure 63
2000
3100
0200
0320
,  // measure 64
0031
0001
2000
3010
,  // measure 65
0020
0230
0302
2003
,  // measure 66
3010
0010
2000
3001
,  // measure 67
0002
0013
0020
0230
,  // measure 68
1300
1000
0001
0001
,  // measure 69
0200
0320
2030
3002
,  // measure 70
0013
0010
0001
0001
,  // measure 71
1000
0000
0010
0000
0200
0000
0002
0300
,  // measure 72
0003
0000
0000
0000
;
