#TITLE:Dial Connected;
#SUBTITLE:紅 -KURENAI-;
#ARTIST:SOUND HOLIC;
#TITLETRANSLIT:Dial Connected;
#SUBTITLETRANSLIT:Beni -KURENAI-;
#ARTISTTRANSLIT:Sound Holic;
#GENRE:Touhou;
#CREDIT:Itsugo15;
#BANNER:Dial Connected-bn.png;
#BACKGROUND:Dial Connected-bg.png;
#JACKET:Dial Connected-Jacket.jpg;
#LYRICSPATH:Dial Connected.lrc;
#CDTITLE:Itsugo15 SimifileS.png;
#MUSIC:Dial Connected.ogg;
#OFFSET:1.520;
#SAMPLESTART:68.807;
#SAMPLELENGTH:30.000;
#SELECTABLE:YES;
#LISTSORT:;
#DISPLAYBPM:140;
#BPMS:0.000=140.000,228.000=70.000,258.000=280.000,266.000=140.000;
#STOPS:;
#TICKCOUNT:0.000=6;
#BGCHANGES:3.000=Dial Connected VD1.avi=1.000=1=1=0,
238.250=Dial Connected VD2.avi=1.000=1=1=0,
269.000=Dial Connected-bg.png=1.000=1=1=0,
99999=-nosongbg-=1.000=0=0=0 // don't automatically add -songbackground-
;
#KEYSOUNDS:;
#ATTACKS:;

//---------------dance-single - Itsugo15----------------
#NOTES:
     dance-single:
     Itsugo15:
     Hard:
     9:
     0.516,0.525,0.150,0.195,0.177:
0000
0000
0000
0000
,
1001
0000
0000
0000
1010
0000
0000
0000
0010
0000
0000
0100
0000
0000
0010
0000
,
1000
0000
0000
0000
1001
0000
0000
0000
1000
0000
0000
0001
0000
0000
0010
0000
,
0100
0000
0000
0000
1100
0000
0000
0000
0100
0000
0000
0010
0000
0000
0001
0000
,
0100
0000
0000
0010
0000
0000
0020
0000
0000
0000
0030
0000
0000
0000
0000
0000
,
0110
0000
0000
0000
1010
0000
0000
0000
1000
0000
0000
0001
0000
0000
0010
0000
,
0011
0000
0000
0000
0110
0000
0000
0000
0100
0000
0000
1000
0000
0000
0001
0000
,
1001
0000
0000
0000
0101
0000
0000
0000
0100
0000
0000
0010
0000
0000
1000
0000
,
1010
0000
0000
0110
0000
0000
0101
0000
0000
0000
0001
0000
0200
0000
0000
0000
,
0320
0000
1030
0001
0010
0000
0100
1000
,
0020
0000
0031
0010
1000
0001
0010
0100
,
2000
0000
3100
0010
0001
0000
1000
0010
,
0200
0000
0301
0100
0010
1000
0001
0010
,
0100
1000
0100
1000
0001
1000
0001
1000
,
0010
1000
0010
1000
0001
0100
0001
0100
,
0010
1000
0001
0010
0100
0010
0001
1000
,
0100
0010
0100
1000
0001
0010
0100
1000
,
1100
0000
1000
0100
0010
0000
0010
0001
,
0200
0000
1300
0100
0001
1000
0100
0010
,
0002
0000
0013
0100
1000
0000
0001
0100
,
0020
0000
1030
0010
0100
0001
1000
0100
,
0010
0001
0010
0001
1000
0001
1000
0001
,
0100
0001
0100
0001
1000
0010
1000
0010
,
0100
0001
1000
0100
0010
0100
1000
0001
,
0020
0100
1000
0100
,
0001
0001
0001
0001
,
0001
0001
0001
0001
,
0031
1000
0010
0100
0010
1000
0001
0010
,
0100
1000
0100
0010
0001
1000
0100
0010
,
0002
0010
0010
0010
,
0010
0000
0010
0000
0010
0000
0013
0001
,
1000
0010
0100
0010
1000
0001
0010
0100
,
1000
0000
0000
0100
0000
0000
0010
0000
0100
0000
1000
0000
0001
0000
0100
0000
,
0102
1000
0100
1000
,
0100
1000
0100
1000
,
0103
0010
1000
0001
1000
0010
0100
0001
,
0100
1000
0100
0001
0010
0100
1000
0100
,
0020
0001
0100
0001
,
0100
0000
0001
0000
0100
0000
0031
0100
,
0010
1000
0001
1000
0100
0010
0001
0100
,
0001
0000
0000
0010
0000
0000
0100
0000
1000
0000
0100
0000
0010
0000
0001
0000
,
0011
0000
0001
0000
1000
0000
0001
0000
0010
0000
0100
0010
0100
0010
0100
0000
,
0010
0000
0001
0000
1000
0000
0010
0000
0100
0000
0001
0100
0001
0000
0100
0000
,
0010
0000
1000
0000
0001
0000
0010
0000
0100
0000
1000
0100
1000
0000
0100
0010
,
0100
0000
0010
0000
0010
0000
0010
0001
0010
0000
0001
0000
1000
0000
0001
0000
,
1001
0000
1000
0000
0001
0000
1000
0000
0010
0000
1000
0010
1000
0000
0010
0000
,
0100
0000
0001
0000
0100
0000
0010
0000
1000
0000
0010
1000
0010
0000
1000
0000
,
0001
0000
0010
0000
0100
0000
0010
0000
0001
0000
1000
0000
0100
1000
0100
1000
,
0100
0000
0010
0000
0010
0000
0001
0000
0001
0000
1000
0100
1000
0000
0100
0000
,
1100
0000
1000
0000
0001
0000
1000
0000
0100
0000
0010
0100
0010
0100
0010
0000
,
0100
0000
1000
0000
0001
0000
0100
0000
0010
0000
1000
0010
1000
0000
0010
0000
,
0100
0000
0001
0000
1000
0000
0100
0000
0010
0000
0001
0010
0001
0000
0010
0100
,
0010
0000
0100
0000
0100
0000
0100
1000
0100
0000
1000
0000
0001
0000
1000
0000
,
1001
0000
0001
0000
1000
0000
0001
0000
0100
0000
0001
0100
0001
0000
0100
0000
,
0010
0000
1000
0000
0010
0000
0100
0000
0001
0000
0100
0001
0100
0000
0001
0000
,
1000
0000
0100
0000
0010
0000
0100
0000
1000
0000
0001
0000
0010
0001
0010
0001
,
0010
0000
0100
0000
0100
0000
1000
0000
1000
0000
0001
0010
0001
0000
0010
0000
,
0220
0000
0000
0000
0000
0000
0000
0000
0330
0000
0000
0000
0010
0001
1000
0010
,
0200
0000
0000
0000
0000
0000
0000
0000
0300
0000
0000
0100
0010
1000
0001
0010
,
0200
0000
0000
0000
0000
0000
0000
0300
,
0020
0032
2003
3020
,
0230
0000
0000
0010
0010
0000
0000
0010
0010
0000
0000
0010
0010
0010
0010
0310
,
0020
0000
0000
0100
0100
0000
0000
0100
0100
0000
0000
0100
0100
0100
0100
0100
,
0230
0000
0000
0000
,
0002
0000
0000
0300
2000
0000
0000
0000
,
0000
0000
0000
0000
,
0000
0000
3003
0000
;

//---------------dance-single - Itsugo15----------------
#NOTES:
     dance-single:
     Itsugo15:
     Challenge:
     11:
     0.753,0.849,0.661,0.323,0.488:
0000
0000
0000
0000
,
0101
0000
0000
0000
1100
0000
0000
0000
1000
0000
0000
0100
0000
0000
0010
0000
,
0110
0000
0000
0000
0011
0000
0000
0000
0001
0000
0000
1000
0000
0000
0100
0000
,
1100
0000
0000
0000
0101
0000
0000
0000
0001
0000
0000
0100
0000
0000
0010
0000
,
0110
0000
0000
1010
0000
0000
1001
0000
0000
0000
0000
0000
0000
0000
0001
1000
,
0001
0000
0100
0000
0010
0000
1000
0000
1010
0000
0000
1001
0000
0000
1010
0000
,
0010
0000
0100
0000
0001
0000
1000
0000
1001
0000
0000
1100
0000
0000
1001
0000
,
0001
0100
0010
1000
0001
0010
0100
0010
0001
1000
0100
0010
0001
0010
0100
1000
,
0200
0000
0000
0010
0000
0000
0001
0000
2300
0000
3002
0000
2003
0000
3001
0000
,
1001
0000
0001
1000
0010
0000
0100
0001
,
1000
0000
0100
0010
0001
0010
0100
1000
,
2100
0000
0000
0001
0000
0000
0010
0000
3200
0000
0000
0000
0310
0000
0001
0000
,
1000
0000
0010
0001
0010
1000
0001
0010
,
0100
0010
1000
0010
0100
0010
0001
1000
,
0001
0100
0001
1000
0001
0010
0100
0010
,
1000
0010
0001
0100
0010
1000
0001
0010
,
0100
1000
0001
0100
0010
1000
0100
1000
0010
0100
0001
0010
0001
0100
0010
1000
,
0002
0000
0013
0100
1000
0000
0001
0100
,
0010
0000
1000
0001
0010
1000
0010
0001
,
0012
0000
0000
1000
0000
0000
0100
0000
0013
0000
0000
0000
0001
0000
1000
0000
,
0010
0000
0100
0001
1000
0100
0001
0100
,
1000
0001
0100
1000
0100
0010
0100
0001
,
1000
0100
1000
0001
1000
0010
0100
0010
,
1000
0001
1000
0100
0010
0100
1000
0100
0010
0001
1000
0010
0100
0001
1000
0100
,
0010
1001
0110
1001
,
0010
0001
1000
0001
0010
0001
1000
0001
,
0100
0010
1000
0010
0100
0010
1000
0010
,
0100
0000
0002
0003
1000
0000
0100
0000
0020
0030
0100
0000
1000
0000
0001
0000
,
0200
0300
0010
0000
1000
0000
0200
0300
0001
0000
0100
0000
2000
3000
0010
0000
,
0100
0001
1000
0001
0100
0001
1000
0001
,
0010
0000
0100
0000
1000
0000
0100
0000
0010
0000
0100
1000
0100
0000
0010
0000
,
0001
0000
2000
3000
0001
0000
0100
0000
0020
0030
0100
0000
0001
0000
1000
0000
,
0200
0310
0001
0010
0100
0010
0002
1003
0010
0100
0001
1000
0200
0310
0001
0010
,
0100
1000
1100
0100
1000
0001
1001
1000
,
0001
0100
0101
0001
1000
0100
1100
0100
,
0010
0000
0002
0003
0011
0000
0010
0000
0002
0003
1000
0000
1001
0000
1000
0000
,
0020
0030
0100
0000
0110
0000
0020
0030
1000
0000
0001
0000
2002
3003
0001
0000
,
0010
0001
0011
0010
0001
1000
1001
0001
,
1000
0000
0010
0000
1010
0000
1000
0000
0001
0000
0010
0100
1000
0000
0100
0000
,
1100
0000
0002
0003
0101
0000
0100
0000
0020
0030
1000
0000
1010
0000
0010
0000
,
0200
0300
0001
0000
1000
0000
0200
0300
1000
0000
0001
0000
2002
3003
1000
0000
,
1010
0000
0001
0000
0011
0000
1000
0000
1100
0000
1000
0100
0010
0001
1000
0000
,
1001
0000
0001
0000
0101
0000
0100
0000
0110
0000
0010
1000
0001
0000
0010
0000
,
0011
0000
0001
0000
1001
0000
1000
0000
1010
0000
0010
0100
0001
0000
0101
0000
,
1001
0000
1000
0100
0010
0000
0110
0000
0011
0000
0001
1000
0010
0000
0100
0000
,
0110
0000
0010
0000
1010
0000
1000
0000
1001
0000
0001
0010
0100
1000
0001
0000
,
1001
0000
1000
0000
1010
0000
0010
0000
0110
0000
0100
0001
1000
0000
0100
0000
,
1100
0000
0001
0000
0011
0000
1000
0000
1010
0000
0010
0100
0001
1000
0010
0100
,
0001
1000
0100
1000
0010
0100
0001
0010
0100
1000
0100
0010
0001
1000
0010
0100
,
0110
0000
1000
0000
1001
0000
0001
0000
0011
0000
0001
0010
0100
1000
0001
0000
,
1001
0000
1000
0000
1010
0000
0010
0000
0110
0000
0100
0001
1000
0000
0100
0000
,
1100
0000
1000
0000
1001
0000
0001
0000
0101
0000
0100
0010
1000
0000
1010
0000
,
1001
0000
0001
0010
0100
0000
0110
0000
1100
0000
1000
0001
0100
0000
0010
0000
,
0110
0000
0100
0000
0101
0000
0001
0000
1001
0000
1000
0100
0010
0001
1000
0000
,
1001
0000
0001
0000
0101
0000
0100
0000
0110
0000
0010
1000
0001
0000
0010
0000
,
0011
0000
1000
0000
1100
0000
0001
0000
0101
0000
0100
0010
1000
0001
0100
0010
,
1000
0001
0010
0001
0100
0010
1000
0100
0010
0001
0010
0100
1000
0001
0100
0010
,
2000
0000
0000
0010
0010
0000
0000
0001
0001
0000
0000
3100
0010
0001
0010
0100
,
2000
0000
0000
0100
0000
0000
0010
0000
0001
0000
0000
0000
0000
0000
0100
0000
0100
0000
0000
0000
0000
0000
3010
0000
0100
0000
0001
0000
1000
0000
0100
0000
,
0020
0000
0000
0001
0000
0000
0100
0000
1000
0000
0000
0100
0000
0000
0001
0000
0230
0000
0000
0010
0000
0000
0001
0000
0010
0000
0000
1000
0000
0000
0310
0000
,
0110
0000
0000
0010
0000
0000
0001
0000
0011
0000
0000
1001
0000
0000
1000
0000
1010
0000
0000
0110
0000
0000
0100
0000
0101
0000
0000
1001
0000
0000
1000
0000
,
0200
0000
0000
0010
0000
0000
0001
0000
1000
0000
0000
0010
0000
0000
1000
0000
0001
0000
0000
0310
0000
0000
0100
0000
1000
0000
0100
0000
0010
0000
0001
0000
,
0200
0000
0000
0010
0000
0000
1000
0000
0001
0000
0000
0010
0000
0000
0001
0000
1000
0000
0000
0310
0000
0000
0100
0000
0001
0000
0010
0000
0100
0000
1000
0000
,
0002
0000
0000
1000
0000
0000
0100
0000
2000
0000
0000
0000
3000
0000
0000
0000
0020
0000
0000
0000
0030
0000
0200
0000
0000
0000
0300
0000
1000
0000
0000
0000
,
2000
0000
0220
0000
,
0000
0000
0000
0000
,
0000
0000
3333
0000
;

//---------------dance-single - Itsugo15----------------
#NOTES:
     dance-single:
     Itsugo15:
     Beginner:
     2:
     0.067,0.100,0.008,0.000,0.000:
0000
0000
0000
0000
,
0000
0000
0000
0000
,
0000
0000
0000
0000
,
0000
0000
0000
0000
,
0000
0000
0000
0000
,
1000
0000
0000
0000
,
0100
0000
0000
0000
,
0010
0000
0000
0000
,
0001
0000
0000
0000
,
1000
0000
0000
0000
,
1000
0000
0000
0000
,
0001
0000
0000
0000
,
0001
0000
0000
0000
,
0100
0000
0000
0000
,
0010
0000
0000
0000
,
1000
0000
0000
0000
,
0001
0000
0000
0000
,
0010
0000
0000
0000
,
0010
0000
0000
0000
,
0100
0000
0000
0000
,
0100
0000
0000
0000
,
1000
0000
0000
0000
,
0001
0000
0000
0000
,
0100
0000
0000
0000
,
0010
0000
0000
0000
,
1000
0000
0000
0000
,
1000
0000
0000
0000
,
0001
0000
0000
0000
,
0001
0000
0000
0000
,
0010
0000
0000
0000
,
0010
0000
0000
0000
,
0100
0000
0000
0000
,
0100
0000
0000
0000
,
1000
0000
0000
0000
,
0001
0000
0000
0000
,
0100
0000
0000
0000
,
0010
0000
0000
0000
,
1000
0000
0000
0000
,
0001
0000
0000
0000
,
0010
0000
0000
0000
,
0100
0000
0000
0000
,
1000
0000
0000
0000
,
1000
0000
0000
0000
,
0001
0000
0000
0000
,
0001
0000
0000
0000
,
0010
0000
0000
0000
,
0010
0000
0000
0000
,
0100
0000
0000
0000
,
0100
0000
0000
0000
,
1000
0000
0000
0000
,
0001
0000
0000
0000
,
1000
0000
0000
0000
,
0010
0000
0000
0000
,
0100
0000
0000
0000
,
0010
0000
0000
0000
,
1000
0000
0000
0000
,
0001
0000
0000
0000
,
1001
0000
0000
0000
,
0001
0000
0000
0000
,
0010
0000
0000
0000
,
0100
0000
0000
0000
,
1000
0000
0000
0000
,
0001
0000
0000
0000
,
0100
0000
0000
0000
,
0010
0000
0000
0000
,
0000
0000
0000
0000
,
0000
0000
1000
0000
;

//---------------dance-single - Itsugo15----------------
#NOTES:
     dance-single:
     Itsugo15:
     Easy:
     4:
     0.121,0.177,0.030,0.098,0.000:
0000
0000
0000
0000
,
0000
0000
0000
0000
,
0000
0000
0000
0000
,
0000
0000
0000
0000
,
0000
0000
0000
0000
,
1000
0000
0000
0000
,
1000
0000
0000
0000
,
0001
0000
0000
0000
,
0002
0000
0003
0000
,
1000
0000
1000
0000
,
0010
0000
0000
0000
,
0010
0000
0010
0000
,
0100
0000
0000
0000
,
0100
0000
0100
0000
,
0001
0000
0000
0000
,
0001
0000
0001
0000
,
2000
0000
0000
0000
,
3001
0000
0001
0000
,
0100
0000
0000
0000
,
0100
0000
0100
0000
,
0010
0000
0000
0000
,
0010
0000
0010
0000
,
1000
0000
0000
0000
,
1000
0000
1000
0000
,
0002
0000
0000
0000
,
1003
0000
0001
0000
,
1000
0000
0100
0000
,
1000
0000
0000
0000
,
0001
0000
0000
0000
,
1000
0000
0001
0000
,
1000
0000
0010
0000
,
0100
0000
0000
0000
,
0001
0000
1000
0000
,
1001
0000
0001
0000
,
0010
0000
0100
0000
,
1000
0000
0000
0000
,
0100
0000
0000
0000
,
0010
0000
0001
0000
,
1000
0000
0010
0000
,
0100
0000
0000
0000
,
0001
0000
1000
0000
,
1001
0000
1000
0000
,
0100
0000
0010
0000
,
0001
0000
1000
0000
,
0010
0000
0100
0000
,
0001
0000
0100
0000
,
0010
0000
1000
0000
,
0001
0000
0010
0000
,
0100
0000
1000
0000
,
1100
0000
1000
0000
,
0010
0000
0100
0000
,
0001
0000
1000
0000
,
0100
0000
0010
0000
,
0001
0000
0100
0000
,
0010
0000
1000
0000
,
0001
0000
0010
0000
,
0100
0000
1000
0000
,
2200
0000
3300
0000
,
2000
0000
3000
0000
,
0002
0000
0003
0000
,
0200
0000
0010
0000
,
0302
0000
0003
0000
,
2000
0000
3000
0000
,
0200
0000
0300
0000
,
0020
0000
0030
0000
,
0000
0000
0000
0000
,
0000
0000
0002
0000
,
0000
0003
0000
0000
;

//---------------dance-single - Itsugo15----------------
#NOTES:
     dance-single:
     Itsugo15:
     Medium:
     7:
     0.363,0.400,0.338,0.180,0.004: // measure 1
0000
0000
0000
0000
,  // measure 2
1000
0010
0000
0000
,  // measure 3
0100
0001
0000
0000
,  // measure 4
1000
0100
0000
0000
,  // measure 5
0010
0001
0000
0000
,  // measure 6
0011
0001
0000
0000
,  // measure 7
1001
1000
0000
0000
,  // measure 8
1010
0000
0000
0000
0010
0000
0000
0000
0100
0000
0000
0001
0000
0000
1000
0000
,  // measure 9
2002
0000
3003
0000
,  // measure 10
0001
0000
0010
0100
1000
0000
0100
0010
,  // measure 11
0001
0000
1000
0010
0100
0001
0100
0010
,  // measure 12
1000
0000
1000
0001
0010
0000
0010
0100
,  // measure 13
1000
0000
0100
0010
0001
1000
0010
0100
,  // measure 14
0001
0100
0001
0000
1000
0001
1000
0000
,  // measure 15
0100
1000
0100
0000
0010
0100
0010
0000
,  // measure 16
0001
0010
0001
0000
1000
0001
1000
0000
,  // measure 17
0020
0100
0001
0100
,  // measure 18
1030
0000
0100
0010
0001
0000
0010
0100
,  // measure 19
1000
0000
0001
0100
0010
1000
0010
0100
,  // measure 20
0001
0000
0001
1000
0100
0000
0100
0010
,  // measure 21
0001
0000
0010
0100
1000
0001
0100
0010
,  // measure 22
1000
0010
1000
0000
0001
1000
0001
0000
,  // measure 23
0010
0001
0010
0000
0100
0010
0100
0000
,  // measure 24
2000
0100
0001
3010
,  // measure 25
0201
0010
1000
0010
,  // measure 26
0301
1000
0001
1000
,  // measure 27
0001
1000
0001
1000
,  // measure 28
0100
0010
0001
0000
,  // measure 29
1000
0000
0000
0010
0000
0000
0100
0000
,  // measure 30
0001
1000
0001
1000
,  // measure 31
0001
1000
0001
1000
,  // measure 32
0100
0010
0001
0000
,  // measure 33
1000
0010
0100
0001
,  // measure 34
0101
1000
1100
0001
,  // measure 35
0011
1000
1010
0001
,  // measure 36
1001
0001
0010
0000
,  // measure 37
0100
0000
0000
1000
0000
0000
0100
0000
,  // measure 38
0010
0011
0001
1001
,  // measure 39
1000
1010
0010
0110
,  // measure 40
0100
0001
1000
0000
,  // measure 41
0100
0010
0001
1000
,  // measure 42
1001
0000
0001
0000
0101
0000
0100
0010
,  // measure 43
1000
0000
0010
0100
0001
0000
1000
0100
,  // measure 44
0010
0110
0100
1100
,  // measure 45
1000
0001
0100
0000
0010
1000
0001
0000
,  // measure 46
1001
0000
0001
0000
0011
0000
0010
0100
,  // measure 47
1000
1100
0001
0101
,  // measure 48
1000
1001
0001
0011
,  // measure 49
0110
1100
1001
0101
,  // measure 50
0110
0000
0010
0000
1010
0000
0010
0100
,  // measure 51
0001
0000
0100
0010
1000
0000
0001
0010
,  // measure 52
0100
0110
0010
0011
,  // measure 53
0001
1000
0010
0000
0100
0001
1000
0000
,  // measure 54
1001
0000
1000
0000
1100
0000
0100
0010
,  // measure 55
0001
0011
1000
1010
,  // measure 56
0001
1001
1000
1100
,  // measure 57
0110
0011
1001
1010
,  // measure 58
0220
0000
0000
0000
0330
0000
0100
0001
,  // measure 59
0202
0000
0000
0000
0303
0000
0001
1000
,  // measure 60
2002
0000
0000
0000
0000
0000
0000
0000
0000
0000
0000
0000
0000
3003
0000
0000
,  // measure 61
2000
3200
0320
0032
,  // measure 62
2003
0000
0002
0003
0002
3003
1000
0000
,  // measure 63
0002
0000
2000
3000
2000
3003
0001
0000
,  // measure 64
0200
0000
0010
0000
,  // measure 65
0320
0000
2000
0000
,  // measure 66
0000
0000
0000
0000
,  // measure 67
0000
0000
3030
0000
;
