#TITLE:Crying;
#SUBTITLE:So, All we have (not) created equal;
#ARTIST:回路-kairo-;
#TITLETRANSLIT:Crying;
#SUBTITLETRANSLIT:So, All we have (not) created equal;
#ARTISTTRANSLIT:回路-kairo-;
#GENRE:Otaku's Dream 4th Mix (Pad);
#CREDIT:Itsugo15;
#BANNER:Crying-bn.png;
#BACKGROUND:Crying-bg.png;
#JACKET:Crying-Jacket.png;
#LYRICSPATH:Crying.lrc;
#CDTITLE:Itsugo15 SimifileS.png;
#MUSIC:Crying.mp3;
#OFFSET:-0.083;
#SAMPLESTART:53.760;
#SAMPLELENGTH:30.000;
#SELECTABLE:YES;
#LISTSORT:;
#BPMS:0.000=174.000;
#STOPS:;
#TICKCOUNT:0.000=6;
#BGCHANGES:8.000=Crying-bg1.jpg=1.000=1=0=0,
39.500=Crying-bg9.jpg=1.000=1=0=0,
72.000=Crying-bg10.jpg=1.000=1=0=0,
88.000=Crying-bg11.jpg=1.000=1=0=0,
112.000=Crying-bg12.jpg=1.000=1=0=0,
128.000=Crying-bg13.jpg=1.000=1=0=0,
144.000=Crying-bg5.jpg=1.000=1=0=0,
156.000=Crying-bg6.jpg=1.000=0=0=0,
160.000=Crying-bg8.jpg=1.000=1=0=0,
192.000=Crying-bg2.jpg=1.000=1=0=0,
224.500=Crying-bg3.jpg=1.000=1=0=0,
256.000=Crying-bg7.jpg=1.000=1=0=0,
288.000=Crying-bg4.jpg=1.000=1=0=0,
327.000=Crying-bg.png=1.000=1=0=0,
99999=-nosongbg-=1.000=0=0=0 // don't automatically add -songbackground-
;
#KEYSOUNDS:;
#ATTACKS:;

//---------------dance-single - Itsugo15----------------
#NOTES:
     dance-single:
     Itsugo15:
     Challenge:
     11:
     0.753,0.885,0.901,0.346,0.195: // measure 1
0000
0000
0000
0000
,  // measure 2
0000
0000
0000
0000
,  // measure 3
0202
0000
0000
0000
,  // measure 4
0000
0000
0303
0001
0000
1000
0010
0000
,  // measure 5
2020
0000
0000
0000
,  // measure 6
0000
0000
3030
0000
0000
0000
0010
1000
0001
0000
0010
0000
0100
0000
1000
0000
,  // measure 7
1100
0000
0001
1001
0000
1000
1010
0100
,  // measure 8
0001
0101
0100
0001
0011
0001
1001
1000
,  // measure 9
1100
0010
0001
0101
0001
1000
1001
0100
,  // measure 10
1000
0010
0100
0000
0001
0000
1000
0000
1001
0000
0110
0000
0000
0000
1001
0000
,  // measure 11
0000
0100
0010
1000
0001
0010
0100
0010
,  // measure 12
0001
1000
0100
0010
0001
1000
0010
1010
,  // measure 13
0000
1000
0010
0001
0010
0100
0001
0010
,  // measure 14
2000
3020
0230
2300
3002
0023
0130
0110
,  // measure 15
0000
0010
0001
0100
0010
1000
0100
0001
,  // measure 16
0100
1000
0010
0100
0001
0100
0010
0110
,  // measure 17
0000
0010
1000
0001
0010
0100
0001
0200
,  // measure 18
2300
3200
0320
0031
1001
0001
0011
0000
,  // measure 19
1001
0000
0001
1000
0001
0010
0000
0011
,  // measure 20
0000
0000
0011
0000
0000
0000
0001
0000
0100
0000
0010
1000
0010
0000
1000
0000
,  // measure 21
1001
0000
0011
0000
0011
0100
1000
1100
,  // measure 22
0000
0000
0011
0000
0000
0000
0001
0000
0100
0000
0010
1000
0010
1000
0010
1000
,  // measure 23
0020
0230
0302
0023
,  // measure 24
2030
3020
0032
1003
,  // measure 25
1001
0000
0001
1000
0001
0010
0000
0011
,  // measure 26
0000
0000
0011
0000
0000
0000
0001
0000
0100
0000
0010
1000
0001
0000
1000
0000
,  // measure 27
1001
0000
1100
0000
1100
0010
0001
0011
,  // measure 28
0000
0000
1100
0000
0000
0000
1000
0000
0010
0000
0100
0001
0100
0001
0100
0001
,  // measure 29
0200
0320
2030
3200
,  // measure 30
0302
0023
2030
3002
,  // measure 31
0023
0230
2300
3002
,  // measure 32
0103
0010
0100
0001
1000
0000
0002
0000
1000
0000
1000
0000
1000
0000
1003
0000
,  // measure 33
1001
0000
1000
0000
0010
0000
0100
0000
0010
0000
1000
0000
0001
0000
0010
0100
,  // measure 34
1000
0000
0100
0000
0010
0000
0001
0000
1000
0000
0010
0000
1000
0000
0001
1000
,  // measure 35
0100
0000
0001
0000
0100
0000
0010
0000
0001
0000
1000
0000
0010
0000
0100
0001
,  // measure 36
1000
0000
0100
0000
1000
0000
0010
0100
0001
0000
0100
0000
0010
0000
1000
0001
,  // measure 37
0010
0000
0100
0000
0010
0000
0001
0000
0100
0000
0010
0000
0100
0000
0001
1000
,  // measure 38
0100
0000
0010
0000
0001
0000
0100
0000
0001
0000
1000
0000
0010
0000
1000
0001
,  // measure 39
2000
0000
0001
0000
0001
0000
0001
3001
,  // measure 40
1001
MMM0
0MMM
MMMM
,  // measure 41
1111
0000
0010
0000
0100
0001
0100
0110
,  // measure 42
0000
1000
0001
0010
0011
0000
0001
1000
,  // measure 43
2010
0000
3001
0000
0100
0010
1000
1010
,  // measure 44
0000
0001
0010
0011
0001
1000
1010
0001
,  // measure 45
0101
0000
1001
0000
1000
0100
0010
0110
,  // measure 46
0000
0010
0001
1000
1001
0000
1000
0010
,  // measure 47
1010
0000
0101
0011
0000
0110
0000
0110
,  // measure 48
0000
1001
0000
1010
1000
1001
0001
1001
,  // measure 49
0110
0010
1000
1010
0001
0010
0011
0010
,  // measure 50
0100
0000
0110
0000
0100
0000
1000
0000
1100
0000
0100
0010
0001
0010
0100
0010
,  // measure 51
0001
0010
0100
1000
0001
0100
0010
0110
,  // measure 52
0000
1010
0000
0011
0000
0110
0000
1100
,  // measure 53
2002
3000
0100
0000
0013
0001
1000
1001
,  // measure 54
0000
0001
0100
0010
0110
0000
0010
1000
,  // measure 55
1010
0000
1100
0110
0000
0011
0000
1001
,  // measure 56
0000
0000
0000
1010
0000
0000
0000
0000
0000
0101
0000
0000
1001
0000
0000
0000
0001
0000
1000
0000
0100
0000
0010
0000
,  // measure 57
0001
0000
1000
0100
1100
0000
0001
0100
,  // measure 58
0101
0000
0000
0000
0000
0000
0000
0000
0000
0000
0000
0000
0010
0000
0000
0000
0000
0000
1000
0000
0000
0001
0000
0000
0010
0000
0000
0000
0000
0000
0000
0000
0100
0000
0000
0000
1000
0000
0000
0000
0001
0000
0000
0000
0100
0000
0000
0000
,  // measure 59
0010
0000
0010
1000
1010
0000
0001
0010
,  // measure 60
0011
0000
0000
0000
0000
0000
0000
0000
0000
0000
0000
0000
1000
0000
0000
0000
0000
0000
0010
0000
0000
0100
0000
0000
0001
0000
0000
0000
0010
0000
0000
0000
0100
0000
0000
0000
1000
0000
0000
0000
0100
0000
0000
0000
0010
0000
0000
0000
,  // measure 61
0001
0000
0100
0010
0110
0000
1000
0001
,  // measure 62
1001
0000
0000
0000
0001
0000
1000
0000
0100
0000
0010
0001
0010
0000
0100
0000
,  // measure 63
0110
0000
0001
1000
1001
0000
0100
0010
,  // measure 64
0110
0000
0000
0000
0000
0000
0000
0000
0000
0000
0000
0000
0100
0000
0000
0000
0000
0000
0010
0000
0000
1000
0000
0000
0001
0000
0000
0000
1000
0000
0000
0000
0010
0000
0000
0000
0100
0000
0000
0000
0001
0000
0000
0000
1000
0000
0000
0000
,  // measure 65
0100
0000
1000
0001
1001
0000
0001
1000
,  // measure 66
1001
0000
0000
0000
1000
0000
0100
0000
1100
0000
0100
0010
0001
0000
1000
0000
,  // measure 67
1010
0000
0001
1000
1001
0000
0010
0100
,  // measure 68
0110
0000
0000
0000
0000
0000
1010
0000
0000
0000
0000
0000
1001
0000
0000
0000
0001
0010
0000
0000
0000
0000
0000
0000
1001
0000
0000
0000
0000
0000
0000
0000
,  // measure 69
0101
0000
0010
1000
1010
0000
1000
0001
,  // measure 70
1001
0000
0000
0000
1000
0000
0100
0000
0010
0000
0001
0010
0001
0000
1000
0000
,  // measure 71
1010
0000
0010
0100
0110
0000
1000
0001
,  // measure 72
1001
0000
0000
0000
0100
0000
0000
0100
0010
0000
0000
0000
0011
0000
0000
0000
,  // measure 73
2002
0000
0000
0000
,  // measure 74
0000
0000
0000
0000
,  // measure 75
0000
0000
0000
0000
,  // measure 76
0000
0000
0000
0000
,  // measure 77
0000
0000
0000
0000
,  // measure 78
0000
0000
0000
0000
,  // measure 79
0000
0000
0000
0000
,  // measure 80
0000
0000
0000
0000
,  // measure 81
0000
0000
0000
0000
,  // measure 82
0000
0000
0000
3003
;

//---------------dance-single - Itsugo15----------------
#NOTES:
     dance-single:
     Itsugo15:
     Beginner:
     3:
     0.115,0.195,0.199,0.017,0.000:
0000
0000
0000
0000
,
0000
0000
0000
0000
,
1000
0000
0000
0000
,
0000
0000
0000
0000
,
0001
0000
0000
0000
,
0000
0000
0000
0000
,
0100
0000
0000
0000
,
0000
0000
0000
0000
,
0010
0000
0000
0000
,
1000
0000
0000
0000
0000
0000
0000
1010
,
0000
0000
0000
0000
,
1000
0000
0000
0000
0000
0000
0000
0001
,
0000
0000
0000
0000
,
0010
0000
0000
0000
0000
0000
0000
0100
,
0000
0000
0000
0000
,
1000
0000
0000
0000
0000
0000
0000
0001
,
0000
0000
0000
0000
,
1000
0000
0000
0000
,
1001
0000
0000
0000
0000
0000
0000
0001
,
0000
0000
0000
0000
,
1001
0000
0000
0000
0000
0000
0000
1000
,
0000
0000
0000
0000
,
0010
0000
0000
0000
,
0100
0000
0000
0000
,
0001
0000
0000
0000
0000
0000
0000
0100
,
0000
0000
0000
0000
,
0010
0000
0000
0000
0000
0000
0000
1000
,
0000
0000
0000
0000
,
0001
0000
0000
0000
,
0010
0000
0000
0000
,
0100
0000
0000
0000
,
1000
0000
0000
0000
,
0001
0000
0000
0000
,
0001
0000
0000
0000
,
0001
0000
0000
0000
,
0001
0000
0000
0000
,
1000
0000
0000
0000
,
1000
0000
0000
0000
,
1000
0000
0000
0000
,
1001
0000
0000
0000
,
0110
0000
0000
0000
,
0010
0000
0000
0000
,
1000
0000
0000
0000
,
0001
0000
0000
0000
,
0010
0000
0000
0000
,
0100
0000
0000
0000
,
1000
0000
0000
0000
,
0100
0000
0000
0000
,
0010
0000
0000
0001
,
0000
0000
0000
0000
,
1001
0000
0000
0000
,
1000
0000
0000
0000
,
0010
0000
0000
0000
,
0100
0000
0000
0000
,
0001
0000
0000
0000
,
1000
0000
0000
0000
,
1001
0000
0000
0000
,
1001
0000
0000
0000
,
0110
0000
0000
0000
,
0110
0000
0000
0000
,
0101
0000
0000
0000
,
0101
0000
0000
0000
,
1010
0000
0000
0000
,
1010
0000
0000
0000
,
0011
0000
0000
0000
,
0011
0000
0000
0000
,
1100
0000
0000
0000
,
1100
0000
0000
0000
,
1001
0000
0000
0000
,
1001
0000
0000
0000
,
0110
0000
0000
0000
,
0110
0000
0000
0000
,
2002
0000
0000
0000
,
0000
0000
0000
0000
,
0000
0000
0000
0000
,
3003
0000
0000
0000
;

//---------------dance-single - Itsugo15----------------
#NOTES:
     dance-single:
     Itsugo15:
     Easy:
     5:
     0.187,0.333,0.251,0.052,0.000:
0000
0000
0000
0000
,
0000
0000
0000
0000
,
2000
0000
0000
0000
,
0000
0000
0000
0000
,
3002
0000
0000
0000
,
0000
0000
0000
0000
,
0103
0000
0000
0000
,
0010
0000
0000
0000
,
1000
0000
0000
0000
,
0001
0000
0000
0000
0000
0000
0000
1001
,
0000
0000
0000
0000
,
1000
0000
0000
0000
0000
0000
0000
0100
,
0000
0000
0000
0000
,
0010
0000
0000
0000
0000
0000
0000
0001
,
0000
0000
0000
0000
,
1000
0000
0000
0000
0000
0000
0000
0010
,
0000
0000
0000
0000
,
0100
0000
0000
0000
,
0110
0000
0000
0000
0000
0000
0000
0100
,
0000
0100
0000
0000
0000
0000
0000
0000
,
0101
0000
0000
0000
0000
0000
0000
0001
,
0000
0001
0000
0000
0000
0000
0000
0000
,
1000
0000
0100
0000
,
0010
0000
0001
0000
,
0011
0000
0000
0000
0000
0000
0000
0001
,
0000
0001
0000
0000
0000
0000
0000
0000
,
1001
0000
0000
0000
0000
0000
0000
1000
,
0000
1000
0000
0000
0000
0000
0000
0000
,
0010
0000
0100
0000
,
0001
0000
1000
0000
,
0100
0000
0010
0000
,
0001
0000
2000
3000
,
0001
0000
0001
0000
,
0010
0000
0010
0000
,
0100
0000
0100
0000
,
1000
0000
1000
0000
,
0001
0000
0001
0000
,
1000
0000
1000
0000
,
0010
0000
0100
0000
,
0110
0000
0000
0000
,
1001
0000
0001
0000
,
0100
0000
0010
0000
,
1000
0000
0001
0000
,
0010
0000
0100
0000
,
1000
0000
0001
0000
,
0100
0000
0010
0000
,
1000
0000
0100
0000
,
1000
0000
0010
0000
,
0100
0000
0000
0001
0000
0000
1000
0000
,
0000
0100
0000
0000
0010
0000
0001
0000
,
0011
0000
0010
0000
,
0001
0000
0100
0000
,
0010
0000
0100
0000
,
0001
0000
1000
0000
,
0100
0000
1000
0000
,
0010
0000
0200
0300
,
0110
0000
0010
0000
,
0110
0000
0000
0000
,
0001
0000
1001
0000
,
1000
0000
0000
0000
,
1100
0000
1000
0000
,
1100
0000
0000
0000
,
0011
0000
0010
0000
,
0011
0000
0000
0000
,
1001
0000
0001
0000
,
1001
0000
1000
0000
,
1001
0000
0001
0000
,
0101
0000
1010
0000
,
1001
0000
1100
0000
,
0011
0000
1001
0000
,
0110
0000
1001
0000
,
0110
0000
1001
0000
,
0220
0000
0000
0000
,
0000
0000
0000
0000
,
0000
0000
0000
0000
,
0000
0000
0000
0000
,
0000
0000
0000
0000
,
0330
0000
0000
0000
;

//---------------dance-single - Itsugo15----------------
#NOTES:
     dance-single:
     Itsugo15:
     Medium:
     7:
     0.444,0.637,0.563,0.130,0.000:
0000
0000
0000
0000
,
0000
0000
0000
0000
,
2200
0000
0000
0000
,
0000
0000
0000
3300
0000
0000
0000
0000
,
0202
0000
0000
0000
,
0000
0000
0000
0303
0000
0000
0000
0000
,
1001
0000
0000
0001
0000
0000
0010
0000
,
0000
0100
0000
0000
1000
0000
0001
0000
,
0100
0000
0000
0010
0000
0000
1000
0000
,
0001
0000
0020
0000
0001
0031
0000
1001
,
0000
1000
0000
0010
,
0000
0000
0100
0000
0000
0000
0001
0101
,
0000
0100
0000
0010
,
0000
0000
1000
0000
0000
0000
0001
1001
,
0000
1000
0000
0100
,
0000
0000
0010
0000
0000
0000
0001
0011
,
0000
0010
0000
0100
,
0000
1000
1100
1001
,
0101
0000
0001
0100
0001
2000
0000
0001
,
0000
3001
0000
0001
1000
0000
0100
0010
,
0110
0000
0010
0100
0010
0002
0000
1000
,
0000
1003
0000
0001
0200
0000
0320
0000
,
1030
0001
0010
0100
,
1000
0100
0010
0001
,
0011
0000
0001
0010
0001
2000
0000
0010
,
0000
3010
0000
0010
1000
0000
0001
1000
,
1001
0000
0001
1000
0001
0200
0000
0010
,
0000
0310
0000
0100
0001
0000
2000
0000
,
3001
0010
1000
0010
,
0001
0100
1000
0001
,
1000
0100
0010
1000
,
0001
0010
0200
0010
,
1300
1000
1100
0100
,
0010
0010
0110
0010
,
0001
0001
0011
0001
,
1000
1000
1001
1000
,
0010
0010
1010
0010
,
0100
0100
0110
0100
,
0001
0001
0101
0001
,
1001
0000
0000
0000
,
1100
0000
0100
0000
1000
0001
0000
1001
,
0000
0001
0000
0100
0010
0000
1000
0001
,
1001
0000
0001
0000
0010
0100
0000
1000
,
0000
0100
0000
0010
0001
0000
1000
0010
,
1010
0000
1000
0000
0001
0010
0000
0100
,
0000
0010
0000
0001
1000
0000
0010
0100
,
0110
0000
0100
0001
0000
0001
0000
1000
,
0000
1000
0000
0100
0000
0010
0001
1000
,
1001
0000
0000
1010
0000
0000
0101
0000
,
0000
1001
0000
1100
0000
0010
0001
0000
,
0011
0000
0001
0000
1000
0010
0100
0001
,
0000
1000
0000
0100
0000
1000
0000
0010
,
1010
0101
0001
1000
,
0100
0000
0010
0001
1000
0000
0010
1000
,
0001
0000
0010
0100
0000
1000
0000
0001
,
0000
0100
0000
0010
1000
0000
0100
0010
,
0110
0000
1001
0000
,
0110
0000
0000
0000
1001
0000
1000
0010
,
1010
0000
0101
0000
,
0011
0000
0000
0000
1100
0000
1000
0001
,
1001
0000
0101
0000
,
1001
0000
0000
0000
1100
0000
0100
0010
,
0110
0000
0011
0000
,
1001
0000
0001
0000
1000
0000
0010
0100
,
0110
0000
0100
0001
0101
0000
0001
1000
,
1001
0000
0001
1000
0100
0000
0100
0010
,
0110
0000
0010
0001
0011
0000
0001
1000
,
1001
0000
1000
0010
0100
0000
0001
0000
,
0101
0000
0001
1000
1001
0000
1000
0100
,
1100
0000
0100
0010
0001
0000
0011
0000
,
1001
0000
1000
0010
1010
0000
0001
0100
,
0101
0000
0001
1000
1001
0000
0110
0000
,
2002
0000
0000
0000
,
0000
0000
0000
0000
,
0000
0000
0000
0000
,
0000
0000
0000
0000
,
0000
0000
0000
0000
,
0003
0000
0000
0000
,
0000
0000
0000
0000
,
0000
0000
0000
0000
,
0000
0000
0000
0000
,
0000
0000
0000
3000
;

//---------------dance-single - Itsugo15----------------
#NOTES:
     dance-single:
     Itsugo15:
     Hard:
     9:
     0.661,0.849,0.901,0.069,0.013:
0000
0000
0000
0000
,
0000
0000
0000
0000
,
2200
0000
0000
0000
,
0000
0000
3300
0100
0000
1000
0001
0000
,
2002
0000
0000
0000
,
0000
0000
3003
0001
1000
0010
0100
0001
,
0101
0000
0001
1001
0000
1000
1100
0000
,
0100
0110
0000
0010
0011
1000
1100
0000
,
1001
0000
0001
0101
0000
1000
1010
0000
,
0001
1000
0100
0000
1100
1100
0000
0011
,
0000
0001
1000
0001
0100
0001
1000
0001
,
0100
0001
1000
0100
0010
0001
1000
1001
,
0000
1000
0010
1000
0001
1000
0010
1000
,
0001
0010
0100
1000
0100
0010
0001
0011
,
0000
0001
0010
0100
0010
0001
0010
0100
,
0010
0001
0010
0100
1000
0001
0100
0101
,
0000
0100
0010
1000
0001
1000
0010
0100
,
0001
1000
1001
0000
1001
0000
0110
0000
,
1001
0000
0001
0100
0010
1000
0000
1010
,
0000
1010
0000
1000
0001
0000
0010
0001
,
0011
0000
0001
0010
0100
1000
0000
1100
,
0000
1100
0000
1000
0001
0000
0200
0000
,
0310
0000
1000
0010
1000
0000
0001
1000
,
0001
0000
0010
0001
0010
0000
0100
0000
,
0110
0000
0100
1000
0001
0100
0000
0101
,
0000
0101
0000
0001
1000
0000
0100
0010
,
0110
0000
0100
1000
0001
0010
0000
0011
,
0000
0011
0000
0001
1000
0000
0020
0000
,
0130
0000
0001
1000
0100
0000
1000
0001
,
0100
0000
0001
1000
0010
0000
1000
0001
,
0010
0000
0100
1000
0010
0000
0100
0001
,
0010
0000
0011
0000
0001
1000
0001
1000
,
0001
0100
0001
0100
0001
0100
0001
0100
,
0001
1000
0001
1000
0001
1000
0001
1000
,
0100
1000
0100
1000
0100
1000
0100
1000
,
0100
0010
0100
0010
0100
0010
0100
0010
,
0001
0010
0001
0010
0001
1000
0001
1000
,
0001
0100
0001
0100
0001
1000
0001
1000
,
0100
1000
0100
1000
0100
0010
0001
1000
,
1001
0000
0000
0000
,
0110
0000
0101
0000
0001
1000
0100
1100
,
0000
0100
0010
0001
0011
0000
1000
0010
,
1010
0000
0101
0000
0001
1000
0100
1100
,
0000
0100
0010
0001
0011
0000
0001
1000
,
1001
0000
1010
0000
0010
0100
0001
0101
,
0000
0001
1000
0100
1100
0000
0001
0100
,
0101
0000
1010
1010
0000
0101
0000
1001
,
0000
0011
0000
0110
0000
0100
1000
0001
,
1001
0001
0100
0101
0100
0010
0110
0010
,
1000
0000
1010
0000
1000
0000
0001
0000
1001
0000
0001
0010
0001
0000
1000
0000
,
1001
0000
1000
0010
0100
0001
1000
1001
,
0000
0110
0000
1001
0000
0001
0010
0000
,
0011
0000
1001
0000
1000
0010
0100
0110
,
0000
0100
0001
1000
1001
0000
0001
0010
,
0011
0000
1100
1100
0000
1001
0000
0101
,
0000
1010
1000
0001
1001
0000
0001
1000
,
1001
0000
0100
1000
1100
0000
0100
0010
,
0110
0000
0010
0000
0001
1000
0010
0100
,
0101
0000
0001
1000
1001
0000
1000
0100
,
1100
0000
0100
0000
0010
0001
0010
0100
,
0110
0000
0100
1000
1100
0000
1000
0001
,
1001
0000
0001
0000
0100
0010
1000
0010
,
1010
0000
1000
0001
1001
0000
0001
0010
,
0011
0000
0010
0000
0100
1000
0001
0100
,
0101
0001
1000
0100
1100
1000
0100
0010
,
0110
0000
0100
0000
0010
0000
0001
0000
0011
0000
0010
0100
1000
0000
0001
0000
,
1001
0001
0100
0010
0110
0100
0010
1000
,
1010
0000
0000
1000
0000
0000
0001
0000
0011
0000
0000
0000
1100
0000
0000
0000
,
1001
0000
0001
0100
0101
0000
1000
0010
,
1010
0000
1000
0001
0011
0000
0100
1000
,
1100
0000
1000
0001
1001
0000
0001
0100
,
0101
0000
0100
0010
0110
0000
1001
0000
,
0220
0000
0000
0000
,
0000
0000
0000
0000
,
0000
0000
0000
0000
,
0000
0000
0000
0000
,
0000
0000
0000
0000
,
0000
0000
0000
0000
,
0000
0000
0000
0000
,
0000
0000
0000
0000
,
0000
0000
0000
0000
,
0000
0000
0000
0330
;
