#TITLE:Clattanoia;
#SUBTITLE:オーバーロード;
#ARTIST:OxT (オーイシマサヨシ×Tom-H@ck);
#TITLETRANSLIT:Clattanoia;
#SUBTITLETRANSLIT:OVERLORD;
#ARTISTTRANSLIT:OxT (Ooishi Masayoshi × Tom-H@ck);
#GENRE:Anime;
#CREDIT:Huzure & Itsugo;
#BANNER:Overlord-bn.png;
#BACKGROUND:Overlord-bg.png;
#JACKET:Overlord-Jacket.png;
#LYRICSPATH:Clattanoia.png;
#CDTITLE:Collab.png;
#MUSIC:Clattanoia.mp3;
#OFFSET:-0.090;
#SAMPLESTART:50.688;
#SAMPLELENGTH:21.060;
#SELECTABLE:YES;
#BPMS:0.000=190.000;
#STOPS:;
#TICKCOUNT:0.000=6;
#BGCHANGES:-0.500=Overlord OP.avi=1.000=1=0=0,
281.000=Overlord-bg.png=1.000=1=0=0,
99999=-nosongbg-=1.000=0=0=0 // don't automatically add -songbackground-
;

//---------------dance-single - Itsugo15----------------
#NOTES:
     dance-single:
     Itsugo15:
     Challenge:
     13:
     1.000,1.000,1.000,0.922,0.494: // measure 1
0000
0000
0000
0000
0000
0000
0000
1001
,  // measure 2
M00M
0010
0100
0001
0100
1000
0001
2002
,  // measure 3
0000
3000
0200
0003
2000
0300
0002
3000
,  // measure 4
0020
0003
2000
3030
1010
0011
0000
2002
,  // measure 5
0000
0003
0200
3000
0002
0300
2000
0003
,  // measure 6
0020
0000
3000
0000
0002
0000
0033
0000
0001
0010
0001
1000
0000
0000
1100
0000
,  // measure 7
0000
1010
0000
0010
0100
0101
00M0
0010
,  // measure 8
0100
0000
0101
0000
00M0
0000
0001
1000
0100
0000
1100
0000
0000
0000
0110
0000
,  // measure 9
0000
0011
0000
0001
1000
1010
000M
0001
,  // measure 10
1000
0000
1010
0000
000M
0000
0010
0100
0001
0000
1000
0000
1001
0000
0011
0000
,  // measure 11
0000
0101
0000
0100
0010
1M10
0000
0100
,  // measure 12
0010
0000
1M10
0000
0000
0000
1000
0001
0010
0000
0011
0000
0000
0000
0110
0000
,  // measure 13
0000
1100
0000
1000
0001
M101
0000
1000
,  // measure 14
0001
0000
0100
0001
0100
0010
1000
0001
1000
0001
0010
0100
1000
0001
0100
0000
,  // measure 15
0101
0001
0100
0010
0010
1000
0001
0010
,  // measure 16
0010
0100
0100
1000
1000
0100
0010
0001
,  // measure 17
0010
0010
0100
1000
0001
0001
0100
0010
,  // measure 18
0001
1000
0100
0001
1000
0010
0100
0001
,  // measure 19
0101
0100
0001
0001
1000
0100
0001
1000
,  // measure 20
0010
0001
1000
0010
0001
1000
0100
0010
,  // measure 21
1000
0001
0010
0100
0002
1000
1000
0103
,  // measure 22
0001
0100
0010
0000
0001
0000
1000
0010
0100
0000
0110
0000
0010
0100
0001
1000
,  // measure 23
0200
0301
2000
3001
0020
0031
2000
3001
,  // measure 24
0200
0310
0002
1003
0020
0130
2000
3001
,  // measure 25
1001
0000
0000
2100
0000
3000
0000
0000
0000
1100
0000
0000
0110
0000
0000
1010
0000
0000
0000
0000
0000
1010
0000
0000
,  // measure 26
1001
0012
0010
0100
1000
1003
1001
1010
,  // measure 27
0200
0302
0023
2030
3002
0203
2300
0100
,  // measure 28
0001
0000
0000
0000
0000
0000
0000
0000
3010
0000
0000
0000
0000
0000
0000
0000
1001
0000
0000
0000
0000
0000
0000
0000
0011
0000
0000
0000
0000
0000
0000
0000
0010
0000
0000
0000
0000
0000
0000
0000
0001
0000
0000
0000
0000
0000
0000
0000
1000
0000
0000
0000
0000
0000
0000
0000
0010
0000
0000
0000
0000
0000
0000
1000
,  // measure 29
0100
0010
0000
0000
0000
0000
0000
0000
0000
0000
0000
0000
0000
0000
0000
0100
0010
0001
0000
0000
0000
0000
0000
0000
0000
0000
0000
0000
0000
0000
0000
1000
0100
0001
0000
0000
0000
0000
0000
0000
0000
0000
0000
0000
0000
0000
0000
0001
0010
1000
0000
0000
0000
0000
0000
0000
0000
0000
0000
0000
0000
0000
0000
0000
,  // measure 30
1001
0000
0001
0010
0011
0000
0001
0000
1001
0000
1000
0010
1010
0000
1000
0000
,  // measure 31
1001
0011
1001
2020
,  // measure 32
3000
1030
0010
0001
0011
0010
0110
0100
,  // measure 33
0001
0010
0200
0000
0000
0300
1000
0010
,  // measure 34
1000
0001
0010
0100
1000
0001
1001
0001
,  // measure 35
0101
0100
0110
0010
1010
0000
0101
0000
,  // measure 36
2200
0300
0002
0000
3003
1001
0101
0001
,  // measure 37
1001
0100
1001
0001
0010
0100
0110
0000
,  // measure 38
0010
0011
0001
1000
1001
M00M
1010
M0M0
,  // measure 39
0011
00MM
1100
MM00
0101
00MM
0011
00MM
,  // measure 40
1100
1010
0000
0101
0011
0000
0110
1001
,  // measure 41
000M
000M
001M
0000
1000
0000
0010
0000
0100
0000
1000
0000
0001
0000
1022
0000
,  // measure 42
0000
0030
2200
0003
0020
3300
0202
0030
,  // measure 43
2000
0303
0200
3300
0100
0010
0000
2021
,  // measure 44
0000
0030
0202
3000
0020
0303
2200
0030
,  // measure 45
0002
3300
0200
0303
0100
0010
0000
0111
,  // measure 46
0000
0000
0001
0000
0010
0000
0100
1000
0100
0010
0100
0000
1000
0000
1110
0000
,  // measure 47
0000
0000
0100
0000
0010
0000
0001
1000
0010
1000
0001
0000
1000
0000
1001
0000
,  // measure 48
0001
1000
0001
0000
1000
0010
1000
0000
0001
0100
0001
0000
1000
0100
1000
0000
,  // measure 49
0100
0010
0001
0010
0100
1000
0001
0100
0010
1000
0100
0010
0001
1000
2201
0000
,  // measure 50
0300
0011
0022
3000
0233
1010
2020
0300
,  // measure 51
3032
0010
0020
0033
0010
0100
0000
1202
,  // measure 52
0300
1010
2020
0003
3231
0011
0022
0300
,  // measure 53
2033
0010
0020
3030
0010
0100
0000
1110
,  // measure 54
0000
0000
1000
0000
0100
0000
0010
0100
0010
0000
0001
0010
0001
0000
0111
0000
,  // measure 55
0000
0000
0010
0000
0100
0000
1000
0001
1000
0000
0010
0100
0010
0000
0110
0000
,  // measure 56
1000
0001
1000
0000
0001
0100
0001
0000
1000
0010
1000
0000
0001
0000
1001
0000
,  // measure 57
1000
0000
0001
0100
0010
1000
0001
0010
0100
1000
0010
0100
0001
1000
2002
0000
,  // measure 58
3003
0000
0001
0000
0101
0000
1000
0000
1010
0000
0100
0000
1100
0000
1000
0001
,  // measure 59
0011
1000
1001
0010
0110
1000
1001
0202
,  // measure 60
0303
0000
0001
0000
1100
0000
1000
0000
0011
0000
0001
1000
1010
0000
1000
0001
,  // measure 61
0101
0100
1010
0100
0011
0001
1100
2002
,  // measure 62
3003
0010
0101
0100
1010
0001
1100
1000
,  // measure 63
0011
0001
0101
1000
1010
0001
1001
0120
,  // measure 64
1000
1000
0001
0100
0230
0001
0001
1300
,  // measure 65
0110
0000
1010
0000
0001
0011
0000
0110
,  // measure 66
0000
0000
0100
0000
1000
0001
0100
0010
1000
0001
0010
0100
0010
0001
0100
0010
,  // measure 67
1000
0100
0010
0001
0100
0010
1000
0001
0010
0100
1000
0010
0100
0001
1000
0100
,  // measure 68
0010
0001
0100
0010
1000
0001
0010
0100
1000
0001
0100
0010
1000
0100
0010
0001
,  // measure 69
0100
0000
0010
0000
1000
0000
0100
0000
1000
0000
0010
0000
0100
0000
0001
0000
1000
0000
0000
0000
1000
0000
0100
0000
0010
0001
1000
0010
0200
0000
0000
0000
,  // measure 70
0000
0000
0000
0000
,  // measure 71
0000
M000
000M
03M0
0M00
0000
0000
0000
0000
0000
0000
0000
0000
0000
0000
0000
;

//---------------dance-single - Itsugo15----------------
#NOTES:
     dance-single:
     Itsugo15:
     Medium:
     7:
     0.552,0.546,0.444,0.489,0.000: // measure 1
0000
0000
0000
0000
,  // measure 2
0000
0000
0000
0000
0000
0000
0000
1010
,  // measure 3
0000
2000
3020
0230
,  // measure 4
0302
0000
0003
0000
0100
0001
0000
0101
,  // measure 5
0000
0002
0023
0230
,  // measure 6
2300
0000
3000
0000
0100
1000
0000
1100
,  // measure 7
0000
1001
0000
0001
1000
0001
0000
1000
,  // measure 8
0001
1000
0000
0010
0000
0100
0000
0110
,  // measure 9
0000
0101
0000
0001
0100
0001
0000
0100
,  // measure 10
0001
0100
0000
0001
0000
1000
0000
1001
,  // measure 11
0000
0011
0000
0001
0010
0001
0000
0010
,  // measure 12
0001
0010
0000
0100
0000
1000
0000
1100
,  // measure 13
0000
1001
0000
0001
1000
0001
0000
1000
,  // measure 14
0001
1000
0000
0010
0000
0100
0000
0000
,  // measure 15
0110
0100
0001
1000
,  // measure 16
0100
0100
0010
0010
,  // measure 17
0001
1000
0010
0001
,  // measure 18
0010
0000
1000
0000
0002
0000
0000
0003
,  // measure 19
1001
0001
1000
0100
,  // measure 20
0010
0001
0010
0100
,  // measure 21
1000
1000
0002
0003
,  // measure 22
0001
0000
0001
0000
2000
0000
0000
3000
,  // measure 23
1001
0001
0100
0010
,  // measure 24
1000
0001
0010
0100
,  // measure 25
1000
1000
0100
0100
,  // measure 26
0010
0000
0010
0000
0002
0000
0000
0003
,  // measure 27
0011
0010
0001
0100
,  // measure 28
0010
1000
0100
1000
,  // measure 29
1100
1001
1100
1000
,  // measure 30
0001
0100
0010
0100
,  // measure 31
0002
0000
0000
2003
,  // measure 32
0000
0100
0100
3100
,  // measure 33
0010
0000
0000
0000
0220
0000
0000
0000
0000
0330
0000
0000
0010
0000
0000
0000
,  // measure 34
0001
1000
0010
0100
,  // measure 35
0001
1000
2001
0100
,  // measure 36
0100
3002
0000
0100
,  // measure 37
0100
1003
0100
0020
,  // measure 38
0000
0031
0011
1001
,  // measure 39
1001
0110
1001
1001
,  // measure 40
1000
0010
0000
0100
0001
0000
1000
0200
,  // measure 41
0000
0300
0000
0000
0000
0000
0000
1001
,  // measure 42
0000
0002
0203
2300
,  // measure 43
3200
0000
0300
0000
0001
1000
0000
1001
,  // measure 44
0000
2000
3200
0302
,  // measure 45
0203
0000
0300
0000
1000
0100
0000
1100
,  // measure 46
0000
0000
1000
0000
1000
0001
0000
1001
,  // measure 47
0000
0000
0001
0000
1000
0010
0000
0002
,  // measure 48
0000
0000
0023
0000
0130
0000
0001
1000
,  // measure 49
0000
1000
0001
0000
0001
0010
0000
0011
,  // measure 50
0000
0020
0032
2003
,  // measure 51
3020
0000
0030
0000
0100
0001
0000
0101
,  // measure 52
0000
0200
0302
2003
,  // measure 53
3200
0000
0300
0000
0100
0010
0000
0110
,  // measure 54
0000
0000
0010
0000
0001
1000
0000
1001
,  // measure 55
0000
0000
0001
0000
1000
0010
0000
1010
,  // measure 56
0000
0010
0100
0001
1000
0000
0100
0010
,  // measure 57
0000
0010
0100
0000
1000
0001
0100
0020
,  // measure 58
0000
1000
1000
1000
,  // measure 59
1000
0000
1000
0000
1030
0000
0001
0020
,  // measure 60
0000
0001
0001
0001
,  // measure 61
0001
0000
0001
0000
0031
0000
0001
2000
,  // measure 62
0000
3010
0100
0001
,  // measure 63
1000
0100
0010
0001
,  // measure 64
0011
1000
1100
0001
,  // measure 65
1001
0000
0110
0000
1000
0001
0000
0012
,  // measure 66
0000
0010
0010
1000
,  // measure 67
1000
0100
0103
0001
,  // measure 68
1000
0100
0010
0001
,  // measure 69
1000
0000
0010
0000
0100
0001
0000
0202
,  // measure 70
0000
0000
0000
0000
,  // measure 71
0000
0303
0000
0000
;

//---------------dance-single - Huzure----------------
#NOTES:
     dance-single:
     Huzure:
     Hard:
     11:
     0.923,1.000,0.566,0.400,0.355: // measure 1
0000
0000
0000
0000
,  // measure 2
0000
0000
0000
0000
0000
0000
0000
0110
,  // measure 3
0000
0100
1200
0000
0010
0001
0001
0000
,  // measure 4
0010
1000
1300
0000
0010
0100
0001
1001
,  // measure 5
0000
0100
0201
0000
0010
0001
0001
0000
,  // measure 6
1000
0000
0010
0000
0010
0000
0000
0000
0301
1000
0100
0010
0001
0100
0002
0000
,  // measure 7
0000
0103
0000
0001
0100
1000
0000
0001
,  // measure 8
0010
0000
1000
0000
0000
0000
0001
0010
0001
0000
1000
0000
0100
0000
2000
0000
,  // measure 9
0000
3010
0000
1000
0010
0001
0000
1000
,  // measure 10
0100
0000
0001
0000
0000
0000
0100
0010
1000
0000
0100
0000
1000
0000
0020
0000
,  // measure 11
0000
0130
0000
0001
0010
1000
0000
0001
,  // measure 12
0100
0000
1000
0000
0000
0000
0100
0010
0001
0000
0010
0000
0100
0000
2000
0000
,  // measure 13
0000
3001
0000
0010
0001
0100
0000
1000
,  // measure 14
0100
0000
0010
0000
0000
1000
0002
0000
0200
0000
0003
0310
1000
0100
0010
0001
,  // measure 15
0100
0001
1000
0001
0100
0010
0100
0001
,  // measure 16
1000
0100
0010
0001
2001
0010
3010
0000
,  // measure 17
1000
0010
1000
0000
0001
0000
0100
0001
0100
0000
0001
0000
0000
0000
0100
0000
,  // measure 18
0110
0100
0110
0010
1002
0100
0103
0000
,  // measure 19
0001
0000
0010
0000
0100
0000
0001
0000
0100
0000
1000
0000
0010
0100
0001
0000
,  // measure 20
0010
0100
1000
0002
0000
0020
0003
0031
,  // measure 21
1000
0000
0100
0000
0010
0000
0001
0000
1000
0000
0010
0000
0100
0010
1000
0000
,  // measure 22
0001
0010
0100
0000
1000
0000
0001
0010
0100
0000
1000
0000
1001
0000
0010
0100
,  // measure 23
0010
0010
1001
0000
0001
1000
0001
0000
,  // measure 24
1100
0100
0100
0010
0011
0001
0001
0000
,  // measure 25
0100
0010
0001
0010
0100
0020
0000
1000
,  // measure 26
1000
0000
0100
0000
0100
0000
1000
0000
1030
0000
0000
0000
0001
0100
0010
0100
,  // measure 27
0001
0100
0010
0001
1000
0100
0000
0010
,  // measure 28
1000
0001
0010
0100
0000
0100
1000
0001
,  // measure 29
0100
0000
0000
0000
0220
0000
0330
0000
2002
0000
3003
0000
0220
0000
0330
0001
,  // measure 30
1000
0000
0010
1000
0010
0000
0000
0010
0100
0000
0001
0000
1000
0000
0000
0000
,  // measure 31
1002
0000
0100
0000
0200
0003
0010
0000
,  // measure 32
0000
1000
0020
0300
1000
0230
0010
0302
,  // measure 33
2000
0003
0010
0000
3020
0000
0000
0000
0000
0000
0030
0000
1000
0000
0010
0000
,  // measure 34
0200
0001
0010
1000
0010
0001
0001
1000
,  // measure 35
1000
0001
0301
0100
0110
0000
1001
0000
,  // measure 36
0110
0001
1001
0000
1000
0100
0010
0001
,  // measure 37
1100
0000
1000
0010
1000
0010
0001
0000
,  // measure 38
1000
0100
1000
0100
0001
0000
0101
0000
,  // measure 39
1100
1010
0011
0110
,  // measure 40
1001
0010
0000
1001
0010
0000
1001
0020
,  // measure 41
0000
0030
0000
0000
0000
0000
0000
0110
,  // measure 42
0000
0100
1001
0000
0001
0001
1000
0000
,  // measure 43
1000
1000
0001
0000
0010
0100
0001
1001
,  // measure 44
0000
0100
1010
0000
0010
0010
0001
0000
,  // measure 45
1000
0000
1000
0000
0100
0000
0000
0000
0010
0000
0100
1000
0010
0000
0101
0000
,  // measure 46
0000
0100
0001
0000
0010
0010
0100
1100
,  // measure 47
0000
0010
0011
0000
0001
0100
0010
2000
,  // measure 48
0000
0000
3001
0000
0110
0000
0100
0000
0101
0000
0001
0000
1001
0000
1000
0100
,  // measure 49
1000
0000
0010
0100
0001
0010
0100
1000
0010
0100
0001
0010
0001
0100
0010
0000
,  // measure 50
0000
1000
0020
0000
1000
1000
0100
0000
,  // measure 51
0100
0100
1030
0000
1100
0100
0010
0011
,  // measure 52
0000
0001
0200
0000
1000
0010
0010
0000
,  // measure 53
0010
0010
0301
0010
0100
1000
0001
1001
,  // measure 54
0000
0100
0001
0010
0001
0100
0010
1010
,  // measure 55
0000
0010
0101
0000
0100
0001
1000
0100
,  // measure 56
0000
0100
1100
0100
0010
0001
0100
0002
,  // measure 57
0000
0000
0010
0000
0013
0000
0001
0000
1000
0100
1000
0100
1000
0100
1000
0000
,  // measure 58
0000
0001
0100
0010
0001
0010
0100
0001
,  // measure 59
0100
1000
0100
0010
0100
0001
1000
1100
,  // measure 60
0000
0000
0100
0000
0010
0000
1000
0000
0010
0000
0100
0000
0001
0000
0100
0010
,  // measure 61
0100
0010
0001
0002
1000
2003
0010
3200
,  // measure 62
0000
0310
0001
0010
0001
1000
0100
0010
,  // measure 63
1000
0000
0010
0000
0100
0000
0010
0000
0001
0000
0100
0000
0010
0000
1000
0010
,  // measure 64
1000
0000
1100
0000
0011
0000
1100
1000
,  // measure 65
0001
0000
0101
0000
0100
1000
0100
0110
,  // measure 66
0000
0000
0001
0000
1000
0100
1000
0100
0010
0001
0010
0001
0100
0010
0100
0010
,  // measure 67
1000
0001
0010
0001
1000
0010
0100
0010
1000
0001
0100
0001
0010
0100
1000
0100
,  // measure 68
0010
0001
0010
0001
1000
0010
1000
0010
0100
0010
0100
0010
0100
0001
0100
0001
,  // measure 69
1000
0100
0010
0001
1000
0100
0010
0001
1000
0100
1000
0100
1000
0001
0200
0000
,  // measure 70
0000
0000
0000
0000
,  // measure 71
0000
0300
0000
0000
;

//---------------dance-single - Huzure----------------
#NOTES:
     dance-single:
     Huzure:
     Beginner:
     2:
     0.132,0.195,0.044,0.089,0.000: // measure 1
0000
0000
0000
0000
,  // measure 2
0000
0000
0000
0000
0000
0000
0000
0010
,  // measure 3
0000
0000
0000
0000
0000
0000
0000
1000
,  // measure 4
0000
0000
0000
0000
0000
0000
0000
0010
,  // measure 5
0000
0000
0000
0000
0000
0000
0000
1000
,  // measure 6
0000
0000
0000
0000
0000
0000
0000
0002
,  // measure 7
0000
0000
0003
0000
0000
0000
0000
1000
,  // measure 8
0000
0000
0000
0000
0000
0000
0000
0100
,  // measure 9
0000
0000
0000
0000
0000
0000
0000
0010
,  // measure 10
0000
0000
0000
0000
0000
0000
0000
0002
,  // measure 11
0000
0000
0003
0000
0000
0000
0000
0010
,  // measure 12
0000
0000
0000
0000
0000
0000
0000
0100
,  // measure 13
0000
0000
0000
0000
0000
0000
0000
1000
,  // measure 14
0000
0000
0000
0000
,  // measure 15
0001
0000
0000
0000
,  // measure 16
0100
0000
0000
0000
,  // measure 17
0001
0000
0000
0000
,  // measure 18
1000
0000
0000
0000
,  // measure 19
1000
0000
0000
0000
,  // measure 20
0100
0000
0000
0000
,  // measure 21
1000
0000
0000
0000
,  // measure 22
0010
0000
0000
0000
,  // measure 23
0110
0000
0000
0000
,  // measure 24
0100
0000
0000
0000
,  // measure 25
0010
0000
0000
0000
,  // measure 26
1000
0000
0000
0000
,  // measure 27
0001
0000
0000
0000
,  // measure 28
0001
0000
0000
0000
,  // measure 29
0100
0000
0000
0000
,  // measure 30
0010
0000
0000
0000
,  // measure 31
2020
0000
0000
0030
,  // measure 32
0000
0000
3000
0000
,  // measure 33
0000
0202
0000
0000
,  // measure 34
0003
0000
0000
0300
,  // measure 35
0000
0000
0001
0000
,  // measure 36
0000
1000
0000
0000
,  // measure 37
0100
0000
0000
0010
,  // measure 38
0000
0000
0001
0000
,  // measure 39
0001
0000
0010
0000
,  // measure 40
0200
0000
0000
0000
,  // measure 41
0000
0300
0000
0000
0000
0000
0000
0100
,  // measure 42
0000
0000
0000
0000
,  // measure 43
1000
0000
0000
0000
0000
0000
0000
0001
,  // measure 44
0000
0000
0000
0000
,  // measure 45
0100
0000
0000
0000
0000
0000
0000
0010
,  // measure 46
0000
0000
0000
0000
0000
0000
0000
1000
,  // measure 47
0000
0000
0000
0000
0000
0000
0000
0010
,  // measure 48
0000
0000
0000
0000
0000
0000
0000
0100
,  // measure 49
0000
0000
0000
0000
0000
0000
0000
0001
,  // measure 50
0000
0000
0000
0000
,  // measure 51
0010
0000
0000
0000
0000
0000
0000
0001
,  // measure 52
0000
0000
0000
0000
,  // measure 53
0100
0000
0000
0000
0000
0000
0000
0010
,  // measure 54
0000
0000
0000
0000
0000
0000
0000
0010
,  // measure 55
0000
0000
0000
0000
0000
0000
0000
1000
,  // measure 56
0000
0000
0000
0000
0000
0000
0000
0001
,  // measure 57
0000
0000
0000
0000
0000
0000
0000
0001
,  // measure 58
0000
0000
0000
0000
0000
0000
0000
1000
,  // measure 59
0000
0000
0000
0000
0000
0000
0000
0100
,  // measure 60
0000
0000
0000
0000
,  // measure 61
0010
0000
0000
0000
0000
0000
0000
0001
,  // measure 62
0000
0000
0000
0000
,  // measure 63
0010
0000
0000
0000
,  // measure 64
0100
0000
0000
0000
,  // measure 65
1000
0000
0000
0000
0000
0000
0000
1001
,  // measure 66
0000
0000
0000
0001
0000
0000
0000
0010
,  // measure 67
0000
0000
0000
0100
0000
0000
0000
1000
,  // measure 68
0000
0000
0000
0010
0000
0000
0000
0100
,  // measure 69
0000
0000
0000
0001
0000
0000
0000
2000
,  // measure 70
0000
0000
0000
0000
,  // measure 71
0000
3000
0000
0000
;

//---------------dance-single - Huzure----------------
#NOTES:
     dance-single:
     Huzure:
     Easy:
     4:
     0.313,0.390,0.078,0.144,0.000: // measure 1
0000
0000
0000
0000
,  // measure 2
0000
0000
0000
0000
0000
0000
0000
1000
,  // measure 3
0000
0000
0001
0010
,  // measure 4
0100
0000
0000
0000
0000
0000
0000
1000
,  // measure 5
0000
0000
0001
0010
,  // measure 6
0100
0000
0000
0000
0000
0000
0000
1001
,  // measure 7
0000
0000
0000
0110
0000
0000
0000
1001
,  // measure 8
0000
0000
0000
0002
0000
0000
0000
2003
,  // measure 9
0000
0000
0000
3020
0000
0000
0000
0230
,  // measure 10
0000
0000
0000
0302
0000
0000
0000
1003
,  // measure 11
0000
0000
0000
1000
0001
0000
0000
0001
,  // measure 12
0100
0000
0000
0100
0000
0010
0000
1000
,  // measure 13
0000
0000
0000
0001
0100
0000
0000
0100
,  // measure 14
0010
0000
0000
0010
0000
1000
0000
0000
,  // measure 15
0010
0000
0100
0000
,  // measure 16
0100
0000
0001
0000
,  // measure 17
0100
0000
0010
0000
,  // measure 18
1000
1000
1000
1000
,  // measure 19
0001
0000
0010
0000
,  // measure 20
0100
0000
0010
0000
,  // measure 21
0001
0000
1000
0000
,  // measure 22
0010
0000
0000
0100
0000
0000
0010
0000
,  // measure 23
0100
0000
0001
0000
,  // measure 24
1000
0000
0001
0000
,  // measure 25
0010
0000
0100
0000
,  // measure 26
1000
0001
0010
0100
,  // measure 27
1000
0000
0010
0000
,  // measure 28
0100
0000
0001
0000
,  // measure 29
2000
0100
0100
3100
,  // measure 30
0010
0000
0001
0000
,  // measure 31
1000
0000
0000
0100
,  // measure 32
0000
0000
0010
0000
,  // measure 33
0000
0001
0000
0000
,  // measure 34
0100
0000
0000
0010
,  // measure 35
0000
0000
1000
0000
,  // measure 36
0000
0001
0000
0000
,  // measure 37
0010
0000
0000
0100
,  // measure 38
0000
0000
1000
1000
,  // measure 39
0100
0100
0010
0010
,  // measure 40
0001
0010
0000
0001
0010
0000
0001
0020
,  // measure 41
0000
0030
0000
0000
0000
0000
0000
0110
,  // measure 42
0000
0000
1000
0100
,  // measure 43
0010
0000
0000
0000
0001
0000
0000
0001
,  // measure 44
0000
0000
0010
0100
,  // measure 45
1000
0000
0000
0000
0010
0000
0000
0010
,  // measure 46
0000
0000
0000
0000
0100
0000
0000
0100
,  // measure 47
0000
0000
0000
0000
0001
0000
0000
0001
,  // measure 48
0000
0000
1000
0000
0010
0100
0000
0100
,  // measure 49
0000
0100
0010
0000
0000
0000
0000
1001
,  // measure 50
0000
0000
0001
0100
,  // measure 51
0010
0000
0000
0000
1000
0000
0000
1000
,  // measure 52
0000
0000
0010
0100
,  // measure 53
0001
0000
0000
0000
1000
0000
0000
0011
,  // measure 54
0000
0000
0000
0000
0001
0000
0000
1100
,  // measure 55
0000
0000
0000
0000
1000
0000
0000
0020
,  // measure 56
0000
0000
0100
0000
0130
0000
0100
0010
,  // measure 57
0000
0010
1000
0000
0002
0000
0000
0013
,  // measure 58
0000
0001
0010
0100
,  // measure 59
1000
0000
0100
0000
0010
0000
0100
1000
,  // measure 60
0000
0000
0001
0010
0000
0000
0100
1000
,  // measure 61
0000
0000
0010
0000
0100
0000
0001
0100
,  // measure 62
0000
0001
0100
0010
,  // measure 63
0100
0001
1000
0010
,  // measure 64
2000
0000
3200
0000
,  // measure 65
0310
0000
0001
0000
0010
0100
0000
0200
,  // measure 66
0000
0000
0000
1000
0000
0000
0000
1300
,  // measure 67
0000
0000
0000
0001
0000
0000
0000
1000
,  // measure 68
0100
0000
0000
0010
0001
0000
0000
1000
,  // measure 69
0010
0000
0000
0100
0001
0000
0000
2000
,  // measure 70
0000
0000
0000
0000
,  // measure 71
0000
3000
0000
0000
;
