#TITLE:サークルゲーム;
#SUBTITLE:あの日見た花の名前を僕達はまだ知らない.;
#ARTIST:ガリレオ・ガリレイ;
#TITLETRANSLIT:Circle Game;
#SUBTITLETRANSLIT:Ano Hi Mita Hana no Namae o Bokutachi wa Mada Shiranai.;
#ARTISTTRANSLIT:Galileo Galilei;
#GENRE:Anime;
#CREDIT:Itsugo15;
#BANNER:Circle Game-bn.png;
#BACKGROUND:Circle Game-bg.png;
#JACKET:Circle Game-Jacket.png;
#LYRICSPATH:Circle Game.lrc;
#CDTITLE:Itsugo15 SimifileS.png;
#MUSIC:Circle Game.mp3;
#OFFSET:-0.470;
#SAMPLESTART:55.920;
#SAMPLELENGTH:30.000;
#SELECTABLE:YES;
#LISTSORT:;
#DISPLAYBPM:164.000;
#BPMS:0.000=82.000,76.000=164.000,161.333=82.000;
#STOPS:;
#TICKCOUNT:0.000=6;
#BGCHANGES:0.500=Circle Game.avi=1.000=1=1=0,
163.000=Circle Game-bg.png=1.000=1=1=0,
99999=-nosongbg-=1.000=0=0=0 // don't automatically add -songbackground-
;
#KEYSOUNDS:;
#ATTACKS:;

//---------------dance-single - Itsugo15----------------
#NOTES:
     dance-single:
     Itsugo15:
     Beginner:
     2:
     0.067,0.088,0.033,0.011,0.141:
0000
0000
0000
0000
,
0000
0000
0000
0000
,
0000
0000
0000
0000
,
1000
0000
0000
0000
,
0000
0000
0000
0000
0001
0000
0000
0000
0000
0000
0000
0000
,
0000
0000
0000
0000
0000
0000
0000
0000
1000
0000
0000
0000
,
0000
0000
0000
0000
0010
0000
0000
0000
0000
0000
0000
0000
,
0100
0000
0000
0000
0000
0000
0000
0000
0001
0000
0000
0000
,
0000
0000
0000
0000
1000
0000
0000
0000
0000
0000
0000
0000
,
0100
0000
0000
0000
0000
0000
0000
0000
0010
0000
0000
0000
,
0000
0000
0000
0000
0001
0000
0000
0000
0000
0000
0000
0000
,
0100
0000
0000
0000
0000
0000
0000
0000
0010
0000
0000
0000
,
0000
0000
0000
0000
1000
0000
0000
0000
0000
0000
0000
0000
,
0001
0000
0000
0000
0000
0000
0000
0000
1001
0000
0000
0000
,
0000
0000
0000
0000
1000
0000
0000
0000
0000
0000
0000
0000
,
0010
0000
0000
0000
0000
0000
0000
0000
0100
0000
0000
0000
,
0000
0000
0000
0000
0001
0000
0000
0000
0000
0000
0000
0000
,
1000
0000
0000
0000
0000
0000
0000
0000
0100
0000
0000
0000
,
0000
0000
0000
0000
0010
0000
0000
0000
0000
0000
0000
0000
,
0110
0000
0000
0000
,
0000
0000
0000
0000
0010
0000
0000
0000
0000
0000
0000
0000
,
0000
0000
0000
0000
0000
0000
0000
0000
0001
0000
0000
0000
,
0000
0000
0000
0000
,
1000
0000
0000
0000
,
0000
0000
0000
0000
0010
0000
0000
0000
0000
0000
0000
0000
,
0000
0000
0000
0000
0000
0000
0000
0000
0100
0000
0000
0000
,
0000
0000
0000
0000
,
0001
0000
0000
0000
,
0000
0000
0000
0000
1000
0000
0000
0000
0000
0000
0000
0000
,
0000
0000
0000
0000
0000
0000
0000
0000
1001
0000
0000
0000
,
0000
0000
0000
0000
,
0001
0000
0000
0000
,
0000
0000
0000
0000
0010
0000
0000
0000
0000
0000
0000
0000
,
0000
0000
0000
0000
0000
0000
0000
0000
0100
0000
0000
0000
,
0000
0000
0000
0000
,
1000
0000
0000
0000
,
0000
0000
0000
0000
0001
0000
0000
0000
0000
0000
0000
0000
,
0000
0000
0000
0000
0000
0000
0000
0000
0100
0000
0000
0000
,
0000
0000
0000
0000
,
0010
0000
0000
0000
,
0000
0000
0000
0000
2000
0000
0000
0000
0000
3000
0000
0000
;

//---------------dance-single - Itsugo15----------------
#NOTES:
     dance-single:
     Itsugo15:
     Challenge:
     10:
     0.736,0.840,1.000,0.054,1.000: // measure 1
0000
0000
0000
0000
,  // measure 2
0000
0000
0000
0000
,  // measure 3
0000
0000
0000
0000
0000
0000
0000
0000
0000
0000
1001
0001
,  // measure 4
0200
0000
0310
1000
0002
0000
0013
0100
2000
0000
3100
0010
,  // measure 5
0001
0000
1000
0100
1100
0000
1000
0001
0100
0000
0010
1000
,  // measure 6
0001
0000
0000
0000
0010
0000
0100
0000
2000
0000
0100
0000
3001
1000
0001
1000
1001
0000
0001
0000
0101
0000
1000
0000
,  // measure 7
1100
0100
0110
0010
0110
0100
1100
1000
1001
0001
0101
0100
,  // measure 8
0110
0010
0110
0100
0101
0001
1001
1000
1100
0100
0110
0010
,  // measure 9
0011
0000
0001
0000
0010
0100
0010
0100
0010
0000
0001
0000
0011
0000
0010
0000
0011
0000
0001
0000
1001
0000
1000
0000
,  // measure 10
1100
0100
0110
0100
1100
1000
1001
0001
0101
0100
0110
0010
,  // measure 11
1010
1000
1001
0001
0011
0010
0110
0010
0011
0010
0110
0100
,  // measure 12
1100
1000
1001
0001
0101
0100
0110
0010
1010
1000
1001
0001
,  // measure 13
0011
0010
0110
0100
1100
1000
1001
0001
0101
0001
1001
1000
,  // measure 14
1100
0000
1000
0000
1001
0000
1000
0000
1010
0000
0010
0000
0110
0000
0100
0000
0101
0000
0001
0000
1001
0000
0001
0100
,  // measure 15
0010
0000
1000
0000
1010
0000
1000
0000
1001
0000
0001
0000
0011
0000
0010
0100
1000
0000
0001
0000
1001
0000
0001
0100
,  // measure 16
1000
0000
0100
0010
1000
0000
0001
0010
0100
0000
1000
0000
1100
0000
0100
0000
0110
0000
0010
0000
0011
0000
0001
1000
,  // measure 17
0010
0000
0100
0000
0110
0000
0100
0000
0101
0000
0001
0000
1001
0000
1000
0100
0010
0000
0001
0000
0011
0000
0010
0000
,  // measure 18
0110
0000
0100
0000
1100
0000
1000
0001
0100
0000
0010
0000
0110
0000
0100
0000
0101
0000
0001
0000
1001
0000
1000
0100
,  // measure 19
0010
0000
0001
0000
0011
0000
1000
0000
1100
0000
0001
0000
1001
0000
1000
0010
0100
0000
0001
0000
0101
0000
0001
1000
,  // measure 20
1001
0000
0001
0000
0101
0000
0100
0010
1000
0000
1010
0000
,  // measure 21
1001
0000
0011
0000
1001
0000
0001
0000
0101
0000
0100
0010
,  // measure 22
1000
0000
0100
0000
0010
0000
0110
0000
1001
0000
0001
0000
,  // measure 23
0101
0000
0100
0010
1000
0000
0001
0000
1001
0000
1000
0000
,  // measure 24
0010
0000
0100
0000
0101
0000
0001
0010
0100
0000
1000
0000
,  // measure 25
1100
0000
0001
0000
0101
0000
1000
0000
1001
0000
0001
0100
,  // measure 26
1000
0000
1000
0100
0001
0000
1000
0000
1001
0000
0001
0010
,  // measure 27
1000
0000
1000
0010
0001
0000
1000
0000
1001
0000
0001
0000
,  // measure 28
0100
0000
0010
0000
1010
0000
1000
0001
0010
0000
0100
0000
,  // measure 29
0110
0000
0010
0000
0011
0000
0001
0100
1000
0000
1000
0100
,  // measure 30
0001
1000
0100
0000
0010
0001
1000
0100
1100
0000
1000
0000
,  // measure 31
1010
0000
0010
0100
0001
0000
0101
0000
1001
0000
1100
0000
,  // measure 32
1001
0000
1000
0000
1010
0000
0010
0100
0001
0000
1000
0100
,  // measure 33
0010
0000
0110
0000
1001
0000
1000
0000
1010
0000
0010
0100
,  // measure 34
0001
0000
1000
0000
1001
0000
0001
0000
0100
0000
0010
0000
,  // measure 35
0110
0000
0100
0010
1000
0000
0001
0000
1000
0000
0010
0000
,  // measure 36
1010
0000
1000
0000
1001
0000
0001
0010
0100
0000
1000
0100
,  // measure 37
0010
0000
0001
0000
0011
0000
0001
0100
0010
0000
1000
0010
,  // measure 38
0100
0000
0001
0000
0101
0000
1000
0100
0010
0000
0001
0000
,  // measure 39
0011
0000
0001
1000
0010
0000
0100
0000
0110
0000
0100
0000
,  // measure 40
0101
0000
0001
0000
1001
0000
1000
0000
1100
0000
0100
0001
,  // measure 41
0100
1000
0001
0100
2000
0000
0000
0000
0000
3000
0000
0000
;

//---------------dance-single - Itsugo15----------------
#NOTES:
     dance-single:
     Itsugo15:
     Hard:
     8:
     0.457,0.553,0.282,0.228,0.884:
0000
0000
0000
0000
,
0000
0000
0000
0000
,
0000
0000
0000
0000
0000
0000
0000
0000
0000
0000
1000
0010
,
1010
0000
0100
0001
0101
0000
0001
1000
1001
0000
0100
0010
,
0110
0000
0010
0001
1000
0000
0010
1000
0001
0000
0010
0100
,
1000
0000
0100
0010
0001
1000
0020
0000
0130
0010
1000
0010
,
0100
0001
1000
0100
0020
0000
0031
0010
0100
0010
0001
1000
,
0020
0000
0130
0001
1000
0100
1000
0001
0200
0000
0310
1000
,
0001
0010
0200
1300
0200
0000
0010
0000
0310
0001
1000
0010
,
0200
0000
0001
0000
0301
1000
0100
0020
0001
0000
0230
0000
,
2300
0000
3001
0100
0010
0000
0100
0010
1000
0001
0010
0100
,
2000
0000
0100
0000
3100
0000
0100
1000
0001
0000
0100
0010
,
1000
0001
0010
0100
2000
0000
3100
0010
0001
2000
3000
0010
,
0100
0001
1000
0100
0010
0001
2000
3000
1001
0000
0101
0000
,
0100
0010
1000
0000
1010
0000
1001
0000
0001
0010
0100
0000
,
1000
0100
0001
0000
1000
0010
0001
0000
1000
0010
0001
0000
,
1000
0100
0001
0000
0101
0000
1001
0000
1000
0100
0010
0000
,
0110
0000
0011
0000
0001
1000
0010
0000
0100
0001
1000
0000
,
0100
0010
0001
0000
0010
0100
1000
0000
0001
1000
0010
0000
,
1010
0000
0000
0000
1001
0000
0000
0000
0001
0000
0010
0000
,
0100
0000
1000
0000
0000
0000
0100
0000
0000
0000
1000
0000
,
0010
0000
0100
0000
0001
0000
1000
0000
1001
0000
0000
0000
,
0011
0000
0000
0000
1100
0000
0000
0000
1000
0000
0100
0000
,
0010
0000
0001
0000
0010
0000
0100
0000
1000
0000
0000
0000
,
0001
0000
0100
0000
0010
0000
1000
0000
0001
0000
0020
0000
,
0000
0000
0230
0000
0000
0000
1300
0000
0002
0000
0000
0000
,
0103
0000
0020
0000
0000
0000
1030
0000
0000
0000
1000
0000
,
0001
0000
0000
0000
0001
0000
2000
0000
0000
0000
3001
0000
,
0010
0000
0000
0000
0100
0000
1000
0000
0100
0000
0010
0000
,
0110
0000
0000
0000
1001
0000
0000
0000
0110
0000
0010
0000
,
1000
0000
0010
0000
0100
0000
0001
0000
1000
0000
0100
0000
,
0000
0000
0010
0000
0000
0000
0002
0000
0000
0000
1003
0000
,
0010
0000
0100
0000
0110
0000
0000
0000
1001
0000
0000
0000
,
1001
0000
0000
0000
0001
0000
0010
0000
0001
0000
0100
0000
,
0010
0000
1000
0000
0100
0000
0000
0000
0010
0000
0001
0000
,
0011
0000
0010
0000
0001
0000
1000
0000
0010
0000
0100
0000
,
0001
0000
0000
0000
0101
0000
0000
0000
0100
0000
0010
0000
,
0000
0000
0010
0000
1000
0000
0001
0000
1001
0000
0000
0000
,
1000
0000
0001
0000
0010
0000
0100
0000
1000
0000
0100
0000
,
0010
0000
0100
0000
0001
0000
0100
0000
0010
0000
0100
0000
,
1000
0000
0001
0000
0200
0000
0000
0000
0000
0300
0000
0000
;

//---------------dance-single - Itsugo15----------------
#NOTES:
     dance-single:
     Itsugo15:
     Easy:
     4:
     0.149,0.177,0.033,0.011,0.326:
0000
0000
0000
0000
,
0000
0000
0000
0000
,
0000
0000
0000
0000
,
0001
0000
0000
0000
0000
0000
0000
0000
0010
0000
0000
0000
,
0000
0000
0000
0000
0100
0000
0000
0000
0000
0000
0000
0000
,
1000
0000
0000
0000
0000
0000
0000
0000
0001
0000
0000
0000
,
1000
0000
0000
0000
0010
0000
0000
0000
0100
0000
0000
0000
,
0001
0000
0000
0000
1000
0000
0000
0000
0100
0000
0000
0000
,
0010
0000
0000
0000
0001
0000
0000
0000
0001
0000
0000
0000
,
1000
0000
0000
0000
1000
0000
0000
0000
0010
0000
0000
0000
,
0010
0000
0000
0000
0100
0000
0000
0000
0100
0000
0000
0000
,
0001
0000
0000
0000
0001
0000
0000
0000
1000
0000
0000
0000
,
1000
0000
0000
0000
0100
0000
0000
0000
0100
0000
0000
0000
,
0010
0000
0000
0000
0010
0000
0000
0000
0110
0000
0000
0000
,
0001
0000
0000
0000
1000
0000
0000
0000
0010
0000
0000
0000
,
0100
0000
0000
0000
0001
0000
0000
0000
1000
0000
0000
0000
,
0001
0000
0000
0000
0100
0000
0000
0000
0010
0000
0000
0000
,
1000
0000
0000
0000
0001
0000
0000
0000
0010
0000
0000
0000
,
0100
0000
0000
0000
1000
0000
0000
0000
0001
0000
0000
0000
,
1001
0000
0000
0000
0000
0000
0000
0000
0001
0000
0000
0000
,
0001
0000
0000
0000
0100
0000
0000
0000
0000
0000
0000
0000
,
0010
0000
0000
0000
0010
0000
0000
0000
1000
0000
0000
0000
,
0000
0000
0000
0000
1000
0000
0000
0000
1000
0000
0000
0000
,
0001
0000
0000
0000
0000
0000
0000
0000
0010
0000
0000
0000
,
0010
0000
0000
0000
0001
0000
0000
0000
0000
0000
0000
0000
,
0001
0000
0000
0000
0001
0000
0000
0000
0100
0000
0000
0000
,
0000
0000
0000
0000
0100
0000
0000
0000
0100
0000
0000
0000
,
0010
0000
0000
0000
0000
0000
0000
0000
1000
0000
0000
0000
,
1000
0000
0000
0000
0001
0000
0000
0000
0000
0000
0000
0000
,
0010
0000
0000
0000
0000
0000
0000
0000
0011
0000
0000
0000
,
0000
0000
0000
0000
0010
0000
0000
0000
0010
0000
0000
0000
,
0001
0000
0000
0000
0000
0000
0000
0000
0001
0000
0000
0000
,
0001
0000
0000
0000
1000
0000
0000
0000
0000
0000
0000
0000
,
1000
0000
0000
0000
1000
0000
0000
0000
0010
0000
0000
0000
,
0000
0000
0000
0000
0010
0000
0000
0000
0010
0000
0000
0000
,
0100
0000
0000
0000
0000
0000
0000
0000
0100
0000
0000
0000
,
0100
0000
0000
0000
0001
0000
0000
0000
0000
0000
0000
0000
,
0001
0000
0000
0000
0001
0000
0000
0000
1000
0000
0000
0000
,
0000
0000
0000
0000
1000
0000
0000
0000
0100
0000
0000
0000
,
0010
0000
0000
0000
0000
0000
0000
0000
0010
0000
0000
0000
,
0001
0000
0000
0000
2000
0000
0000
0000
0000
3000
0000
0000
;

//---------------dance-single - Itsugo15----------------
#NOTES:
     dance-single:
     Itsugo15:
     Medium:
     6:
     0.330,0.376,0.293,0.011,0.673:
0000
0000
0000
0000
,
0000
0000
0000
0000
,
0000
0000
0000
0000
,
0001
0000
0100
0000
0010
0000
0000
0000
1000
0000
0001
0000
,
0010
0000
0000
0000
0100
0000
0000
0000
1000
0000
0000
0000
,
0001
0000
0000
0000
0100
0000
0010
0000
0110
0000
0100
0000
,
0100
0000
0001
0000
1000
0000
0100
0000
0100
0000
1000
0000
,
0001
0000
0010
0000
0010
0000
0001
0000
1000
0000
0010
0000
,
0010
0000
0100
0000
0110
0000
0001
0000
0101
0000
0001
0000
,
1000
0000
1001
0000
0001
0000
1000
0000
0100
0000
1100
0000
,
1000
0000
0100
0000
0010
0000
0110
0000
0100
0000
0010
0000
,
0001
0000
0011
0000
0010
0000
0001
0000
0100
0000
0101
0000
,
0001
0000
0100
0000
0010
0000
0110
0000
0100
0000
0010
0000
,
1000
0000
1010
0000
0001
0000
0101
0000
1001
0000
0001
0000
,
1000
0100
1000
0000
0001
0000
0100
0000
0010
0100
0010
0000
,
0100
0000
0001
0000
1000
0100
0010
0000
0001
0000
1000
0000
,
0010
0100
0001
0000
0101
0000
0001
0000
1000
0100
1000
0000
,
0001
0000
0100
0000
0010
0100
0010
0000
0100
0000
0001
0000
,
1000
0100
0010
0000
0001
0000
1000
0000
0010
0100
0001
0000
,
0101
0000
0000
0000
1001
0000
0000
0000
0001
0000
1000
0000
,
0100
0000
0000
0000
1000
0000
0000
0000
0001
0000
0000
0000
,
0100
0000
0010
0000
1000
0000
0000
0000
1010
0000
0000
0000
,
1001
0000
0000
0000
1001
0000
0000
0000
0001
0000
0010
0000
,
0100
0000
1000
0000
0100
0000
0010
0000
0001
0000
0000
0000
,
0011
0000
0000
0000
1001
0000
0000
0000
0001
0000
0000
0000
,
1000
0000
0010
0000
0100
0000
0000
0000
0001
0000
0000
0000
,
0101
0000
0000
0000
0100
0000
0010
0000
1000
0000
0000
0000
,
0001
0000
0000
0000
1001
0000
0000
0000
0001
0000
0010
0000
,
0001
0000
0000
0000
1000
0000
0010
0000
1000
0000
0000
0000
,
0010
0000
0100
0000
0001
0000
0000
0000
0101
0000
0000
0000
,
1001
0000
0000
0000
1000
0000
0100
0000
0010
0000
0000
0000
,
0001
0000
0000
0000
0011
0000
0000
0000
0010
0000
0001
0000
,
1000
0000
0000
0000
0010
0000
0000
0000
0100
0000
0000
0000
,
0001
0000
0000
0000
1000
0000
0001
0000
0010
0000
0100
0000
,
1000
0000
0100
0000
0010
0000
0000
0000
0001
0000
0000
0000
,
0011
0000
0000
0000
0010
0000
0000
0000
0100
0000
1000
0000
,
0001
0000
0000
0000
0100
0000
0000
0000
0010
0000
0000
0000
,
1000
0000
0001
0000
1000
0000
0000
0000
1001
0000
0000
0000
,
0001
0000
0000
0000
0100
0000
0010
0000
1000
0000
0000
0000
,
0001
0000
0010
0000
0001
0000
0000
0000
0100
0000
0010
0000
,
1000
0000
0001
0000
0020
0000
0000
0000
0000
0030
0000
0000
;
