#TITLE:地球ぎ;
#SUBTITLE:聖闘士星矢 冥王ハーデス十二宮編;
#ARTIST:まつざわゆみ;
#TITLETRANSLIT:Chikyuugi;
#SUBTITLETRANSLIT:Saint Seiya ~Meiou Hades Juuni Kyuu Hen~;
#ARTISTTRANSLIT:Matsuzawa Yumi;
#GENRE:Anime;
#CREDIT:Itsugo15;
#BANNER:Chikyuugi-bn.png;
#BACKGROUND:Chikyuugi-bg.png;
#JACKET:Chikyuugi-Jacket.png;
#LYRICSPATH:Chikyuugi.lrc;
#CDTITLE:Itsugo15 SimifileS.png;
#MUSIC:Chikyuugi.mp3;
#OFFSET:-0.720;
#SAMPLESTART:56.200;
#SAMPLELENGTH:30.000;
#SELECTABLE:YES;
#LISTSORT:;
#BPMS:0.000=103.000;
#STOPS:;
#TICKCOUNT:0.000=6;
#BGCHANGES:-0.750=Chikyuugi.avi=1.000=1=0=0,
198.000=Chikyuugi-bg.png=1.000=1=0=0,
99999=-nosongbg-=1.000=0=0=0 // don't automatically add -songbackground-
;
#KEYSOUNDS:;
#ATTACKS:;

//---------------dance-single - Itsugo15----------------
#NOTES:
     dance-single:
     Itsugo15:
     Beginner:
     2:
     0.049,0.059,0.000,0.000,0.000:
0000
0000
0000
0000
,
0000
0000
0000
0000
,
0000
0000
0000
0000
,
0000
0000
0000
0000
,
0000
0000
0000
0000
,
0000
0000
0000
0000
,
0000
0000
0000
0000
,
1000
0000
0000
0000
,
0001
0000
0000
0000
,
0010
0000
0000
0000
,
0100
0000
0000
0000
,
1000
0000
0000
0000
,
0010
0000
0000
0000
,
1000
0000
0000
0000
,
0001
0000
0000
0000
,
0100
0000
0000
0000
,
0010
0000
0000
0000
,
1000
0000
0000
0000
,
0001
0000
0000
0000
,
0010
0000
0000
0000
,
0100
0000
0000
0000
,
0010
0000
0000
0000
,
0001
0000
0000
0000
,
0100
0000
0000
0000
,
0010
0000
0000
0000
,
1000
0000
0000
0000
,
0001
0000
0000
0000
,
0010
0000
0000
0000
,
0100
0000
0000
0000
,
1000
0000
0000
0000
,
0100
0000
0000
0000
,
0010
0000
0000
0000
,
0001
0000
0000
0000
,
1000
0000
0000
0000
,
0010
0000
0000
0000
,
0100
0000
0000
0000
,
0001
0000
0000
0000
,
1000
0000
0000
0000
,
0100
0000
0000
0000
,
0010
0000
0000
0000
,
0100
0000
0000
0000
,
1000
0000
0000
0000
,
0001
0000
0000
0000
,
0100
0000
0000
0000
,
0010
0000
0000
0000
,
1000
0000
0000
0000
,
0100
0000
0000
0000
;

//---------------dance-single - Itsugo15----------------
#NOTES:
     dance-single:
     Itsugo15:
     Challenge:
     9:
     0.606,0.694,0.282,0.547,0.637: // measure 1
0000
0000
0000
0000
,  // measure 2
0000
0000
0000
0000
,  // measure 3
0000
0000
0000
0000
,  // measure 4
0000
0000
0000
0000
,  // measure 5
0000
0000
0000
0000
,  // measure 6
0000
0000
0000
0000
,  // measure 7
0000
0000
0000
0000
,  // measure 8
1010
0000
0010
0100
0000
0100
0002
0000
0000
0000
2000
0000
0000
0000
3003
0000
,  // measure 9
1001
0000
0001
0010
0000
0010
0200
0000
0000
0000
2000
0000
0000
0000
3300
0000
,  // measure 10
1100
0000
0100
0010
0000
0010
0002
0000
0000
0000
2000
0000
0000
0000
3003
0000
,  // measure 11
1001
0000
0001
0100
0020
0000
1030
0001
0000
1000
0100
0010
0002
0000
1003
0000
,  // measure 12
1001
0000
0001
0100
0020
0000
1030
0001
0000
0001
1000
0100
0020
0000
0031
0000
,  // measure 13
0011
0000
0001
0010
0200
0000
1300
0001
0000
0001
1000
0010
0200
0000
0310
0000
,  // measure 14
0110
0000
0100
0001
2000
0000
3100
0010
0000
0001
0010
0100
2000
0000
3100
0000
,  // measure 15
1100
0000
1000
0010
0100
0000
0001
1000
0000
0100
0010
0100
2000
0000
3010
0000
,  // measure 16
1010
0000
0010
1000
0000
1000
0002
0000
0000
0000
0013
0000
0001
0000
1000
0000
,  // measure 17
1001
0001
0100
0010
0110
0100
0001
1000
,  // measure 18
1001
0000
0001
0010
0000
0100
1000
0100
0010
0001
1000
0000
0010
0000
0100
0000
,  // measure 19
0110
0000
0001
1000
0000
0100
0000
0000
1100
0000
1000
0001
0000
0100
0010
0000
,  // measure 20
0110
0000
0010
2000
0000
3001
0000
0000
1100
0000
1000
0002
0000
0103
0000
0000
,  // measure 21
0101
0000
0100
0020
0000
1030
0000
0000
1010
0000
1000
0002
0000
0013
0000
0000
,  // measure 22
0011
0000
0001
1000
0000
0000
1001
0000
1010
0000
0010
0100
0000
0000
0110
0000
,  // measure 23
0101
0000
0001
1000
0200
0300
0010
0001
0000
0010
0000
0100
2000
3000
0001
0010
,  // measure 24
0100
1000
0100
0010
0002
0003
1000
0100
0010
0001
0010
0100
2000
3000
0001
0100
,  // measure 25
0010
1000
0001
0010
0200
0300
1000
0001
0100
0010
1000
0001
0020
0030
0100
1000
,  // measure 26
0001
0100
0001
1000
0200
0300
0010
0001
1000
0010
1000
0001
0020
0030
0100
1000
,  // measure 27
0010
1000
0100
1000
0020
0030
0100
0001
0010
0001
0100
0001
0020
0030
0001
0010
,  // measure 28
0100
1000
0100
0010
0002
0003
1000
0100
0010
0001
0010
0100
2000
3000
0001
0100
,  // measure 29
0010
1000
0001
0010
0200
0300
1000
0001
0100
0010
1000
0001
0020
0030
0100
1000
,  // measure 30
0001
0100
0001
1000
0200
0300
0010
0001
1000
0010
1000
0001
0020
0030
0100
1000
,  // measure 31
0010
1000
0100
1000
0020
0030
0100
0001
0010
0001
0100
0001
0020
0030
0100
1000
,  // measure 32
0001
0010
0001
0100
0002
0003
1000
0001
1000
0010
0100
0001
2000
3000
0100
1000
,  // measure 33
0010
0100
0001
1000
0200
0300
0010
0001
1000
0010
0100
0001
1000
0000
0100
0000
,  // measure 34
1100
0000
1000
0001
0000
0001
1000
0000
1010
0000
0010
0100
0000
0100
0001
0100
,  // measure 35
0010
0000
1000
0001
0000
0001
1000
0000
1001
0000
0001
0010
0000
0100
1000
0000
,  // measure 36
1100
0000
0100
0010
0000
0010
0001
0000
0011
0000
0001
1000
0000
1000
0001
0100
,  // measure 37
0020
0030
1000
0001
0000
0001
1000
0000
1001
0000
0001
0010
0000
0100
1000
0000
,  // measure 38
1100
0000
1000
0001
0000
0001
0100
0000
0101
0000
0100
0010
0000
0010
0100
0001
,  // measure 39
2000
3000
0001
0010
0000
0010
0100
0000
0110
0000
0100
1000
0000
1000
0001
0000
,  // measure 40
1002
0203
2300
3020
,  // measure 41
0031
0000
1000
0010
0000
0010
0100
0000
0100
0001
0000
0001
1000
0000
0100
0000
,  // measure 42
0020
0032
0203
0320
,  // measure 43
1030
0000
0001
0010
0000
0010
0100
0000
0100
1000
0000
1000
0001
0000
0100
0000
,  // measure 44
0020
2030
3002
0023
,  // measure 45
0130
0000
1000
0001
0000
0001
1000
0000
0010
0100
0000
0100
0010
0000
1000
0000
,  // measure 46
0002
0023
2030
3200
,  // measure 47
0302
0200
2000
0000
0303
0100
0010
0002
,  // measure 48
0000
0200
0000
0000
,  // measure 49
0000
0000
0000
0000
,  // measure 50
0000
0000
0000
3303
0000
0000
0000
0000
0000
0000
0000
0000
0000
0000
0000
0000
;

//---------------dance-single - Itsugo15----------------
#NOTES:
     dance-single:
     Itsugo15:
     Hard:
     6:
     0.285,0.356,0.111,0.385,0.073:
0000
0000
0000
0000
,
0000
0000
0000
0000
,
0000
0000
0000
0000
,
0000
0000
0000
0000
,
0000
0000
0000
0000
,
0000
0000
0000
0000
,
0000
0000
0000
0000
,
1000
0000
0000
0010
0000
0000
0100
0000
0000
0000
0002
0000
0000
0000
0000
0000
,
1003
0000
0000
0010
0000
0000
0100
0000
0000
0000
0002
0000
0000
0000
0000
0000
,
0103
0000
0000
0010
0000
0000
1000
0000
0000
0000
0002
0000
0000
0000
0000
0000
,
0013
0000
0000
0100
0000
0000
1000
0000
0000
0000
0002
0000
1000
0000
0000
0003
,
0001
0000
0000
0100
0000
0000
0010
0000
0000
0000
2000
0000
0010
0000
0000
0000
,
3001
0000
0000
0100
0000
0000
0010
0000
0000
0000
2000
0000
0010
0000
0000
0000
,
3010
0000
0000
0100
0000
0000
0001
0000
0000
0000
2000
0000
0001
0000
0000
0000
,
3100
0000
0000
0010
0000
0000
0001
0000
0000
0000
2000
0000
0001
0000
0000
3000
,
1001
0000
0000
0001
0000
0000
1000
0000
0000
0000
1000
0000
0100
0000
0000
0000
,
1100
0000
0011
0000
,
1001
0000
0000
1000
0000
0000
0010
0000
0000
0000
0100
0000
0001
0000
0000
0000
,
0101
0000
1001
0000
,
1100
0000
0000
1000
0000
0000
1000
0000
0100
0000
0000
0100
0000
0000
0100
0000
,
0010
0000
0000
0010
0000
0000
0010
0000
0001
0000
0000
0100
0000
0000
0010
0000
,
1000
0000
0000
0010
0000
0000
0001
0000
0010
0000
0000
1000
0000
0000
0001
0000
,
0010
0000
0000
0100
0000
0000
1000
0000
0002
0000
0000
0000
2000
0000
3003
0000
,
1001
0001
0100
0010
,
2000
0010
3002
0010
,
1003
0010
0100
0001
,
2000
0100
3002
0100
,
1003
0100
0010
0001
,
0200
0001
0320
1000
,
0130
0001
1000
0100
,
0020
0001
0032
1000
,
1003
0010
0100
0000
0100
0001
1000
0000
,
0100
0010
0001
0000
0001
0010
0100
0000
,
1000
1100
0001
0101
,
1000
1010
0001
0011
,
0100
1000
0001
0000
1000
0001
0100
0000
,
0001
0100
0010
0000
0100
0010
1000
0000
,
0002
0013
0020
0130
,
0200
1300
2000
3001
,
2001
0100
0001
0100
,
3002
0203
0320
2030
,
3002
0010
1000
0010
,
2003
3020
0230
0302
,
2000
0003
0200
0300
0020
0030
0002
0003
,
3002
0203
0320
2030
,
0002
3000
0020
0030
0200
0300
2000
0000
,
0200
0000
0000
0000
,
0000
0000
0000
0000
,
0000
3003
0000
0000
0000
0000
0000
0000
,
0300
0000
0000
0000
;

//---------------dance-single - Itsugo15----------------
#NOTES:
     dance-single:
     Itsugo15:
     Easy:
     4:
     0.116,0.165,0.137,0.017,0.000:
0000
0000
0000
0000
,
0000
0000
0000
0000
,
0000
0000
0000
0000
,
0000
0000
0000
0000
,
0000
0000
0000
0000
,
0000
0000
0000
0000
,
0000
0000
0000
0000
,
1000
0000
0000
0000
,
0001
0000
0000
0000
,
1000
0000
0000
0000
,
0001
0010
0000
0001
,
1000
0000
0010
0000
,
0100
0000
0001
0000
,
1000
0000
0001
0000
,
0010
0000
0100
0000
,
1000
0000
0001
0000
,
1001
0000
0101
0000
,
0100
0000
0010
0000
,
0110
0000
1010
0000
,
1000
0000
1000
0000
,
0001
0000
0001
0000
,
0010
0000
0010
0000
,
0100
0000
0100
0000
,
0110
0000
0100
0000
,
1000
0000
0001
0000
,
0100
0000
0010
0000
,
1000
0000
0001
0000
,
0010
0000
0100
0000
,
1000
0000
0001
0000
,
0100
0000
0010
0000
,
1000
0000
0001
0000
,
1001
0000
0001
0000
,
1001
0000
1000
0000
,
0010
0000
0100
0000
,
0100
0000
0001
0000
,
0010
0000
0010
0000
,
0100
0000
1000
0000
,
0001
0000
0100
0000
,
0010
0000
1000
0000
,
1010
0000
1010
0000
,
1000
0000
0001
0000
,
1001
0000
1001
0000
,
0001
0000
0010
0000
,
0011
0000
0011
0000
,
0010
0000
0100
0000
,
0110
0000
0110
0000
,
2002
0000
0000
0000
,
0000
0000
0000
0000
,
0000
3003
0000
0000
0000
0000
0000
0000
;

//---------------dance-single - Itsugo15----------------
#NOTES:
     dance-single:
     Itsugo15:
     Medium:
     5:
     0.186,0.268,0.068,0.180,0.000:
0000
0000
0000
0000
,
0000
0000
0000
0000
,
0000
0000
0000
0000
,
0000
0000
0000
0000
,
0000
0000
0000
0000
,
0000
0000
0000
0000
,
0000
0000
0000
0000
,
1000
0000
0010
0000
,
0100
0000
0001
0000
,
1000
0000
0100
0000
,
0010
0000
0001
0000
,
1000
1000
0001
0001
,
0010
0010
0100
0100
,
1000
0001
0100
0010
,
0100
0001
1000
0100
,
0010
0001
0000
1000
,
1001
0100
1001
0001
,
0100
0010
0000
1000
,
1010
0001
0101
1000
,
1001
0001
0001
0010
,
0010
0100
0100
1000
,
1000
0001
0001
0100
,
0100
0101
1000
1100
,
1001
0001
0100
1000
,
0200
0010
0320
1030
,
1000
0001
0010
0200
,
0010
0320
0100
0031
,
1000
0010
0001
1000
,
0200
0010
0320
0100
,
1030
0100
0001
1000
,
0020
0100
0230
0010
,
0320
0031
0002
1003
,
2000
3010
0020
0130
,
0100
0001
0000
1000
,
0000
0100
0000
0010
,
0002
1003
2000
3010
,
0020
0130
0200
0301
,
1000
0100
0000
0010
,
0000
0001
0000
1000
,
0020
0000
0000
0000
,
1030
0000
0001
0000
,
0020
0000
0000
0000
,
0031
0000
1000
0000
,
0200
0000
0000
0000
,
1300
0000
0001
0000
,
0200
0000
0000
0000
,
0020
0000
0000
0000
,
0000
0000
0000
0000
,
0000
0330
0000
0000
0000
0000
0000
0000
;
