#TITLE:Bull`s Eye;
#SUBTITLE:緋弾のアリアAA;
#ARTIST:ナノ;
#TITLETRANSLIT:Bull`s Eye;
#SUBTITLETRANSLIT:Hidan no Aria AA;
#ARTISTTRANSLIT:nano;
#GENRE:Otaku's Dream 4th Mix (Pad);
#CREDIT:Huzure & Itsugo;
#BANNER:AriaAA-bn.png;
#BACKGROUND:AriaAA-bg.png;
#JACKET:AriaAA-Jacket.png;
#LYRICSPATH:Bull's Eye.lrc;
#CDTITLE:Collab.png;
#MUSIC:Bull's Eye.mp3;
#OFFSET:-0.108;
#SAMPLESTART:61.510;
#SAMPLELENGTH:20.480;
#SELECTABLE:YES;
#LISTSORT:;
#DISPLAYBPM:197.000;
#BPMS:0.000=197.000,197.500=98.500,199.500=197.000;
#STOPS:196.000=0.305
,196.500=0.305
;
#TICKCOUNT:0.000=6;
#BGCHANGES:0.000=Hidan no Aria AA OP.avi=1.000=1=0=0,
284.000=AriaAA-bg.png=1.000=1=0=0,
99999=-nosongbg-=1.000=0=0=0 // don't automatically add -songbackground-
;
#KEYSOUNDS:;
#ATTACKS:;

//---------------dance-single - Itsugo15----------------
#NOTES:
     dance-single:
     Itsugo15:
     Beginner:
     2:
     0.094,0.194,0.011,0.022,0.000: // measure 1
0000
0000
0000
0000
,  // measure 2
0000
0000
0000
0000
,  // measure 3
0000
0000
0000
0000
,  // measure 4
0000
0000
0000
0000
,  // measure 5
0000
0000
0000
0000
,  // measure 6
0000
0000
0000
0000
,  // measure 7
0000
0000
0000
0000
0000
0000
0000
1000
,  // measure 8
0000
0000
0000
0000
,  // measure 9
0000
0000
0000
0000
0000
0000
0000
1000
,  // measure 10
0000
0000
0000
0000
,  // measure 11
0000
0000
0000
0000
0000
0000
0000
0001
,  // measure 12
0000
0000
0000
0000
,  // measure 13
0000
0000
0000
0000
0000
0000
0000
0001
,  // measure 14
0000
0000
0000
0000
,  // measure 15
0000
0000
0000
0000
0000
0000
0000
0010
,  // measure 16
0000
0000
0000
0000
,  // measure 17
0000
0000
0000
0000
0000
0000
0000
0010
,  // measure 18
0000
0000
0000
0000
,  // measure 19
0000
0000
0000
0000
0000
0000
0000
0100
,  // measure 20
0000
0000
0000
0000
,  // measure 21
0000
0000
0000
0000
0000
0000
0000
0100
,  // measure 22
0000
0000
0000
0000
,  // measure 23
0000
0000
0000
0000
,  // measure 24
1000
0000
0000
0000
,  // measure 25
0000
0000
0000
0000
,  // measure 26
1000
0000
0000
0000
,  // measure 27
0000
0000
0000
0000
,  // measure 28
0001
0000
0000
0000
,  // measure 29
0000
0000
0000
0000
,  // measure 30
0001
0000
0000
0000
,  // measure 31
0100
0000
0000
0000
0000
0000
0000
0010
,  // measure 32
0000
0000
0000
0000
0000
0000
0000
1000
,  // measure 33
0000
0000
0000
0000
,  // measure 34
0001
0000
0000
0000
0000
0000
0000
0010
,  // measure 35
0000
0000
0000
0000
,  // measure 36
0100
0000
0000
0000
0000
0000
0000
1000
,  // measure 37
0000
0000
0000
0000
,  // measure 38
0001
0000
0000
0000
,  // measure 39
0100
0000
0000
0000
,  // measure 40
0010
0000
0000
0000
0000
0000
0000
1000
,  // measure 41
0000
0000
0000
0000
0000
0000
0000
0001
,  // measure 42
0000
0000
0000
0000
0000
0000
0000
0010
,  // measure 43
0000
0000
0000
0100
,  // measure 44
0000
0000
0000
0000
0000
0000
0000
1000
,  // measure 45
0000
0000
0000
0000
0000
0000
0000
0001
,  // measure 46
0000
0000
0000
0000
0000
0000
0000
0100
,  // measure 47
0000
0000
0000
0020
,  // measure 48
0000
0000
0000
0000
,  // measure 49
0000
0000
0000
0000
,  // measure 50
1030
0000
0000
0000
0000
0000
0000
1001
,  // measure 51
0000
0000
0000
0000
,  // measure 52
1000
0000
0000
0000
0000
0000
0000
0010
,  // measure 53
0000
0000
0000
0000
,  // measure 54
0100
0000
0000
0000
,  // measure 55
0001
0000
0000
0000
,  // measure 56
1000
0000
0000
0000
,  // measure 57
0100
0000
0000
0000
,  // measure 58
0010
0000
0000
0000
0000
0000
0000
0001
,  // measure 59
0000
0000
0000
0000
,  // measure 60
1000
0000
0000
0000
0000
0000
0000
0010
,  // measure 61
0000
0000
0000
0000
,  // measure 62
0100
0000
0000
0000
,  // measure 63
0001
0000
1000
0000
,  // measure 64
0100
0000
0000
0000
,  // measure 65
0010
0000
0001
0000
,  // measure 66
1000
0000
0000
0000
0010
0000
0000
0100
,  // measure 67
0000
0000
0000
0000
,  // measure 68
0001
0000
0000
0000
0000
0000
0000
1000
,  // measure 69
0000
0000
0000
0000
,  // measure 70
0100
0000
0000
0000
0020
0000
0000
0031
;

//---------------dance-single - Itsugo15----------------
#NOTES:
     dance-single:
     Itsugo15:
     Challenge:
     12:
     0.950,1.000,0.777,0.500,0.189:
0000
0000
0000
0000
,
0000
0000
0000
0000
0000
0000
0000
0004
,
0000
0000
0000
0000
,
0000
0000
2000
0003
0002
3000
1003
2000
,
0000
0000
3200
0000
0320
0000
0032
0000
2003
0000
0000
0000
0002
0000
0000
3003
,
1001
0000
0000
1001
0000
0000
1001
0000
,
0000
0000
0000
0000
0000
0000
0001
1000
0001
0000
0001
0000
0001
0000
0101
0000
,
0000
0100
0010
1000
0200
0000
1300
0001
,
0200
0000
0310
1000
0001
0010
0010
0011
,
0000
0001
0010
0100
2000
0000
3010
0100
,
0002
0000
0013
0100
1000
1000
0100
1100
,
0000
1000
0001
0100
0020
0000
1030
0001
,
0020
0000
0031
1000
1000
0010
0100
0110
,
0000
0101
0001
0000
1000
0000
1100
0000
,
0110
0000
0010
0000
0001
0000
0100
0000
0001
0000
0010
0100
1000
0000
1100
0000
,
0000
1000
0100
0010
0002
0000
0103
0001
,
2000
0000
3100
0010
0001
0001
1000
1001
,
0000
1000
0010
0010
0100
0100
0001
0001
,
2000
0001
0001
0010
3010
0100
0001
0101
,
0000
0001
1000
0020
0200
0030
0301
2000
,
0200
3000
0310
0001
1000
0010
0100
0110
,
0000
0101
0001
0000
1001
0000
1100
0000
,
0100
0000
0010
0000
0110
0000
0100
1000
0001
0000
0100
0000
0010
0000
1000
0000
,
1010
0000
0010
1000
0010
1000
0010
1000
,
0010
1000
0010
0000
1000
0000
0010
1000
0010
0000
1000
0000
0002
0000
1000
0000
,
1003
0001
1000
0001
1000
0001
1000
0001
,
1000
0000
0001
1000
0001
0000
1000
0000
0001
1000
0001
0000
0020
0000
0001
0000
,
0031
0010
0001
0010
0001
0010
0001
0010
,
0001
0010
0001
0000
0010
0000
0001
0010
0001
0000
0010
0000
0100
0000
2000
0000
,
0002
0000
3000
0100
0200
0000
0003
0010
,
0020
0000
0300
1030
0002
1000
1003
1001
,
0000
0001
0100
0001
0010
1000
0010
0001
,
0100
0010
1000
0010
0100
0001
1000
0100
,
0010
0100
1000
0010
0100
0001
0010
0100
,
1000
0010
0001
0010
1000
0100
1000
0001
,
0100
0010
1000
0100
0010
0100
1000
0001
,
0100
0010
1000
0001
0010
1000
0010
0100
,
1000
0100
0010
0001
0100
0010
1000
0010
,
0001
0000
0010
1000
0010
0000
0100
0001
0100
0000
0010
1000
0001
1000
0010
0100
,
0001
0100
1000
0001
0010
1000
0001
0010
,
1000
0001
0100
1000
0001
1001
1000
1010
,
0010
0001
1000
0100
0010
1000
0100
0010
,
0100
1000
0010
0100
0001
0101
0100
0110
,
0010
0100
0001
0100
1000
0001
0010
1000
,
0100
0001
0100
1000
0010
1010
1000
1001
,
0001
0010
0100
1000
0100
0010
0001
1000
,
0010
0000
0100
0000
0001
0000
0010
0100
2000
0000
3020
0000
0200
0000
0002
0000
,
0000
0333
0001
0000
0101
0000
0100
0010
,
0000
0110
1000
0000
1010
0000
1001
0000
,
0011
0000
1100
0000
1001
0000
M000
0000
000M
0000
00M0
0002
0M00
0000
1103
0000
,
0000
0100
1000
0010
0002
0000
0013
0100
,
2000
0000
3100
0010
2000
0001
3001
1001
,
0000
0001
0010
0000
0011
0000
0001
0101
,
0100
0010
1000
0001
0010
0200
1000
1300
,
1100
0000
1001
0001
0100
0010
0001
0010
,
1000
0010
0100
0001
1000
0100
0001
0100
,
2000
0001
0001
3002
0100
0100
0203
0010
,
0310
1000
0100
1000
0010
0100
0001
0010
0001
0100
0010
1000
0100
0000
1100
0000
,
0000
1000
1100
0000
0001
0001
0101
0000
,
1001
0000
1010
0010
1000
0000
0001
0011
,
0000
0110
0100
0000
1100
1000
0001
0100
,
0101
0000
1000
0000
1100
0000
0001
0000
0101
0000
0100
0001
1000
0100
0010
0001
,
0010
0000
0011
1001
0000
1001
1010
0000
,
0101
0000
1001
1100
0000
1100
0110
0000
,
0110
0000
0000
0000
0010
0001
1000
0000
0001
1000
0010
0000
1000
0010
0100
0000
,
0110
0000
0100
0001
1000
0010
0100
0001
0100
0010
1000
0001
0100
0000
0101
0000
,
0000
0100
0010
1000
0200
0000
1300
0001
,
0200
0010
0310
1000
0001
0010
0010
0011
,
0000
0101
0001
0000
1001
0000
1100
0000
,
0110
0000
0000
0000
0011
0000
0001
1000
0001
0000
1000
0000
2020
0000
0101
0000
,
0000
0000
0000
0000
,
3030
0000
0000
0000
;

//---------------dance-single - Itsugo15----------------
#NOTES:
     dance-single:
     Itsugo15:
     Medium:
     7:
     0.506,0.670,0.455,0.144,0.017:
0000
0000
0000
0000
,
0000
0000
0000
0000
,
0000
0000
0000
0000
,
0000
0000
0000
0000
0000
0001
0000
0000
0000
0000
0001
0000
,
0000
0002
0203
0320
,
1030
0000
0000
1000
0000
0000
1000
0000
,
0000
0000
0000
0000
0001
0000
0000
0101
,
0000
0100
0010
1000
,
0000
0100
0000
1000
,
0000
0001
0100
0010
,
0000
1000
0000
0001
,
0000
0010
0100
1000
,
0000
0100
0000
1000
,
0000
0001
0100
0010
,
0000
0000
1000
0000
0001
0000
0000
1001
,
0000
1000
0000
0001
,
0000
0010
0100
1000
,
0000
0001
0000
0100
,
0000
0010
1000
0100
,
0000
1000
0000
0010
,
0000
0100
0001
1000
,
0000
0100
0000
0010
,
0000
0001
1000
0100
,
1100
0000
0000
1000
0000
0010
0000
0100
,
0000
0100
0001
0000
0001
0000
1000
0000
,
0100
0000
0010
0001
0000
1000
0000
0010
,
0000
0100
0001
0000
1000
0000
1000
0100
,
0010
0000
0010
0001
0000
1000
0000
0010
,
0000
0100
0001
0000
0001
0000
1000
0000
,
0200
0000
0000
0010
0010
0000
0000
0001
,
0001
0000
0000
1000
1300
0000
0000
1100
,
0000
1000
0100
0000
1000
0000
0010
0001
,
0000
0010
1000
0000
0001
0000
0101
0000
,
1001
0000
0001
0010
0000
0100
0000
1000
,
0000
0001
0100
0000
0010
0000
1000
0000
,
1010
0000
1000
0001
0000
0001
0010
0100
,
0000
0100
1000
0000
0001
0000
1001
0000
,
0101
0000
0001
0010
0000
0001
0000
1000
,
0010
0000
0100
0001
1000
0000
0100
0000
,
0010
0010
0001
0001
,
0100
0100
0010
0110
,
0110
0010
0010
1000
,
1000
0100
0010
0110
,
0110
0100
0100
0010
,
0001
0001
1000
1001
,
1001
1000
0001
0001
,
0100
0000
0010
1000
0001
0000
1001
0000
,
1000
0000
0001
0000
0010
0000
0100
1000
,
0000
0001
0100
0000
0010
0000
1000
0000
,
1010
0000
1010
0000
1001
0000
0000
0000
0000
0000
0000
0002
0000
0003
0101
0000
,
0000
0000
0100
0010
2000
0000
3010
0100
,
0002
0000
1003
0000
0100
0000
1000
0001
,
0000
0000
1001
0000
0101
0000
0001
0100
,
0000
0010
1000
0000
0100
0000
0010
0000
,
0110
0000
0100
1000
0100
0010
0001
0010
,
0100
0010
0001
0100
0010
1000
0001
0010
,
0200
1000
2300
0001
,
3001
0000
0100
0000
0010
0000
1000
1010
,
0000
0000
1001
0000
0001
0010
0001
0000
,
0011
0000
0001
1000
0000
1000
0001
0010
,
0000
0000
0011
0000
1100
0000
1000
0001
,
0101
0000
1001
0000
1100
0000
0010
0001
,
0011
0000
0000
1100
0000
0000
1001
0000
,
0101
0000
0000
1001
0000
0000
1100
0000
,
0010
0001
0100
0010
,
1000
0000
0001
0020
0000
0100
0030
0110
,
0000
0010
0001
1000
0010
0000
0100
0000
,
0002
0000
1003
0000
2000
0000
3001
1001
,
0000
0101
1010
0100
,
1000
0000
0010
0000
0100
0000
0001
2000
,
0000
0000
0000
0000
,
3000
0000
0000
0000
;

//---------------dance-single - Huzure----------------
#NOTES:
     dance-single:
     Huzure:
     Hard:
     9:
     0.749,0.828,0.489,0.211,0.133:
0000
0000
0000
0000
,
0000
0000
0000
0000
,
0000
0000
0000
0000
,
0000
0000
0000
0000
,
0000
0000
0000
0000
,
0010
0000
0000
0010
0000
0000
0010
0000
,
0000
0000
0000
0000
0000
0000
1000
0010
1000
0000
0010
0000
1000
0000
1001
0000
,
0000
0001
0100
1000
0100
0000
0001
0010
,
1000
0000
0001
0100
1000
0100
0010
0020
,
0000
0031
1000
0010
0100
0000
0001
1000
,
0010
0000
0100
0001
1000
0100
0000
1100
,
0000
0100
1000
0001
0100
0000
0010
0100
,
0001
0000
0010
0001
1000
0010
1000
2000
,
0000
3001
0001
0000
0010
0001
0100
0000
,
0010
0000
1000
0000
0100
0000
0000
0000
1000
0000
0100
0010
0001
0000
0200
0000
,
0000
0301
0100
1000
0100
0000
0001
1000
,
0001
0000
1000
0010
1000
0001
0010
0020
,
0000
0130
0010
0001
0001
0010
0010
0100
,
0100
0000
1000
1000
0100
0100
0010
0011
,
0000
0001
1000
0010
1000
0000
0010
1000
,
0010
0000
0001
0010
1000
0100
0000
0110
,
0000
0010
0001
0000
1000
0010
0100
0000
,
0001
0000
0100
0000
0110
0000
1000
0010
1000
0000
0010
0000
0110
0000
0001
0100
,
0001
0000
0001
1000
0001
0000
0000
0000
,
2000
0000
3010
1000
0020
0000
0000
0100
,
0130
0000
0001
0100
0002
0000
0000
0000
,
0013
0000
0100
0000
1000
0000
0100
0100
,
0010
0000
0001
0100
0002
0000
0000
0000
,
0013
0000
0100
0010
0100
0000
2000
0000
,
0001
0000
0000
0001
0010
0000
0000
0010
,
3200
0000
0000
0000
0320
0001
0130
0110
,
0000
0010
0001
0010
0000
0110
0000
0011
,
0000
0001
0010
0100
1000
1000
1000
0000
,
0001
0100
0001
1000
0000
1001
0000
0001
,
1000
0100
0010
0001
0010
0100
1000
0001
,
0101
0000
1000
1100
0000
0011
0000
0020
,
0000
0130
1000
0010
0100
0001
0010
0001
,
0100
0000
0010
1000
0010
1000
0011
0000
,
0001
0000
0010
0001
0100
0000
0010
1000
0100
0000
0010
0001
1000
0000
0001
0100
,
0010
0000
1001
0000
0101
0000
0100
0101
,
0000
0001
0100
1000
0100
0010
0100
0002
,
0000
1000
1000
0000
0103
0000
0001
0100
,
0000
0020
1000
0000
0031
0010
0100
1000
,
0010
0000
1001
0000
0110
0000
0001
1000
,
0000
0001
1000
0000
0100
0010
0100
0010
,
0000
0010
1000
0010
0001
0000
0011
0200
,
0000
0000
1300
0000
0010
0000
0100
0001
0010
0000
0100
0000
1000
0000
0002
0000
,
0000
0000
1000
0000
1000
0000
1003
1000
,
0000
0010
0010
0000
1000
0000
0100
0000
,
0001
0001
0001
0000
0000
0000
0000
1001
,
0000
0001
0100
1000
0100
0010
0100
0001
,
0010
0100
0001
0100
1000
0010
1000
1001
,
0000
0001
0100
0100
0010
0010
1000
0010
,
0100
0000
0001
0100
0001
0000
0010
0000
0100
0000
0000
0000
1100
0000
0000
0000
,
0011
0000
0001
1000
0001
0100
0001
0010
,
0001
1000
0100
0010
0001
1000
0001
0000
,
1001
1100
1001
0011
,
0010
0000
0100
0010
0100
0000
1000
0100
1000
0000
0010
0100
0010
0000
0200
0000
,
0000
0301
0101
0000
0100
0001
0100
1000
,
0100
0000
0000
0001
0010
0000
0100
0000
1000
0000
0100
0000
0010
0000
0110
0000
,
0000
0001
1000
0001
1000
0010
0100
0001
,
1100
0000
0000
0000
0011
0000
0000
0000
0100
1000
0100
1000
0100
1000
0100
1000
,
0001
0100
0100
0110
0000
0001
0101
0000
,
1001
0000
0000
0000
0100
0000
0011
0000
0000
0000
0100
0000
0011
0000
0000
0001
,
1000
0100
1000
0001
1000
0100
1000
0001
,
0100
0000
0010
0100
0010
0100
0001
0010
0001
0010
0100
1000
0001
0000
0200
0000
,
0000
0301
0010
0100
1000
0000
0100
0010
,
0100
0000
0010
0001
0010
0100
1000
1010
,
0000
0001
0101
0000
1100
0000
0011
0000
,
0101
0000
1100
0000
0011
0000
1000
2000
,
0000
0000
0000
0000
,
3000
0000
0000
0000
;

//---------------dance-single - Huzure----------------
#NOTES:
     dance-single:
     Huzure:
     Easy:
     3:
     0.227,0.355,0.044,0.122,0.000:
0000
0000
0000
0000
,
0000
0000
0000
0000
,
0000
0000
0000
0000
,
0000
0000
0000
0000
,
0000
0000
0000
0000
,
0000
0000
0000
0000
,
0000
0000
0000
0000
0000
0000
0000
0011
,
0000
0000
0010
0000
,
0001
0000
0000
0000
1000
0000
0000
0010
,
0000
0000
0100
0000
,
0010
0000
0000
0000
1000
0000
0000
0100
,
0000
0000
0100
0000
,
1000
0000
0000
0000
0001
0000
0000
1000
,
0000
0000
0001
0000
,
0010
0000
0000
0000
0100
0000
0000
0100
,
0000
0000
1000
0000
,
0001
0000
0000
0000
0100
0000
0000
0001
,
0000
0000
1000
0000
,
0100
0000
0000
0000
1000
0000
0000
1000
,
0000
0000
0010
0000
,
0100
0000
0000
0000
0001
0000
0000
0010
,
0000
0000
0001
0000
,
1000
0000
0010
0000
,
0200
0000
0000
0000
,
0300
0000
0000
0000
,
0020
0000
0000
0000
,
0030
0000
0000
0000
,
2000
0000
0000
0000
,
3000
0000
0000
0000
,
0002
0000
0000
0000
,
2003
0000
3200
0000
,
0310
0000
0000
0000
0000
0000
0000
0001
,
0000
0000
1000
0000
,
0010
0000
0000
0000
0000
0000
0000
0100
,
0000
0000
0001
0000
,
0010
0000
0000
0000
0000
0000
0000
1000
,
0000
0000
0100
0000
,
0010
0000
0000
0000
,
0002
0000
2003
0000
,
3001
0001
0001
0001
,
0000
1000
1000
1000
,
0000
0010
0010
0010
,
0000
1000
1000
1000
,
0000
0100
0100
0100
,
0000
0010
0010
0010
,
0000
0001
0001
0001
,
0000
1000
0001
2000
,
0000
0000
3000
0000
,
0000
0000
0000
0000
,
0000
0000
0000
0000
0000
0000
0000
0110
,
0000
0000
0100
0000
,
0010
0000
0000
0000
0001
0000
0000
1000
,
0000
0000
0001
0000
1000
0000
0000
0010
,
0000
0100
0000
0001
,
0010
0000
0100
0000
,
1000
0000
0001
0000
,
2000
0000
0001
0000
,
3001
0000
0000
0000
1000
0000
0000
1001
,
0000
0000
0001
0000
,
1000
0000
0000
0000
0100
0000
0000
0010
,
0000
0000
0001
0000
1000
0000
0000
0010
,
0000
0100
0000
0001
,
1000
0000
0000
0100
0000
0000
0010
0000
,
0001
0000
0000
0010
0000
0000
0100
0000
,
1000
0001
1000
0001
,
1000
0000
0001
0000
,
0101
0000
0100
0000
,
0010
0000
1000
0000
,
0001
1000
0001
1000
,
0010
0000
0100
0000
0010
0000
0100
0002
,
0000
0000
0000
0000
,
0003
0000
0000
0000
;
