#TITLE:Brave Shine;
#SUBTITLE:フェイト/ステイナイト;
#ARTIST:Aimer;
#TITLETRANSLIT:Brave Shine;
#SUBTITLETRANSLIT:Fate/stay night -Unlimited Blade Works-;
#ARTISTTRANSLIT:Aimer;
#GENRE:Anime;
#CREDIT:Huzure & Itsugo;
#BANNER:BraveS-bn.png;
#BACKGROUND:BraveS-bg.png;
#JACKET:BraveS-Jacket.png;
#LYRICSPATH:Brave Shine.lrc;
#CDTITLE:Collab.png;
#MUSIC:Brave Shine.mp3;
#OFFSET:-0.446;
#SAMPLESTART:55.762;
#SAMPLELENGTH:25.100;
#SELECTABLE:YES;
#LISTSORT:;
#DISPLAYBPM:171;
#BPMS:0.000=171.000,112.000=85.500,128.000=171.000;
#STOPS:;
#TICKCOUNT:0.000=6;
#BGCHANGES:-2.250=Fate stay night [UBW] ss2 OP.avi=1.000=1=0=0,
237.000=BraveS-bg.png=1.000=1=0=0,
99999=-nosongbg-=1.000=0=0=0 // don't automatically add -songbackground-
;
#KEYSOUNDS:;
#ATTACKS:;

//---------------dance-single - Huzure----------------
#NOTES:
     dance-single:
     Huzure:
     Challenge:
     10:
     0.796,1.000,0.766,0.544,0.355:
0000
0000
0000
0000
,
0000
0000
0000
0000
,
0000
0000
0000
0000
,
0000
0000
0000
0000
,
1020
1000
0000
0230
0001
0010
0302
1000
,
0003
1001
0000
1000
1001
0100
0000
0100
,
0110
1000
0000
0001
0011
0010
0100
0100
,
2000
0000
0001
0000
0000
0000
3001
0000
0110
0000
0001
0000
0000
0000
1000
0010
,
0200
1000
0000
0302
0100
0010
2003
0100
,
3000
0110
0000
0001
1001
1000
0001
0100
,
0110
0010
0000
1000
1100
0010
0000
0011
,
1000
0000
1100
0000
0100
1000
0001
1000
0100
0000
0010
0000
0001
0100
0010
0100
,
0001
0000
0000
1000
1100
0000
0000
0100
,
0000
0000
1000
0000
0100
0000
0000
0000
0010
0000
0001
0000
0000
0000
0100
0010
,
1000
0000
0001
0010
0100
0000
0000
1000
,
0000
0000
1010
0000
0010
0000
0000
0000
1001
0000
0001
0000
0000
0000
1000
0010
,
1000
0000
0000
0001
0101
0100
1000
0100
,
0000
0000
0101
0000
1000
0000
0000
0000
1100
0000
0001
0000
0000
0000
0100
0010
,
0100
0001
0010
0001
2001
0100
0000
3002
,
0023
0000
0230
0000
0320
0000
0000
0000
0031
0000
0100
0000
0010
1000
0100
0010
,
0001
0000
0000
1000
0110
2000
0000
0001
,
0000
0000
3001
0000
1000
0000
0000
0000
0101
0000
0100
0000
0010
1000
0001
0010
,
0100
1000
0100
1000
1200
0001
0000
1000
,
0000
0000
0310
0000
0001
0000
0100
0010
1000
0000
0100
0000
0000
0000
1000
0100
,
0010
0000
0001
1000
1020
0000
1000
0230
,
0000
0010
0301
0000
1100
1000
0000
0001
,
0010
0001
1000
0100
0110
0100
0000
0001
,
0000
0000
0101
0000
0100
0000
1000
0010
0100
0000
0001
0000
0100
0000
0001
0000
,
1001
0000
1000
0000
0010
0000
0100
0000
0002
0000
0003
0000
0010
0000
0001
0000
0100
0000
1000
0000
0100
0000
0020
0000
0030
0000
0200
0000
0301
0010
0100
0010
,
0001
0100
0001
0100
0002
0003
0010
0100
1000
0100
0001
0200
0300
0100
0100
0100
,
0100
0000
1000
0000
0010
0100
0010
1000
0002
0000
0003
0000
0010
0000
0001
0100
0001
0000
1000
0000
0100
0000
0002
0000
0003
0000
0100
0000
1000
0000
0001
0000
,
0100
0000
0000
0000
0001
0000
0010
0000
0100
0000
1000
0010
1000
0000
0010
0000
0010
0000
0010
1000
0100
0000
1000
0000
0002
0000
0023
0000
0230
0000
2300
0000
,
3001
0000
0000
1001
2002
0000
3003
0110
,
0000
0110
0001
0000
0110
0100
1001
0000
,
1010
0101
0000
0000
0000
0000
0000
0000
,
0000
0000
0000
0000
0000
1000
1100
0000
,
0021
0000
0000
0001
0001
0030
0110
1100
,
0000
0000
1000
0000
0001
0000
0100
0000
1000
0000
0100
0000
0001
0010
0100
1000
,
0001
0100
0000
0001
1100
0000
1000
1000
,
0000
0100
0010
0001
0101
1000
0000
1010
,
0101
0000
0001
0001
2000
0000
0100
3100
,
0000
0000
1100
0000
0000
0000
1000
0000
0001
0000
1000
0000
0000
0000
0010
0100
,
0001
0100
0000
1000
1200
0000
0310
0100
,
0000
0000
0101
0000
0100
0000
0010
0000
1010
0000
1000
0100
1000
0000
0001
0000
,
0201
0000
0000
1000
0001
0000
0010
0310
,
0000
0000
1001
0000
0000
0000
0100
0000
1001
0000
0100
0000
0000
0000
0010
0001
,
2000
0010
0000
3010
1010
0000
0110
0210
,
0000
0301
0000
0100
0120
1000
0030
0001
,
2002
0000
3003
0100
0110
0100
0200
0000
,
0300
0000
1100
0000
0000
0000
0001
0000
1010
0000
0200
0000
0000
0310
1000
0100
,
0020
0000
0000
0031
0100
0100
0200
0000
,
0301
0000
1000
0000
0010
0100
0010
0100
0010
0000
0100
0000
0010
0000
0100
0000
,
0201
0000
0010
0001
0010
0300
1010
0001
,
0000
0000
1100
0000
0000
0000
1000
0000
1001
0000
0001
0000
0000
0000
0010
0100
,
0020
0001
0000
0031
2000
0000
3001
1001
,
0000
0000
1100
0000
0000
0000
0100
0000
2000
0000
0001
0000
3000
0000
0010
0001
,
0200
0000
0300
0010
1100
0000
1001
1010
,
0000
1000
0001
0100
0010
1000
0010
0100
,
0001
0000
0000
0000
0000
0000
0010
0000
0000
0001
0000
0000
0010
0000
0000
0000
0100
0000
0000
0000
1000
0000
0000
0000
0010
0000
0000
0000
0000
0000
1000
0000
0000
0000
0000
0000
1001
0000
0000
0000
0000
0000
2002
0000
0000
0000
0000
0000
,
0000
3003
0000
0000
;

//---------------dance-single - Itsugo15----------------
#NOTES:
     dance-single:
     Itsugo15:
     Hard:
     9:
     0.696,0.915,0.822,0.389,0.144:
0000
0000
0000
0000
,
0000
0000
0000
0000
,
0000
0000
0000
0000
,
0000
0000
0002
0000
,
1013
0000
0010
0000
0110
0000
0100
0001
,
1000
1001
0001
0010
0011
0001
1000
0100
,
1100
1000
0000
1001
0001
0000
0101
0100
,
0020
1000
0000
1030
2000
0001
0000
3001
,
1001
0000
1000
0000
1010
0000
0010
1000
,
0001
1001
1000
0100
1100
1000
0001
0010
,
0011
0001
0000
1001
1000
0000
1010
0010
,
0200
0001
0300
0001
0002
1000
1000
1003
,
1001
0001
0000
0101
0001
0000
1000
0100
,
0000
0010
0010
0100
1000
0000
1100
0000
,
1001
0001
0000
0100
0010
0000
1000
0001
,
0000
0010
0010
0001
1000
1001
0000
0000
,
0010
0100
0010
0000
1010
0000
1000
0001
,
0000
0001
0011
0000
0110
0000
0100
1000
,
0001
1001
0000
0001
0101
0000
0100
0010
,
0000
0010
1000
0100
1000
0010
0100
0001
,
0101
0001
0000
0100
0010
0000
1000
0001
,
0000
0010
0000
0100
0010
0000
0001
0010
,
0011
0001
0000
1000
0010
0000
0010
0100
,
0000
0100
0001
1000
0100
1100
0000
0000
,
1001
0000
0001
0000
0101
0000
0100
0010
,
0000
1010
1000
0000
1001
0001
0000
0010
,
0110
0100
0000
1000
1100
0000
0100
0110
,
0010
0001
0001
0010
0100
1000
0001
0100
,
0010
1000
0000
1000
0001
0000
0001
0010
0100
1000
0000
0002
0000
0203
0000
0300
,
0101
0000
0001
1000
0000
1000
0100
0010
0001
0010
0100
2000
0000
3002
0000
0003
,
0011
0000
0001
1000
0000
1000
0010
0100
0010
0000
1000
0001
0000
0001
0100
0000
,
0101
0000
0001
2000
0000
3100
2000
0000
3001
0200
0000
0310
1000
0000
0001
0000
,
1001
0000
0001
0010
0011
0000
0001
1000
,
0000
1000
1010
0010
1000
0100
1000
0001
,
1001
0000
1001
0000
0000
0000
M000
0000
0000
0000
00M0
0000
0000
0000
0M00
0M00
,
0M00
0M00
0M00
0M00
0M00
0000
000M
00M0
0M00
M000
1000
0000
0101
0000
0000
0000
,
0120
0000
0000
1000
0130
0000
0110
0000
,
0100
0001
0000
1000
1001
0000
0001
0010
,
0011
0000
0010
0001
2000
0000
3010
2000
,
0001
0000
3100
2000
0000
3001
0010
0100
,
0210
0000
0000
1000
0310
0000
0110
0000
,
0010
0001
0000
1000
1001
0000
0001
0100
,
0101
0000
0100
0001
2000
0000
3100
2000
,
0001
0000
3010
2000
0000
3001
0001
0100
,
0120
0000
0000
0100
1030
0000
1010
1000
,
0000
0001
0000
0010
0011
0000
0001
1000
,
1001
0000
1000
0010
2000
0000
3010
0002
,
0000
0100
1003
2000
0001
3000
0010
0100
,
0220
0000
0330
0000
0100
0100
0002
0000
,
1003
1001
0000
0001
0011
0000
0001
1000
,
2002
0000
3003
0001
0100
0100
0020
0000
,
1030
0001
0010
0100
1000
0100
0010
0001
,
0011
0000
0001
1000
0000
1000
2200
0000
,
3300
1100
0000
1000
1001
0000
0001
0100
,
0010
0110
0000
1000
0101
0000
0001
1000
,
0000
1100
0000
1000
0101
0000
0001
0100
,
0202
0000
0303
0001
1000
0000
1001
0000
,
0001
0011
0000
1000
1100
0000
1001
0000
,
2000
0001
0001
0001
0001
3001
1001
1001
;

//---------------dance-single - Huzure----------------
#NOTES:
     dance-single:
     Huzure:
     Beginner:
     1:
     0.111,0.165,0.044,0.178,0.000:
0000
0000
0000
0000
,
0000
0000
0000
0000
,
0000
0000
0000
0000
,
0000
0000
0000
0000
,
2000
0000
0000
0000
,
0000
0000
0000
3000
,
0011
0000
0000
0000
,
0000
0000
0000
0000
,
0002
0000
0000
0000
,
0000
0000
0000
0003
,
1010
0000
0000
0000
,
0000
0000
0000
0000
,
0001
0000
0000
0000
0000
0000
0000
1000
,
0000
0000
0000
0000
,
0100
0000
0000
0000
0000
0000
0000
1000
,
0000
0000
0000
0000
,
0010
0000
0000
0000
0000
0000
0000
0100
,
0000
0000
0000
0000
,
0100
0000
0000
0000
0000
0000
0000
0001
,
0000
0000
0000
0000
,
2000
0000
0000
0000
0000
3000
0000
1000
,
0000
0000
0000
0000
,
0001
0000
0000
0000
0000
0000
0000
0100
,
0000
0000
0000
0000
,
0001
0000
0000
0000
0000
0000
0000
0100
,
0000
0000
0000
0000
,
0010
0000
0000
0000
0000
0000
0000
1000
,
0000
0000
0000
0000
,
0002
0000
0000
0000
0000
0000
0000
0003
,
2000
0000
0000
0000
0000
0000
0000
3000
,
0020
0000
0000
0000
0000
0000
0000
0030
,
0200
0000
0000
0000
0000
0000
0000
0300
,
0001
0000
0000
0000
0000
0000
0000
1000
,
0000
0000
0000
0000
,
0200
0300
0000
0000
,
0000
0000
0000
0000
,
0110
0000
0000
0000
0000
0000
0000
0010
,
0000
0000
0000
0000
,
0001
0000
0000
0000
0000
0000
0000
1000
,
0000
0000
0000
0000
,
0010
0000
0000
0000
0000
0000
0000
1000
,
0000
0000
0000
0000
,
0001
0000
0000
0000
0000
0000
0000
0100
,
0000
0000
0000
0000
,
0220
0000
0000
0000
,
0000
0000
0000
0330
,
0001
0000
0000
0000
0000
0000
0000
1000
,
0000
0000
0000
0000
,
0100
0000
0000
0200
,
0000
0300
0000
0000
0000
0000
0000
0000
,
0010
0000
0000
0020
,
0000
0030
0000
0000
0000
0000
0000
0000
,
0001
0000
0000
2000
,
0000
0000
3000
0000
,
0010
0000
0000
0020
,
0000
0000
0030
0000
,
0100
0000
0000
0200
,
0000
0000
0300
0000
,
0001
0000
0000
0000
0000
0000
0000
2000
,
0000
3000
0000
0000
;

//---------------dance-single - Huzure----------------
#NOTES:
     dance-single:
     Huzure:
     Easy:
     4:
     0.351,0.395,0.122,0.289,0.000:
0000
0000
0000
0000
,
0000
0000
0000
0000
,
0000
0000
0000
0000
,
0000
0000
0000
0000
,
0002
0000
0000
0023
0000
0000
0230
0000
,
0000
2300
0000
0000
3001
0000
0000
0000
,
1001
0000
0001
0000
,
1000
0000
0100
0000
,
0020
0000
0000
0032
0000
0000
2003
0000
,
0000
3200
0000
0000
1300
0000
0000
0000
,
0101
0000
0000
0000
1010
0000
0000
0010
,
0000
0010
0000
0000
1000
0000
0001
0000
,
1000
0000
0000
0000
0001
0000
0000
1000
,
0000
0010
0000
0000
0100
0001
0000
0000
,
1000
0000
0000
0000
0200
0000
0000
1000
,
0000
1300
0100
0000
1000
0001
0000
0000
,
0100
0000
0000
0000
0001
0000
0000
1000
,
0000
0001
0010
0000
0010
0100
0000
0000
,
1000
0000
0000
0010
0100
0000
0000
0001
,
0010
0100
1000
0000
0002
0000
1003
0000
,
1002
0000
0000
0000
1003
0000
0000
0010
,
0000
1000
0010
0000
0010
1000
0000
0000
,
0001
0000
0000
0000
1000
0000
0000
0001
,
0000
1000
0010
0000
0100
0100
0000
0000
,
0110
0000
0000
0000
1001
0000
0001
2000
,
0000
3100
0020
0000
0030
0000
0000
0000
,
0001
0000
0000
0000
1000
0000
0000
0010
,
0000
1000
0010
0000
0100
0000
0001
0000
,
0100
0000
0001
0002
0000
0000
0000
0000
,
1003
0000
0100
0200
0000
0000
0000
0000
,
0310
0000
0001
2000
0000
0000
0000
0000
,
3010
0000
0100
0020
0000
0000
0000
0000
,
1030
0000
0000
0000
1001
0000
0000
0001
,
0000
1000
0001
0000
1000
0000
0000
0000
,
0001
0100
0000
0000
0000
0000
0000
0000
,
0000
0000
0000
0000
0000
0001
1000
0000
,
0200
0000
1000
0000
,
0000
1000
0000
0300
0100
1000
0000
0002
,
0000
0000
1003
0100
0000
0010
0000
0002
,
0000
0000
0103
0010
0000
1000
0000
0002
,
1000
0000
0010
0000
,
0000
0010
0003
0000
0010
0000
0100
1000
,
0100
1000
0000
0001
0100
0000
0010
1000
,
0000
0010
0000
0100
0000
0001
0000
2000
,
0010
0000
0010
0000
,
0000
0001
3000
1000
0100
1000
0000
0020
,
0100
0000
1000
0000
,
0000
0100
0000
0030
0110
0000
0000
0000
,
1001
0000
0000
0001
1000
0001
1000
0000
,
0000
0010
0000
0100
0010
0000
1000
0000
,
0001
0000
0000
1000
0001
1000
0002
0000
,
0000
0013
0001
0000
1000
0000
0001
0000
,
0010
0000
0110
1100
,
0000
0001
0000
0000
1000
0000
0000
0000
,
0100
1000
0000
1000
0100
0000
0010
0001
,
0000
0100
0000
0000
0001
0000
1000
0000
,
0200
0000
0000
0000
0010
0000
0310
0100
,
0000
1000
0000
0000
0001
0000
0001
0000
,
1000
0000
0001
0000
0100
0010
0100
0020
,
0000
0030
0000
0000
;

//---------------dance-single - Itsugo15----------------
#NOTES:
     dance-single:
     Itsugo15:
     Medium:
     7:
     0.557,0.621,0.566,0.466,0.000: // measure 1
0000
0000
0000
0000
,  // measure 2
0000
0000
0000
0000
,  // measure 3
0000
0000
0000
0000
,  // measure 4
0000
0000
0000
0000
,  // measure 5
1001
1000
1100
0100
,  // measure 6
0010
0001
0011
1000
,  // measure 7
1001
0001
0101
0100
,  // measure 8
0020
0000
1000
0000
2030
0000
0001
3000
,  // measure 9
1001
0001
0011
0010
,  // measure 10
0100
0110
0010
0001
,  // measure 11
0011
1000
1100
0100
,  // measure 12
0010
0001
0000
0001
1000
0010
0100
0001
,  // measure 13
0101
0000
0001
0000
0101
0000
0100
0010
,  // measure 14
0000
0010
1000
0000
1010
0000
1000
0000
,  // measure 15
1001
0000
0001
0000
0011
0000
0010
0001
,  // measure 16
0000
0001
1000
0000
0010
0020
0030
0000
,  // measure 17
1010
0000
0001
0000
0101
0000
0001
1000
,  // measure 18
0000
1000
0001
0000
0010
0000
0100
0000
,  // measure 19
0110
0000
0100
0000
1000
0000
0001
0100
,  // measure 20
0000
0010
1000
0010
1000
0001
1000
0001
,  // measure 21
0010
0000
0001
0000
0011
0000
0001
0100
,  // measure 22
0000
0100
0001
0000
0101
0000
0001
0000
,  // measure 23
1001
0000
1000
0000
1100
0000
0100
1000
,  // measure 24
0000
1000
0001
0000
0100
0200
0300
0000
,  // measure 25
0101
0000
1000
0000
1010
0000
1000
0001
,  // measure 26
0000
0001
1000
0000
1001
0000
0001
0000
,  // measure 27
0011
0000
0010
0000
0001
0000
1000
0010
,  // measure 28
0000
1010
0010
1000
0001
0010
0100
1000
,  // measure 29
1100
0000
1000
0000
0100
1000
0001
0100
,  // measure 30
0101
0000
0100
0000
0010
1000
0001
0010
,  // measure 31
0011
0000
0001
0000
1000
0010
0100
0001
,  // measure 32
0101
0001
0010
0200
0000
2300
0000
3001
,  // measure 33
1001
0001
0101
0100
,  // measure 34
0010
0000
1000
0000
1010
0010
1000
0002
,  // measure 35
0010
0013
0000
00M0
0000
000M
0000
M000
,  // measure 36
M000
M000
M000
0000
0MM0
0001
1001
0000
,  // measure 37
2010
0000
3001
0102
,  // measure 38
0000
1003
0000
0100
1100
0000
1000
0001
,  // measure 39
0200
0000
0320
2030
0000
3002
0000
0023
,  // measure 40
0000
0032
0000
1003
0002
0000
0103
0000
,  // measure 41
0102
0000
1003
2010
,  // measure 42
0000
3001
0000
0010
0011
0000
0001
1000
,  // measure 43
0020
0000
0230
0302
0000
2003
0000
3200
,  // measure 44
0000
0320
0000
0031
2000
0000
0001
3001
,  // measure 45
2001
0000
3001
0102
,  // measure 46
0000
1003
0000
0100
1100
0000
1000
0001
,  // measure 47
0200
0000
0320
2030
0000
3002
0000
0023
,  // measure 48
0000
0230
0000
1300
0002
0000
1003
0000
,  // measure 49
1001
0000
0002
0000
0100
0103
0200
0000
,  // measure 50
0310
1000
1010
1000
,  // measure 51
1001
0000
2000
0000
0100
3100
0200
0000
,  // measure 52
0310
0001
0010
0100
1000
0100
0010
0001
,  // measure 53
2000
0000
3010
1020
,  // measure 54
0000
0130
0000
0000
0110
0000
0100
0000
,  // measure 55
0001
1000
0000
1000
0001
0000
0001
0010
,  // measure 56
0000
0010
0100
1000
0001
1000
0100
0010
,  // measure 57
0002
0000
0103
0201
,  // measure 58
0000
0310
0000
0000
0110
0000
0010
0000
,  // measure 59
1000
1000
0001
0001
1000
0001
1000
0001
;
