#TITLE:Across the Ocean;
#SUBTITLE:Getaway;
#ARTIST:zircon;
#TITLETRANSLIT:Across the Ocean;
#SUBTITLETRANSLIT:Getaway;
#ARTISTTRANSLIT:Zircon;
#GENRE:Electro;
#CREDIT:Itsugo15;
#BANNER:Across the Ocean-bn.png;
#BACKGROUND:Across the Ocean-bg.png;
#JACKET:Across the Ocean-Jacket.png;
#LYRICSPATH:Across the Ocean.lrc;
#CDTITLE:Itsugo15 SimifileS.png;
#MUSIC:Across the Ocean.mp3;
#OFFSET:-0.382;
#SAMPLESTART:11.460;
#SAMPLELENGTH:30.000;
#SELECTABLE:YES;
#LISTSORT:;
#BPMS:0.000=130.000;
#STOPS:;
#TICKCOUNT:0.000=6;
#BGCHANGES:0.000=Across the Ocean.avi=1.000=0=1=0,
99999=-nosongbg-=1.000=0=0=0 // don't automatically add -songbackground-
;
#KEYSOUNDS:;
#ATTACKS:;

//---------------dance-single - Itsugo15----------------
#NOTES:
     dance-single:
     Itsugo15:
     Challenge:
     12:
     0.887,0.955,0.413,1.000,0.705: // measure 1
0000
0000
0000
0000
0000
0000
0000
2000
,  // measure 2
0000
3000
0000
0000
0000
0000
0000
0000
0000
0000
0000
0000
0000
0000
0000
0000
,  // measure 3
0022
0000
0000
0033
0000
0000
0000
0000
0000
0000
0000
0000
0000
0000
2002
0000
,  // measure 4
0000
0000
3003
2020
0000
0000
3030
0202
,  // measure 5
0000
0000
0303
0220
0000
0000
0330
1001
,  // measure 6
0010
1000
0000
0001
0010
0000
0010
0100
1000
0001
0010
0100
0010
0001
1000
0100
,  // measure 7
0020
0000
0031
0000
0011
0000
0002
0000
1003
0010
0100
0000
0001
0000
2000
0000
,  // measure 8
3100
0000
0000
2000
0000
0000
3001
0100
0001
0100
0000
0010
1000
0001
0010
0100
1000
0100
0010
0001
1000
0100
0010
0001
,  // measure 9
2000
0000
0010
0000
3001
0100
0001
0000
1000
0000
0010
0000
0010
0000
0100
0000
,  // measure 10
0002
0000
1000
1003
0001
0000
0100
0000
0010
1000
0001
0010
0100
1000
0100
0010
,  // measure 11
0002
0000
1000
0003
0010
0100
0000
0000
0001
0000
2000
0100
3100
0000
0020
0000
,  // measure 12
0230
0000
0000
1300
0000
0000
0001
0000
0000
0100
0000
0000
0010
1000
0001
0010
0001
1000
0010
0100
0001
1000
0100
1000
,  // measure 13
0001
0100
0010
1000
0000
1010
0100
0000
0001
0000
2000
0000
3100
0000
0020
0000
,  // measure 14
0031
0000
1000
0010
0100
0001
1000
0100
0010
0000
0110
0000
1001
0000
1100
0000
,  // measure 15
0101
0000
0000
0001
0000
0000
0100
0000
0000
0010
1000
0010
0100
0000
0000
0002
0000
0000
1000
0000
0000
0203
0000
0000
,  // measure 16
0010
0000
0000
0000
0000
0000
1300
0000
0000
0100
0000
0000
0010
0000
0100
0000
0010
0000
1000
0000
0000
0001
0000
0000
0020
0000
0000
0000
0000
0000
0100
0000
0000
0000
0000
0000
1030
0000
0000
0000
0000
0000
0020
0000
0000
0000
0000
0000
,  // measure 17
0100
0000
0031
0001
0020
0000
0130
0000
2000
0000
0001
0000
3010
0000
1010
0000
,  // measure 18
1100
0000
0100
0010
0001
0000
0011
0000
0001
0010
1000
0010
0100
1000
0100
0010
,  // measure 19
0002
0000
2003
0000
3010
1000
1000
0000
0002
0000
0013
0100
1000
0000
1100
0000
,  // measure 20
1000
0000
0100
0000
1000
0000
0002
0000
0000
0000
0000
0000
0203
0000
0000
0000
0000
0000
0310
0000
0000
0000
0000
0000
0000
0000
0000
0110
0000
0000
0000
0000
0000
0000
0000
0000
1010
0000
0000
0000
0000
0000
0001
0000
0000
0000
0000
0000
,  // measure 21
1000
0010
0100
0001
0000
0101
0010
0000
1000
0000
1010
0000
1001
0000
0021
0000
,  // measure 22
0000
0000
0031
1000
0000
0100
1000
0010
0100
0000
0110
0000
1001
0000
0011
0000
,  // measure 23
0002
0203
2300
3002
0023
2030
3002
0023
,  // measure 24
0000
2030
3002
0203
2300
3020
0032
2003
,  // measure 25
0000
3200
0302
0023
2030
3002
2003
3020
,  // measure 26
0000
0032
0000
0203
2300
3002
0023
2030
,  // measure 27
3002
0000
0000
0020
0000
0003
0200
0030
,  // measure 28
2000
0000
0300
0020
0000
3000
0200
0030
,  // measure 29
0002
0000
0000
0000
0000
0300
2000
0000
0000
0000
0000
0003
0200
0000
0000
3000
,  // measure 30
0020
0000
0000
0000
0000
0000
0000
0000
0000
0000
0000
0300
0002
0000
0000
0000
0000
0000
0000
0000
0000
0000
0000
0030
2000
0000
0000
0000
0000
0000
0000
0003
,  // measure 31
3020
0000
0100
0000
0230
0302
2003
3200
,  // measure 32
0010
0001
0010
1000
,  // measure 33
0320
0000
0000
0000
0001
0000
0000
0031
0020
0000
0230
0000
2300
0000
3002
0000
,  // measure 34
0000
0000
0103
0020
0000
0000
0000
0000
1000
0000
0000
0000
0100
0000
0130
0001
,  // measure 35
2000
0000
0001
0000
3002
0203
0320
2030
,  // measure 36
0001
0000
3002
0000
0010
2003
0010
0000
,  // measure 37
3002
0000
0000
0000
0010
0000
0000
0000
0023
0000
0230
0000
2300
0000
3100
0010
,  // measure 38
0001
0100
0010
1000
0100
0010
0100
1000
0010
0100
0001
0010
0100
0010
0001
0100
,  // measure 39
0010
1000
0100
0001
0100
1000
0001
0100
1000
0001
0010
1000
0001
0010
0100
1000
,  // measure 40
0100
0000
0000
1000
0000
0000
0001
0000
0000
0100
0000
0000
0001
0000
0000
1000
0000
0000
0010
0000
0000
1000
0000
0000
0001
0000
0010
0000
0100
0000
1000
0000
0100
0000
0010
0000
0100
0000
1000
0000
0001
0000
0010
0000
0100
0000
0010
0000
,  // measure 41
0001
0111
1000
1110
,  // measure 42
0200
0000
1300
0000
1100
0000
2000
0000
3001
0100
0010
0000
1000
0000
0002
0000
,  // measure 43
0013
0000
0000
0002
0000
0000
1003
0010
1000
0010
0000
0100
0001
1000
0100
0010
0001
0010
0100
1000
0001
0010
0100
1000
,  // measure 44
0002
0000
0100
0000
1003
0010
1000
0000
0001
0000
0100
0000
0100
0000
0010
0000
,  // measure 45
2000
0000
0001
3001
1000
0000
0010
0000
0100
0001
1000
0100
0010
0001
0010
0100
,  // measure 46
2000
0000
0001
3000
0100
0010
0000
0000
1000
0000
0002
0010
0013
0000
0200
0000
,  // measure 47
0320
0000
0000
0031
0000
0000
1000
0000
0000
0010
0000
0000
0100
0001
1000
0100
1000
0001
0100
0010
1000
0001
0010
0001
,  // measure 48
1000
0010
0100
0001
0000
0101
0010
0000
1000
0000
0002
0000
0013
0000
0200
0000
,  // measure 49
1300
0000
0001
0100
0010
1000
0001
0010
0100
0000
0110
0000
1001
0000
0011
0000
,  // measure 50
1010
0000
0000
1000
0000
0000
0010
0000
0000
0100
0001
0100
0010
0000
0000
2000
0000
0000
0001
0000
0000
3020
0000
0000
,  // measure 51
0100
0000
0000
0000
0000
0000
0031
0000
0000
0010
0000
0000
0100
0000
0010
0000
0100
0000
0001
0000
0000
1000
0000
0000
0200
0000
0000
0000
0000
0000
0010
0000
0000
0000
0000
0000
0301
0000
0000
0000
0000
0000
0200
0000
0000
0000
0000
0000
,  // measure 52
0010
0000
1300
1000
0200
0000
0310
0000
0002
0000
1000
0000
0103
0000
0101
0000
,  // measure 53
0011
0000
0000
0000
0000
0000
0010
0000
0000
0100
0000
0000
1000
0000
0000
0000
0000
0000
1100
0000
0000
0000
0000
0000
1000
0000
0100
0000
0010
0000
0001
0000
0010
0000
0100
0000
0010
0000
0001
0000
0010
0000
0100
0000
1000
0000
0001
0000
,  // measure 54
0200
0000
0302
0000
2003
0001
3001
0000
2000
0000
3100
0010
0001
0000
0011
0000
,  // measure 55
0001
0000
0010
0000
0001
0000
2000
0000
0000
0000
0000
0000
3020
0000
0000
0000
0000
0000
0130
0000
0000
0000
0000
0000
0000
0000
0000
0110
0000
0000
0000
0000
0000
0000
0000
0000
0101
0000
0000
0000
0000
0000
1000
0000
0000
0000
0000
0000
,  // measure 56
0001
0100
0010
1000
0000
1010
0100
0000
0001
0000
0101
0000
1001
0000
1200
0000
,  // measure 57
0000
0000
1300
0001
0010
0100
1000
0001
0010
0000
0011
0000
0110
0000
2200
0000
,  // measure 58
0000
0000
3300
0000
;

//---------------dance-single - Itsugo15----------------
#NOTES:
     dance-single:
     Itsugo15:
     Beginner:
     3:
     0.139,0.203,0.135,0.000,0.000:
0000
0000
0000
0000
,
0000
0000
0000
0000
,
0000
0000
0000
0000
,
1000
0000
0001
0000
,
0100
0000
0001
0000
,
0010
0000
0000
0000
,
0100
0000
0110
0000
,
1000
0000
1000
0000
,
0010
0000
1000
0000
,
0100
0000
0010
0000
,
0001
0000
1000
0000
,
0100
0000
0100
0000
,
1000
0000
1000
0000
,
0010
0000
1010
0000
,
1000
0000
1001
0000
,
1000
0000
1000
0000
,
0010
0000
0100
0000
,
0001
0000
0010
0000
,
0001
0000
0100
0000
,
0010
0000
0010
0000
,
1000
0000
1000
0000
,
0010
0000
0010
0000
,
1000
0000
1000
0000
,
0100
0000
0010
0000
,
0001
0000
1000
0000
,
0001
0000
0100
0000
,
0010
0000
0000
0000
,
0000
0000
0000
0000
,
0000
0000
0000
0000
,
0000
0000
0000
0000
,
1010
0000
0000
0000
,
1001
0000
0000
0000
,
0011
0000
0000
0000
,
0110
0000
0000
0000
,
1010
0000
0000
0000
,
0101
0000
0000
0000
,
1001
0000
0000
0000
,
0100
0000
1000
0000
,
0001
0000
1000
0000
,
0010
0000
1000
0000
,
1010
0000
1010
0000
,
0100
0000
0110
0000
,
0010
0000
1000
0000
,
0100
0000
0010
0000
,
0001
0000
0100
0000
,
0010
0000
1000
0000
,
0001
0000
0010
0000
,
0001
0000
1000
0000
,
0100
0000
1100
0000
,
1000
0000
1001
0000
,
0001
0000
1000
0000
,
0100
0000
1000
0000
,
0010
0000
0100
0000
,
0010
0000
1000
0000
,
0100
0000
0010
0000
,
0001
0000
1000
0000
,
0010
0000
0100
0000
;

//---------------dance-single - Itsugo15----------------
#NOTES:
     dance-single:
     Itsugo15:
     Easy:
     5:
     0.430,0.484,0.162,0.728,0.022:
0000
0000
0000
0000
,
0000
0000
0000
0000
,
0000
0000
0000
0000
0000
0000
0000
2000
,
0000
3000
0000
0200
0000
0300
0000
0020
,
0000
0030
0000
0002
0000
0000
0000
0200
,
0000
0000
0000
0303
,
0020
0000
1030
0000
0000
0000
1010
0000
0000
0000
0002
0003
0200
0300
0020
0000
,
0030
0100
0001
1000
0001
0100
0010
1000
,
0001
0000
0001
0010
0000
0010
0001
2000
,
0000
3000
0000
0000
0010
1000
0100
0010
,
0001
0000
0000
0011
0000
0000
0000
0000
0000
0000
0020
0030
0002
0003
2000
3000
,
0000
0000
1001
0000
0000
0000
1000
0000
0000
1000
0000
0000
1000
0000
0000
0000
,
0001
0000
0000
0000
1001
0000
0000
0000
0000
0000
0200
0300
0002
0003
2000
0000
,
0000
0000
0000
3000
0100
0000
0100
0000
,
0020
0000
0031
0000
0000
0000
0011
0000
0000
0000
0020
0030
0002
0003
2000
0000
,
0000
0000
3000
0000
1000
0100
0010
0001
,
0100
0000
0100
0001
0000
0001
0100
0020
,
0000
0030
0000
0000
0010
1000
0001
0010
,
0100
0000
0000
0000
0110
0000
0000
0000
0000
0000
0020
0030
0200
0300
2000
3000
,
0000
0000
1100
0000
0000
0000
1000
0000
0000
1000
0000
0000
1000
0000
0000
0000
,
0100
0000
0000
0000
1100
0000
0000
0000
0000
0000
0200
0300
0020
0030
0002
0000
,
0000
0000
0000
0003
1000
0000
0001
0000
,
2000
3000
0002
0003
0020
0030
0200
0300
,
0020
0030
0002
0003
2000
3000
0020
0030
,
0200
0300
0002
0003
2000
3000
0002
0003
,
0020
0030
0200
0300
2000
3000
0002
0003
,
0200
0000
0000
0000
,
0000
0000
0000
0000
,
0000
0000
0000
0000
,
0000
0000
0000
0300
,
0120
0000
0000
0000
0000
0000
0000
0000
0000
0030
0000
0000
2000
3000
0002
0000
,
0000
0000
0000
0003
,
0201
0000
0000
0000
0000
0000
0300
0000
0002
0003
0200
0300
0020
0030
2000
0000
,
0000
3000
0002
0000
0000
0000
0000
0000
0000
0000
0000
0000
0000
0003
0020
0030
,
0200
0000
0000
0000
0000
0000
0000
0300
2000
3000
0002
0003
0200
0300
0002
0000
,
0000
0000
0000
0003
0020
0000
0000
0000
0000
0030
0002
0000
0003
0000
0000
0000
,
2001
0000
0000
3000
0010
0100
0001
0020
,
0030
0001
0100
0020
0030
0100
0001
2000
,
3000
0001
0100
0002
0003
0100
0001
1000
,
0001
0010
0001
0100
0010
0100
0001
0010
,
0001
0011
1000
1010
,
0020
0000
0130
0000
0000
0000
0110
0000
0000
0000
0002
0003
2000
3000
0020
0000
,
0030
1000
0001
0010
0001
1000
0010
0100
,
0001
0000
0001
1000
0000
1000
0001
0200
,
0000
0300
0000
0000
0001
0100
0010
1000
,
0001
0000
0000
1001
0000
0000
0000
0000
0000
0000
2000
3000
0002
0003
0200
0300
,
0000
0000
0101
0000
0000
0000
0001
0000
0000
0001
0000
0000
0001
0000
0000
0000
,
0100
0000
0000
0000
0101
0000
0000
0000
0000
0000
0002
0003
2000
3000
0020
0000
,
0000
0000
0000
0030
0100
0000
0100
0000
,
0002
0103
0010
0100
0001
1000
0001
0100
,
0010
1000
0001
0010
0001
0100
0010
1000
,
0100
0010
0001
0100
0001
1000
0001
0010
,
0001
0100
0001
1000
0100
0010
0001
0100
,
0010
1000
0001
0010
0001
1000
0100
0010
,
0001
0100
0001
0100
0010
1000
0001
0000
,
1000
0000
0000
0000
1100
0000
0000
0000
0000
0000
0200
0300
2000
3000
0002
0000
,
0000
0000
0000
0003
0100
0000
0100
0000
;

//---------------dance-single - Itsugo15----------------
#NOTES:
     dance-single:
     Itsugo15:
     Medium:
     8:
     0.481,0.536,0.458,0.772,0.027:
0000
0000
0000
0000
,
0000
0000
0000
0000
,
0000
0000
0000
0000
0000
0000
0000
2020
,
0000
3030
0000
2200
0000
3300
0000
0220
,
0000
0330
0000
0022
0000
0033
0000
2002
,
0000
0000
0000
3003
,
1200
0000
0310
0000
0000
0000
0110
0000
0000
0000
0021
0030
0002
0003
2000
0000
,
3000
0010
0100
0010
1000
0001
0010
0100
,
1000
0000
1100
1000
0000
1001
0001
0200
,
0000
0300
0000
0000
0100
0001
1000
0100
,
0010
0000
0000
0110
0000
0000
0000
0000
0000
0000
1002
0003
2000
3000
0020
0030
,
0000
0000
1010
0000
0000
0000
0101
0000
0000
0001
0000
0000
1001
0000
0000
0000
,
1000
0000
0000
0000
1100
0000
0000
0000
0000
0000
1002
0003
2000
3000
0020
0000
,
0000
0000
0000
0030
0100
0000
0001
0000
,
0201
0000
0310
0000
0000
0000
0110
0000
0000
0000
1020
0030
2000
3000
0002
0000
,
0000
0000
0003
0000
1000
0001
1000
0010
,
0100
0000
0110
0010
0000
1010
1000
0002
,
0000
0003
0000
0000
1000
0100
0010
0001
,
1000
0000
0000
1001
0000
0000
0000
0000
0000
0000
0201
0300
0002
0003
2000
3000
,
0000
0000
1001
0000
0000
0000
1100
0000
0000
1001
0000
0000
0101
0000
0000
0000
,
0100
0000
0000
0000
0110
0000
0000
0000
0000
0000
1020
0030
2000
3000
0002
0000
,
0000
0000
0000
0003
0010
0000
0100
0000
,
2000
3000
0002
0003
0200
0300
0020
0030
,
2000
3000
0002
0003
0020
0030
0200
0300
,
2000
3000
0200
0300
2000
3000
0002
0003
,
0200
0300
0020
0030
2000
3000
0002
0003
,
0020
0000
0000
0000
,
0000
0000
0000
0000
,
0000
0000
0000
0000
,
0000
0000
0000
0030
,
0210
0000
0000
0000
0000
0000
0000
0000
0000
0300
0000
0000
0020
0030
0002
0000
,
0000
0000
0000
0003
,
2001
0000
0000
0000
0000
0000
0000
0000
0000
0000
3000
0000
0020
0030
2000
3000
,
0002
0003
0020
0000
0000
0030
0200
0000
0000
0000
0000
0000
0000
0300
2000
3000
,
0002
0000
0000
0000
0000
0000
0000
0003
0200
0300
0020
0030
2000
3000
0200
0000
,
0000
0000
0000
0300
0020
0000
0000
0000
0000
0030
0002
0000
0003
0000
0000
0000
,
2001
0000
0000
3000
0010
0100
0001
2000
,
3000
0100
1000
0020
0030
1000
0100
0020
,
0030
0001
1000
0200
0300
1000
0001
0100
,
0010
1000
0001
0010
0100
1000
0100
0010
,
0001
0011
1000
1100
,
1002
0000
0103
0000
0000
0000
0101
0000
0000
0000
0120
0030
2000
3000
0002
0000
,
0003
0010
0001
0100
0010
1000
0010
0100
,
0001
0000
0101
0001
0000
1001
1000
0200
,
0000
0300
0000
0000
1000
0001
0100
0010
,
1000
0000
0000
1010
0000
0000
0000
0000
0000
0000
0102
0003
2000
3000
0200
0300
,
0000
0000
1100
0000
0000
0000
1001
0000
0000
0101
0000
0000
1001
0000
0000
0000
,
0001
0000
0000
0000
0011
0000
0000
0000
0000
0000
2100
3000
0002
0003
0200
0000
,
0000
0000
0000
0300
0001
0000
1000
0000
,
2001
3100
1000
0100
0010
0001
0100
0010
,
1000
0001
0010
0001
0100
0010
1000
0001
,
1000
0100
0010
0001
1000
0010
1000
0010
,
0100
0001
1000
0100
1000
0010
0100
0001
,
1000
0010
1000
0100
0010
0001
1000
0100
,
1000
0001
0010
0100
1000
0010
0100
0000
,
0001
0000
0000
0000
0101
0000
0000
0000
0000
0000
1020
0030
2000
3000
0002
0000
,
0000
0000
0000
0003
0010
0010
0010
0010
;

//---------------dance-single - Itsugo15----------------
#NOTES:
     dance-single:
     Itsugo15:
     Hard:
     11:
     0.744,0.843,0.593,0.907,0.593:
0000
0000
0000
0000
,
0000
0000
0000
0000
,
0000
0000
0000
0000
0000
0000
0000
2020
,
0000
3030
0000
2200
0000
3300
0000
0220
,
0000
0330
0000
0022
0000
0033
0000
0101
,
0100
0010
0000
0010
1000
0000
1000
0010
0100
0010
1000
0000
1000
0100
0010
0001
,
2000
0000
3100
0000
0000
0000
0110
0000
0000
0000
2100
3000
0002
0003
0020
0030
,
0002
0003
0010
0001
0100
0010
1000
0100
0010
0001
0010
0100
1000
0001
0100
0010
,
1000
0000
0000
0000
0100
1000
0010
0000
0000
0000
0110
0000
1010
0000
0002
0000
,
0100
0000
0000
0100
0000
0000
0103
0000
0100
0001
0100
0010
0100
0001
0010
0100
,
1000
0000
0000
0110
0000
0000
0000
0000
0000
0000
0021
0030
0002
0003
0200
0300
,
0000
0000
0101
0000
0000
0000
1100
0000
0000
1001
0000
0000
1010
0000
0000
0000
,
1000
0010
0000
0110
0000
0010
1000
0000
0000
0000
1020
0030
2000
3000
0020
0000
,
0030
0000
1000
0100
0000
0100
0010
0001
0011
0000
1100
0000
1001
0000
0101
0000
,
0210
0000
0301
0000
0000
0000
0101
0000
0000
0000
2001
3000
0200
0300
2000
3000
,
0002
0003
0010
0100
0010
0001
1000
0100
0020
0030
0100
1000
0001
0010
0100
1000
,
0100
0000
0000
0000
0100
1000
0010
0000
0000
0000
0110
0000
1010
0000
0002
0000
,
0100
0000
0000
0100
0000
0000
0103
0000
0100
0001
1000
0010
1000
0001
0010
0100
,
1000
0000
0000
1100
0000
0000
0000
0000
0000
0000
2001
3000
0002
0003
0200
0300
,
0000
0000
0101
0000
0000
0000
1100
0000
0000
1001
0000
0000
1010
0000
0000
0000
,
1000
0001
0000
0101
0000
0001
1000
0000
0000
0000
1002
0003
0020
0030
0200
0000
,
0300
0000
0010
0001
0000
0001
0100
0010
0110
0000
1001
0000
1100
0000
0011
0000
,
0020
0030
0200
0300
2000
3000
0020
0030
0200
0300
0002
0003
0020
0030
0002
0003
,
0200
0300
0020
0030
2000
3000
0200
0300
2000
3000
0002
0003
0020
0030
0002
0003
,
0200
0300
0020
0030
2000
3000
0200
0300
2000
3000
0002
0003
0020
0030
0200
0000
,
0000
0300
2000
0000
0000
3000
0002
0003
0200
0300
0020
0030
2000
3000
0002
0003
,
0020
0000
0000
0000
,
0000
0000
0000
0000
,
0000
0000
0000
0000
,
0000
0000
0000
0030
,
1200
0000
0000
0000
0000
0000
0000
0000
0000
0300
0020
0030
0002
0003
2000
0000
,
0000
0000
0000
3000
,
0210
0000
0000
0000
0000
0000
0300
0001
2000
3000
0020
0030
2000
3000
0020
0000
,
0000
0030
0200
0000
0000
0000
0000
0000
0000
0000
0000
0000
0000
0300
0001
1000
,
0020
0000
0000
0000
0000
0000
0000
0030
0200
0300
0002
0003
2000
3000
0200
0000
,
0000
0000
0000
0300
2000
0000
0000
0000
0000
3000
0020
0000
0000
0000
0030
0000
,
2010
0000
0000
3000
0010
1000
0001
2000
,
3000
0000
0000
0000
0001
0000
0000
0000
1000
0000
0000
0000
0200
0000
0000
0000
0000
0300
0000
0000
1000
0000
0000
0000
0010
0000
0000
0000
0200
0000
0000
0000
,
0300
0010
1000
0002
0003
1000
0100
0010
,
0100
1000
0100
1000
0001
0100
0001
1000
0100
1000
0100
0010
0001
0010
0001
1000
,
0010
1010
0100
0101
,
1002
0000
0103
0000
0000
0000
0101
0000
0000
0000
1020
0030
0020
0030
2000
3000
,
0002
0003
1000
0010
1000
0001
0100
0001
0100
0001
1000
0010
1000
0001
1000
0100
,
0010
0000
0000
0000
0001
1000
0100
0000
0000
0000
1100
0000
1001
0000
0200
0000
,
0001
0000
0000
0001
0000
0000
0301
0000
0001
0010
0100
1000
0100
0010
0001
1000
,
0010
0000
0000
1010
0000
0000
0000
0000
0000
0000
2001
3000
0002
0003
0020
0030
,
0000
0000
0011
0000
0000
0000
0110
0000
0000
1100
0000
0000
0101
0000
0000
0000
,
0010
1000
0000
1001
0000
1000
0010
0000
0000
0000
2010
3000
0002
0003
2000
0000
,
3000
0000
0001
0010
0000
0001
1000
0100
1100
0000
0011
0000
1001
0000
0101
0000
,
0001
0100
0001
0100
0010
1000
0010
1000
0001
1000
0001
0010
0100
1000
0100
0010
,
0100
1000
0001
0100
0010
1000
0001
0010
0001
0100
0010
1000
0001
0100
0001
0100
,
0010
1000
0001
1000
0100
1000
0100
1000
0001
0100
0010
1000
0001
0010
0100
1000
,
0100
0010
0001
0100
0010
1000
0010
0100
0001
1000
0100
0010
0001
0100
0010
1000
,
0010
0100
0001
0010
0100
1000
0100
0010
0001
0100
0010
1000
0010
0100
0001
1000
,
0100
0010
0001
1000
0100
1000
0001
0010
0001
0100
0010
1000
0010
0100
0001
0100
,
0010
1000
0000
1010
0000
1000
0001
0000
0000
0000
1002
0003
0200
0300
0020
0000
,
0030
0000
0010
1000
0000
1000
0001
0010
0011
0000
1100
0000
1001
0000
0101
0000
;
