#TITLE:A/Z;
#SUBTITLE:アルドノア・ゼロ;
#ARTIST:SawanoHiroyuki[nZk] feat. mizuki;
#TITLETRANSLIT:A/Z;
#SUBTITLETRANSLIT:Aldnoah.Zero;
#ARTISTTRANSLIT:SawanoHiroyuki[nZk] Feat. Mizuki;
#GENRE:Anime;
#CREDIT:Itsugo;
#BANNER:AZ-bn.jpg;
#BACKGROUND:AZ-bg.jpg;
#LYRICSPATH:AZ.lrc;
#CDTITLE:Itsugo15 8x1.png;
#MUSIC:AZ.mp3;
#OFFSET:-0.250;
#SAMPLESTART:17.550;
#SAMPLELENGTH:30.000;
#SELECTABLE:YES;
#LISTSORT:;
#BPMS:0.000=110.000;
#STOPS:;
#TICKCOUNT:0.000=6;
#BGCHANGES:8.000=AZ-bg3.jpg=1.000=1=0=1,
20.000=AZ-bg4.jpg=1.000=1=0=1,
31.375=AZ.avi=1.000=1=1=0,
196.000=AZ-bg2.jpg=1.000=1=0=0,
224.000=AZ-bg1.png=1.000=1=0=1,
239.500=AZ-bg.jpg=1.000=1=0=1,
99999=-nosongbg-=1.000=0=0=0 // don't automatically add -songbackground-
;
#KEYSOUNDS:;
#ATTACKS:;

//---------------dance-single - Itsugo----------------
#NOTES:
     dance-single:
     Itsugo:
     Beginner:
     2:
     0.114,0.168,0.050,0.085,0.000:
0000
0000
0000
0000
,
0000
0000
0000
0000
,
1000
0000
0000
0000
,
1000
0000
0000
0000
,
1000
0000
0000
0000
,
0001
0000
0000
0000
,
0001
0000
0000
0000
,
0001
0000
0000
0000
,
2000
0000
3000
0000
,
0020
0000
0000
0030
,
0200
0000
0000
0000
,
0001
0000
0300
0000
,
0002
0000
0003
0000
,
0020
0000
0000
0030
,
0200
0000
0000
0000
,
1000
0000
0300
0000
,
1000
0000
0010
0000
,
0100
0000
0001
0000
,
0010
0000
0100
0000
,
1000
0000
0001
0000
,
1001
0000
0001
0000
,
0100
0000
0010
0000
,
1000
0000
0100
0000
,
0010
0000
0001
0000
,
2000
0000
0000
3000
0000
0000
0000
0000
,
0020
0000
0000
0030
0000
0000
0000
0000
,
0200
0000
0000
0000
,
0301
0000
0000
0000
,
0020
0000
0000
0030
0000
0000
0000
0000
,
0200
0000
0000
0300
0000
0000
0000
0000
,
2000
0000
0000
0000
,
0000
0000
0000
0000
,
3001
0000
0100
0000
,
0010
0000
1000
0000
,
0001
0000
0010
0000
,
0001
0000
1000
0000
,
1001
0000
1000
0000
,
0100
0000
1000
0000
,
0010
0000
0100
0000
,
0001
0010
0100
1000
,
1100
0000
1000
0000
,
0001
0000
0100
0000
,
0101
0000
0001
0000
,
0010
0000
0100
0000
,
0110
0000
0010
0000
,
0001
0000
1000
0000
,
1001
0000
0001
0000
,
0100
0010
1000
0001
,
0010
0000
0010
0000
,
0001
0000
0001
0000
,
1000
0000
1000
0000
,
0010
0000
0100
0000
,
0110
0000
0010
0000
,
1000
0000
1000
0000
,
0001
0000
0001
0000
,
0010
0000
0100
0000
,
1000
0000
0000
0000
,
1000
0000
0000
0000
,
0001
0000
0000
0000
,
0001
0000
0000
0000
;

//---------------dance-single - Itsugo----------------
#NOTES:
     dance-single:
     Itsugo:
     Easy:
     4:
     0.209,0.297,0.078,0.142,0.000:
0000
0000
0000
0000
,
0000
0000
0000
0000
,
0001
0000
0001
0000
,
0100
0000
0100
0000
,
0010
0000
0010
0000
,
1000
0000
1000
0000
,
0100
0000
0100
0000
,
0010
0000
0010
0000
,
0002
0000
0003
0000
,
2000
0000
0000
3000
,
0020
0000
0000
0000
,
0200
0000
0030
0300
,
0002
0000
1003
0000
,
0200
0000
0010
0300
,
2000
0000
0002
0000
,
0000
0000
3003
0000
,
1000
0100
0010
0001
,
0100
0010
1000
0001
,
0010
0100
1000
0001
,
0100
0010
1000
0001
,
1001
0010
0100
1000
,
0010
0100
0001
1000
,
0100
0010
0001
1000
,
0010
0100
0001
1000
,
0200
0000
0000
0300
,
0020
0000
0000
0030
,
0002
0000
0000
0000
,
1003
0000
0000
0010
0000
0100
0000
0000
,
0002
0000
0000
0003
,
2000
0000
0000
3000
,
0200
0000
0000
0000
,
0000
0000
0000
0000
,
0310
0001
1000
0010
,
0001
0010
0100
0001
,
1000
0100
0010
0001
,
1000
0010
0100
0001
,
0101
0100
0010
1000
,
0100
0001
0100
1000
,
1100
0100
0010
0001
,
0200
2300
3020
0031
,
0011
0010
0001
0100
,
1000
0100
0010
1000
,
1010
0010
0100
0001
,
0010
1000
0010
0001
,
0011
0010
0001
0001
,
1000
1000
0010
0010
,
1010
1000
0001
0010
,
2000
3200
0302
1003
,
1001
0001
0010
0100
,
1000
0100
0010
0001
,
1000
0010
0001
0010
,
1000
0100
0010
0001
,
0011
0001
0010
0100
,
1000
0010
0100
0001
,
0101
0100
1000
0100
,
0001
1000
0100
0010
,
0110
0100
0100
0100
,
1000
1000
1000
1000
,
0001
0100
0010
0100
,
0001
1000
0100
0010
;

//---------------dance-single - Itsugo----------------
#NOTES:
     dance-single:
     Itsugo:
     Medium:
     6:
     0.326,0.403,0.256,0.156,0.004:
0000
0000
0000
0000
,
0000
0000
0000
0000
,
2000
3000
0000
0000
0000
0000
0000
0000
0010
0000
0000
0000
0000
0000
0000
0000
0100
0000
0000
0000
0000
0000
0000
0000
0002
0000
0000
0000
0003
0000
0000
0000
,
0010
0000
0100
0000
0010
0000
0002
0003
,
0100
0010
1000
0001
,
0020
0030
0000
0000
0000
0000
0000
0000
0001
0000
0000
0000
0000
0000
0000
0000
0100
0000
0000
0000
0000
0000
0000
0000
0010
0000
0000
0000
0000
0000
0000
0000
,
2000
3000
0000
0000
0000
0000
0000
0000
0100
0000
0000
0000
0000
0000
0000
0000
1000
0000
0000
0000
0000
0000
0000
0000
0010
0000
0000
0000
0000
0000
0000
0000
,
0200
0300
0000
0000
0000
0000
0000
0000
0001
0000
0000
0000
0000
0000
0000
0000
0010
0000
0000
0000
0000
0000
0000
0000
0100
0000
0000
0000
0000
0000
0000
0000
,
2000
0000
0100
0010
,
3002
0000
0010
0100
,
2003
0000
0001
0010
,
0200
3000
1300
0001
,
1001
1000
0010
0100
,
0110
0010
0100
0001
,
0101
0100
0001
0010
,
0001
0001
0010
0100
,
0110
1100
0001
0101
,
1000
1010
0001
0011
,
0100
1100
0001
0101
,
0010
1010
0001
0011
,
0110
1100
1000
1001
,
0001
0101
0100
0110
,
0010
1010
1000
1001
,
0001
0011
1000
1100
,
0002
0000
0000
0103
,
0020
0000
0000
1030
,
0002
0000
0000
0000
,
2003
0000
0000
0000
0000
0000
0001
0000
0000
0000
3010
0000
0000
0100
0000
0000
,
0002
0000
0000
1003
,
0200
0000
0000
0310
,
0002
0000
0000
0000
,
2000
0000
0000
0000
0000
0000
0000
3003
,
1001
1000
0001
0000
0100
0010
1000
0000
,
0001
0010
0100
0000
1000
0001
0100
0000
,
0010
1000
0001
1000
0010
0100
0002
1000
,
0000
1000
0003
0000
1000
0010
0100
0001
,
0101
0100
0010
0000
1000
0001
0010
0000
,
0100
1000
0001
0000
0100
0010
1000
0000
,
0001
0010
0100
0000
1000
0100
0010
0001
,
1000
1000
0010
0100
0001
0100
0010
1000
,
1010
0010
0100
0000
0001
1000
0100
0000
,
0010
0001
1000
0000
0010
0100
0001
0000
,
0101
0100
0010
0000
1000
0001
0010
0000
,
0100
1000
0001
0000
0100
0010
1000
0000
,
1010
0010
0100
0000
0110
0100
0001
0000
,
0101
0001
1000
0000
1001
1000
0100
0000
,
1100
0100
0010
0000
0110
0010
0001
0000
,
0011
0001
1000
0010
0200
0000
0301
1000
,
1001
0001
0010
0000
0100
1000
0001
0000
,
0100
0010
1000
0010
0100
0001
1000
0100
,
0010
0001
1000
0010
0000
0100
0001
1000
,
0000
0100
0010
0000
0001
0100
0010
1000
,
1010
0010
0100
0000
0001
1000
0100
0000
,
0010
0001
0100
0010
1000
0100
0010
0001
,
0011
0010
0001
1000
0000
0010
0100
0001
,
0000
1000
0200
0000
0320
0000
0031
1000
,
1001
0000
0001
0000
,
0001
0000
1000
0000
,
1000
0010
0000
0100
,
0000
0001
1000
0100
;

//---------------dance-single - Itsugo----------------
#NOTES:
     dance-single:
     Itsugo:
     Hard:
     9:
     0.536,0.618,0.383,0.490,0.057:
0000
0000
0000
0000
,
0000
0000
0000
0000
,
1000
1000
0010
0000
0100
0001
0020
0030
,
0001
0001
0010
0000
0100
1000
0020
0030
,
0100
0100
0001
0100
0010
0010
1000
1000
,
0002
0003
0010
0000
0010
0000
0001
0000
0100
0000
0100
0000
0010
0000
0010
0000
,
1000
0000
0200
0300
0001
0000
0100
0000
0010
0000
0001
0000
0100
0000
1000
0000
,
0100
0000
0020
0030
1000
0000
0001
0000
0010
0000
0100
0000
1000
0000
0100
0000
,
0020
0000
0000
0000
0000
0000
0031
0010
0001
0000
0100
0000
0010
0000
2000
0000
,
0002
0000
3000
0013
0100
0010
0001
2000
,
0020
3000
0130
0001
0000
1000
0100
0010
,
0002
0000
0000
0000
0000
0013
0100
1000
,
1100
0100
0010
0100
1000
0001
0100
0010
,
0110
0100
0001
1000
0010
1000
0001
0010
,
0011
0001
0100
0020
0000
1030
0001
0020
,
0000
0230
0000
2300
0000
0002
0000
3003
,
1001
0001
0101
0100
0010
1000
1010
0020
,
0230
0302
0023
0130
0120
0032
0203
0320
,
2030
3001
1001
1000
0100
0010
0110
0100
,
0010
0001
0011
0010
0002
0203
0320
1030
,
1010
0010
0110
0100
0001
1000
1001
0001
,
0020
0130
0110
0020
0032
1003
2001
3020
,
0230
0301
0101
0001
1000
0100
1100
2000
,
3001
0010
0011
0001
1000
0010
1010
1000
,
0002
0000
0000
0000
0000
0013
0001
0100
,
0020
0000
0000
2000
0030
3100
0010
0001
,
0200
0000
0000
0000
,
2300
0000
0000
0000
0000
0000
3100
0000
0010
0000
1000
0000
0000
0001
0000
0000
,
2002
0000
0000
0000
0003
3001
0010
0100
,
0220
0000
0030
0310
0000
0100
1000
0001
,
2002
0000
0000
0000
0000
0000
3003
2000
,
0000
3010
0200
0000
0301
0010
0100
1000
,
1100
1000
1001
0001
0100
0010
0110
0100
,
0001
1000
1001
0001
0010
0100
0110
0010
,
0100
1000
1100
1000
0002
0003
1001
2000
,
3000
0000
2020
0000
0000
0000
3030
0000
0010
0000
0001
0000
0010
0000
1000
0001
,
0100
0000
0101
0001
1000
0100
1100
1000
,
0100
0010
0110
0200
0000
0310
0001
2000
,
0000
0020
0000
3000
0000
0130
0001
1000
,
0100
0010
0000
0001
1000
0000
0010
0100
0001
1000
0100
0010
0001
0010
0100
1000
,
0001
0100
0101
0001
1000
0100
1100
1000
,
0001
0010
0011
0001
1000
0010
1010
1000
,
1001
0001
0010
1000
0010
0001
1000
0010
,
0001
0000
0010
0000
1000
0000
0001
0000
0001
0100
0010
0000
0110
0000
0010
1000
,
0001
0001
0011
1000
1000
1000
1100
0001
,
0001
0001
0101
1000
1000
1000
1010
0001
,
1001
0001
0011
0010
0001
1000
1001
1000
,
1010
0000
0110
0000
0110
0000
0100
0001
1000
0100
0020
0000
0031
0000
1000
0000
,
1001
0001
0100
0100
0010
1000
0001
0001
,
1001
0001
0010
0010
0100
1000
0001
0001
,
0100
0010
2000
3010
0010
0200
0301
0001
,
1000
0000
0200
0000
0010
0000
0310
0000
0200
0000
1000
0000
1300
0000
0100
1000
,
0100
1000
0010
0010
0100
0001
1000
1000
,
1001
1000
0100
0100
0010
0001
1000
1000
,
0010
0100
0002
0103
0100
0020
1030
1000
,
0001
0000
0020
0000
0100
0000
0130
0000
0120
0000
0000
0031
1000
0000
0100
0000
,
1100
0100
0010
0001
,
0010
0000
0100
0000
1000
0001
0010
0100
,
1000
0100
0010
0002
0003
1000
0010
0200
,
0300
0001
0020
0030
0200
0000
1000
2000
,
3300
0000
0000
0000
;

//---------------dance-single - Itsugo----------------
#NOTES:
     dance-single:
     Itsugo:
     Challenge:
     10:
     0.656,0.693,0.469,0.611,0.341: // measure 1
0000
0000
0000
0000
,  // measure 2
0000
0000
0000
0000
,  // measure 3
1000
0010
1000
0000
0001
0000
0010
0000
0100
0000
1000
0000
2200
3300
0100
0000
,  // measure 4
0010
0001
0010
0000
0001
0000
1000
0000
0010
0000
0100
0000
0220
0330
0100
0000
,  // measure 5
0002
0003
1000
0100
0000
0010
0001
0000
1000
0010
0100
0000
0001
0100
0010
0000
,  // measure 6
2000
3000
0001
0010
0000
0100
1000
0000
0001
0100
0010
0000
1000
0010
0100
0000
,  // measure 7
0001
0000
2000
3000
0100
0010
0001
1000
0000
0001
0100
0000
0001
0000
1000
0000
,  // measure 8
0100
0000
0020
0030
0001
1000
0010
0100
0000
0001
1000
0000
0100
0000
0010
0000
,  // measure 9
0002
0000
0000
0000
0000
0000
0013
0001
1000
0000
0100
0000
0010
0000
0001
0000
,  // measure 10
0022
0000
0000
0000
0000
0030
0010
0003
0001
0000
1000
0000
0010
0000
0100
0000
,  // measure 11
0220
0000
0000
0300
0100
0000
2000
0000
0030
0000
0001
0000
0010
0000
0100
0000
,  // measure 12
0002
0000
0000
0000
3000
1003
0010
0100
,  // measure 13
0001
0100
0001
0000
1000
0100
0000
0010
0001
0000
1000
0000
0010
0000
0100
0000
,  // measure 14
0110
0000
0100
0000
0001
0010
0000
0100
1000
0000
0001
0000
0100
0000
0010
0000
,  // measure 15
0110
0000
0100
0000
0001
1000
0000
0100
0010
0000
0001
0000
0010
0000
0100
0000
,  // measure 16
1000
0100
1000
0000
0100
0000
0020
0000
0000
0000
0032
0000
0000
0000
1003
0000
,  // measure 17
1001
0000
1000
0000
0010
0100
0001
0000
0101
0000
0001
0000
0010
0100
1000
0000
,  // measure 18
1100
0000
0100
0000
1000
0001
0010
0000
0011
0000
0001
0000
0100
0010
1000
0000
,  // measure 19
1010
0000
1000
0000
0001
0010
0100
0000
0110
0000
0010
0000
0001
1000
0100
0000
,  // measure 20
1100
0000
1000
0000
0001
0100
0010
0000
0110
0000
0100
0000
0010
1000
0001
0000
,  // measure 21
1001
0000
1000
0000
0010
1000
0010
0000
1000
0000
0001
0000
0010
0001
0010
0000
,  // measure 22
0001
0000
1000
0000
0100
1000
0100
0000
1000
0000
0001
0000
0100
0001
0100
0000
,  // measure 23
0010
0000
1000
0000
0001
0010
0100
0000
1000
0000
0100
0000
0010
0001
1000
0000
,  // measure 24
0010
0000
0100
0000
0001
0100
0010
0000
1000
0000
0001
0000
0010
0100
1000
0000
,  // measure 25
0002
0000
0000
0003
0000
0100
0010
2000
,  // measure 26
0022
0000
3033
0002
0000
0013
0100
2000
,  // measure 27
0202
0000
0000
0303
,  // measure 28
3001
0000
0010
0000
0100
0000
0110
0000
0000
0000
1100
0000
0000
0101
0000
0000
,  // measure 29
2002
0000
0000
3003
0000
1000
0100
0010
,  // measure 30
0220
0000
0000
0000
0000
0300
0002
0000
0033
0000
0011
0000
0001
0000
1000
0000
,  // measure 31
2002
0000
0000
0000
0000
0000
0000
0100
,  // measure 32
0000
3000
0010
0003
0002
0000
0003
0000
2000
0000
3020
0000
0230
0000
0302
0003
,  // measure 33
0101
0000
0100
0001
1000
0000
0100
0000
1100
0000
0100
1000
0010
0000
0100
0000
,  // measure 34
0110
0000
0010
0100
0001
0000
1000
0000
1001
0000
0001
1000
0100
0000
0010
0000
,  // measure 35
0110
0000
0010
0001
0100
0000
0010
1000
0100
0000
1000
0100
0010
0000
0001
0100
,  // measure 36
0010
0000
1000
0100
0001
0000
0100
0010
0001
0000
1000
0100
0010
0010
0001
0001
,  // measure 37
0011
0000
0001
1000
0010
0000
0100
0000
0110
0000
0100
0001
1000
0000
0100
0000
,  // measure 38
1100
0000
0100
0010
0001
0000
1000
0010
0100
0000
0001
0100
0010
0000
1000
0001
,  // measure 39
1001
0000
0001
0010
0100
0000
1000
0000
1100
0000
1000
0010
0100
0000
0001
0000
,  // measure 40
0101
0001
0000
1001
1000
0000
1100
0100
0010
0001
0100
0010
1000
0100
0010
0001
,  // measure 41
0011
0000
0001
0000
1000
0010
0100
0000
0110
0000
0100
0000
0001
1000
0100
0000
,  // measure 42
1100
0000
1000
0000
0001
0010
0100
0000
0110
0000
0010
0000
0100
1000
0001
0000
,  // measure 43
1001
0000
0001
0100
0010
0000
1000
0100
0010
0000
0001
0010
0100
0000
1000
0010
,  // measure 44
0100
0000
0001
1000
0100
0000
0010
0001
1000
1000
0100
0100
1100
0000
1000
0001
,  // measure 45
1001
0000
0101
0000
0011
0000
0010
0100
1000
0000
1100
0000
0100
1000
0001
0000
,  // measure 46
1001
0000
0101
0000
0100
0001
0010
0000
0011
0000
0110
0000
0100
1000
0001
0000
,  // measure 47
1001
0000
0101
0000
0100
0010
1000
0000
1010
0000
1000
0001
0010
0000
0011
0000
,  // measure 48
1001
0000
0101
0000
0101
0000
0001
0001
0100
0100
0020
0000
2030
0000
0002
3003
,  // measure 49
1001
0000
0001
0010
0100
0000
0200
0000
1000
0000
2300
0000
3002
0000
0103
0000
,  // measure 50
0101
0002
0023
2030
3020
0230
2300
3001
,  // measure 51
1001
0004
0403
0340
1030
4000
3040
0034
,  // measure 52
1003
0000
0001
0000
0040
0000
0000
0030
4000
0000
0000
3000
0001
0000
1000
0001
,  // measure 53
1001
0000
1000
0100
0010
0000
0020
0000
0001
0000
0032
0000
2003
0000
3010
0000
,  // measure 54
1010
2000
3200
0302
0203
0320
0032
1003
,  // measure 55
1001
4000
3040
0430
0301
0004
0403
4300
,  // measure 56
3001
0000
1000
0000
0100
0001
0000
0000
0101
0000
0000
1000
0100
0000
0010
0000
,  // measure 57
0110
0000
0020
0030
0010
0002
0003
1000
,  // measure 58
0020
0030
0100
0000
0001
0100
0010
1000
,  // measure 59
0001
0040
0430
4300
3000
0400
0340
0034
,  // measure 60
0003
4000
3040
0030
0400
0300
0004
4003
,  // measure 61
0000
0000
0000
0000
,  // measure 62
3000
0000
0000
0000
;
