#TITLE:&Z;
#SUBTITLE:アルドノア・ゼロ;
#ARTIST:SawanoHiroyuki[nZk] feat. mizuki;
#TITLETRANSLIT:&Z;
#SUBTITLETRANSLIT:Aldnoah.Zero;
#ARTISTTRANSLIT:SawanoHiroyuki[nZk] Feat. Mizuki;
#GENRE:Anime;
#CREDIT:Itsugo15;
#BANNER:&Z-bn.png;
#BACKGROUND:&Z-bg.png;
#JACKET:&Z-Jacket.png;
#LYRICSPATH:&Z.lrc;
#CDTITLE:Itsugo15 8x1.png;
#MUSIC:&Z.mp3;
#OFFSET:-0.165;
#SAMPLESTART:62.995;
#SAMPLELENGTH:25.000;
#SELECTABLE:YES;
#LISTSORT:;
#BPMS:0.000=158.000;
#STOPS:;
#TICKCOUNT:0.000=6;
#BGCHANGES:-1.100=&Z.avi=1.000=1=1=0,
234.000=&Z-bg Zero.jpg=1.000=1=1=0,
300.000=&Z-bg Aldnoah.jpg=1.000=1=1=0,
332.000=&Z-bg.png=1.000=1=1=0,
364.000=blank.bmp=1.000=1=1=0,
99999=-nosongbg-=1.000=0=0=0 // don't automatically add -songbackground-
;
#KEYSOUNDS:;
#ATTACKS:;

//---------------dance-single - Itsugo15----------------
#NOTES:
     dance-single:
     Itsugo15:
     Hard:
     9:
     0.581,0.632,0.486,0.389,0.017:
0000
0000
0000
0000
,
0000
0000
0000
0000
,
1001
1000
0000
0000
1100
0000
1000
0001
,
0000
0100
0101
0000
0101
0000
0001
0000
,
0011
0010
0000
0000
0110
0000
0100
1000
,
0000
0001
1001
0000
1001
0000
0001
0000
,
0101
0100
0000
0000
0110
0000
0010
1000
,
0000
0100
1100
0000
1100
0000
1000
0000
,
1001
0001
0000
0000
0101
0000
0100
0001
,
0000
0010
0011
0000
0011
0000
0010
0100
,
2000
0000
0000
0000
3001
0000
0001
1000
,
0010
0100
0010
1000
0001
0000
0010
0000
,
0011
0000
1000
0000
1100
0000
0100
0010
,
0001
1000
0010
0100
0001
0000
1000
0000
,
1001
0000
0001
0000
0011
0000
0010
0100
,
1000
0001
0100
0010
1000
0000
0001
0000
,
0020
0000
0000
0000
0230
0000
0000
1300
,
0002
0000
0103
0010
2000
0000
3001
0000
,
1001
0000
0001
0010
0001
0000
1000
0010
,
1000
0001
0010
0100
1000
0000
0001
0000
,
1001
0000
1000
0010
1000
0000
0001
0010
,
0001
0100
0010
1000
0001
0010
0100
0000
,
0110
0000
0100
1000
0100
0000
0010
0001
,
0010
0000
0001
0100
0001
0000
1000
0010
,
2000
3200
0320
0032
,
0013
0100
0110
0100
,
1100
1000
0001
1000
,
0100
1000
0001
0010
,
0001
0100
0001
0010
,
0100
1000
0010
0100
,
0110
0000
0010
1000
0000
0001
0010
0100
,
0000
0010
0001
1000
0000
0010
0100
0000
,
0110
0000
0100
0001
0000
0010
0100
1000
,
0000
0001
0100
0010
0000
1000
0001
0000
,
1001
0000
0001
0100
0010
0100
0001
1000
,
0200
0320
0032
1003
,
1001
0000
1000
0100
0010
0100
1000
0010
,
0200
0302
2003
3100
,
1100
0000
1000
0001
0100
0000
0010
1000
,
0001
0000
0010
0100
1000
0000
0100
0010
,
0002
0000
0010
0000
0010
0000
1000
1003
,
0000
0000
1001
0000
,
1010
0000
1000
1100
0000
0001
0010
0100
,
1100
0000
0001
0011
0000
1000
0100
0010
,
0011
0000
1000
1010
0000
0010
0100
0001
,
0101
1100
0011
1010
,
1001
0000
1000
0100
0020
0000
0031
0100
,
0020
0000
1030
0100
0020
0000
0031
0010
,
0200
0000
0000
1000
0000
0000
1300
0000
,
0000
0000
1100
0000
0000
0000
0000
0000
1001
0000
0001
1000
0001
1000
0001
1000
,
0001
0100
0001
1000
0001
0100
0010
0010
,
0000
0110
0010
0000
1010
0000
1001
0000
,
1000
0100
1000
0001
1000
0100
0010
0010
,
0000
0110
0100
0000
1000
0001
0100
0010
,
2000
0000
3010
0100
0002
0000
1003
0100
,
0020
0000
0031
1000
0200
0000
1300
0010
,
0200
0000
0000
0302
0000
0000
2003
0000
,
0000
0000
0000
0000
3100
0000
1000
0000
0001
0100
0001
0000
0010
0000
0002
0000
,
1000
0000
1000
0000
1000
0000
1000
0003
,
1001
0000
0001
1000
0020
0000
0130
0001
,
1000
0000
0001
0010
0000
0100
1000
0000
,
1100
0000
1000
0001
0100
0010
2000
0000
,
3001
0010
0100
2000
0000
3200
0000
0300
,
0110
0000
0010
0001
1000
0000
1001
0000
,
1000
0010
1010
0000
1010
0000
1000
0001
,
0010
0010
0000
0001
1000
0000
0010
0100
,
0100
0000
0001
0000
0101
0000
0001
0100
0010
0000
1000
0000
0001
0000
0010
0000
,
0011
0000
0002
0000
2003
0000
3010
0100
,
0110
0000
0100
0002
0000
1003
0000
2000
,
0001
3001
0010
0000
0100
2000
0000
0002
,
3000
0200
0003
0020
0300
1030
0001
0010
,
0011
0001
1000
0000
1001
0000
1000
0010
,
0000
0100
0110
0000
0110
0000
0101
0001
,
1000
0100
0000
0000
1100
0000
0100
0010
,
0002
0000
2003
0000
3020
0000
0230
0300
,
0110
0000
0100
0001
1000
0000
1001
0000
,
0001
0000
0010
0100
0000
0100
1000
0000
,
1100
0000
1000
0001
0100
0000
0101
0000
,
0100
0000
0010
1000
0000
1000
0001
0000
,
1001
0000
0001
0010
0000
0100
1000
0000
,
1100
0000
1000
0001
0000
0001
0100
0000
,
0101
0000
0100
0010
0000
0010
1000
0000
,
1000
0001
0000
0001
0010
0100
1000
0100
,
0010
0001
2000
0000
,
3001
0000
0100
0002
0000
1003
0000
0200
,
0000
0000
0310
0000
0001
1000
0000
0010
,
0000
1000
0000
0001
0000
1000
0100
0010
,
0000
0000
0001
2000
0000
0000
3020
0000
,
0000
0000
0130
0001
0000
1000
0200
0000
,
2300
0000
0000
3002
0000
0000
0203
0000
,
0320
0000
0000
2030
0000
3100
0010
0002
,
0000
0003
0000
0000
0000
0000
0000
0000
;

//---------------dance-single - Itsugo15----------------
#NOTES:
     dance-single:
     Itsugo15:
     Easy:
     4:
     0.210,0.316,0.035,0.257,0.000:
0000
0000
0000
0000
,
0000
0000
0000
0000
,
0002
0003
0010
0000
,
0001
0000
0001
0000
,
2000
3000
0010
0000
,
1000
0000
1000
0000
,
0200
0300
0010
0000
,
0100
0000
0100
0000
,
0020
0030
0100
0000
,
0010
0000
0010
0000
,
0001
0000
0000
0000
,
0001
0000
0000
0000
,
0010
0000
0000
0000
,
0010
0000
0000
0000
,
0100
0000
0000
0000
,
0100
0000
0000
0000
,
1000
0000
0000
0000
,
1000
0000
0000
0000
,
1100
0000
0000
0000
,
1000
0000
0000
0000
,
0001
0000
0000
0000
,
0100
0000
0000
0000
,
0010
0000
0000
0000
,
1000
0000
0000
0000
,
0001
0000
0000
0000
,
0010
0000
0000
0000
,
0002
0000
0003
0000
,
2000
0000
3000
0000
,
0020
0000
0030
0000
,
0200
0000
0300
0000
,
0001
0000
0000
0100
0000
0000
0010
0000
,
0000
0000
1000
0000
,
0001
0000
0000
0010
0000
0000
0100
0000
,
0000
0000
1000
0000
,
0200
0000
0310
0000
,
0020
0000
0031
0000
,
0002
0000
1003
0000
,
2000
0000
3010
0000
,
0020
0000
0230
0000
,
0302
0000
2003
0000
,
3200
0000
0000
0000
0320
0000
0030
0110
,
0000
0000
1000
0000
,
1001
0000
0000
0001
0000
0000
1000
0000
,
0010
0000
0000
0100
0000
0000
0001
0000
,
0010
0000
0000
0100
0000
0000
1000
0000
,
0000
0001
0000
0000
0100
0000
0100
0000
,
0101
0000
0000
0001
0000
0000
1000
0000
,
0100
0000
0000
0010
0000
0000
0001
0000
,
2000
0000
0000
0010
0000
0000
3010
0000
,
0000
1000
0000
0000
0001
0000
0010
0000
,
0002
0000
0000
0000
0003
0000
0000
1000
,
0000
0001
0010
0100
,
2000
0000
0000
0000
3000
0000
0000
0001
,
0000
1000
0000
0010
,
0200
0000
0302
0000
,
0023
0000
0230
0000
,
2300
0000
0000
3200
0000
0000
0320
0000
,
0000
0031
1000
0010
,
0200
0000
0000
0000
,
0301
0000
0000
0000
1000
0000
0000
0100
,
0000
1000
1000
0000
,
0001
0000
0000
0000
0100
0000
0000
0010
,
0000
1000
1000
0000
,
0001
0000
0000
0000
0010
0000
0000
0100
,
0000
1000
1000
0000
,
0100
0000
0000
0000
0010
0000
0000
0001
,
0000
1000
1000
0001
,
1001
0000
0000
0000
0001
0000
0000
0010
,
0000
0001
0001
0000
,
1000
0000
0000
0000
0010
0000
0000
0100
,
0000
0001
0001
0000
,
1000
0000
0000
0000
0100
0000
0000
0010
,
0000
0001
0001
0000
,
0010
0000
0000
0000
0100
0000
0000
1000
,
0000
0001
0100
0010
,
1000
0000
0001
0000
,
1000
0000
0100
0000
,
0010
0000
0100
0000
,
1000
0000
0001
0000
,
0100
0000
0010
0000
,
1000
0000
0001
0000
,
0010
0000
0100
0000
,
1000
0000
0100
0000
,
0020
0000
0000
0000
,
0032
0000
0000
0000
,
2003
0000
0000
0000
,
3020
0000
0000
0000
,
0230
0000
0000
0000
,
0302
0000
0000
0000
,
2003
0000
0000
0000
,
3200
0000
0000
0000
,
0300
0000
0000
0000
;

//---------------dance-single - Itsugo15----------------
#NOTES:
     dance-single:
     Itsugo15:
     Medium:
     6:
     0.487,0.537,0.250,0.368,0.000:
0000
0000
0000
0000
,
0000
0000
0000
0000
,
0001
0000
1000
0000
0020
0000
0000
1000
,
0000
1000
1030
0000
,
1000
0000
0001
0000
0020
0000
0000
0001
,
0000
0001
0031
0000
,
0001
0000
0100
0000
0020
0000
0000
1000
,
0000
0100
1030
0000
,
1000
0000
0100
0000
0020
0000
0000
0001
,
0000
0100
0031
1000
,
1001
0000
1000
0000
0001
1000
0001
0000
,
0001
0001
1001
1000
,
0010
0000
0100
0000
0110
0010
0100
0000
,
0100
0100
0110
0100
,
0001
0000
1000
0000
1001
0001
0010
0000
,
0010
0010
0011
0010
,
0100
0000
1000
0000
1100
1000
0001
0000
,
0001
0000
0001
0100
0020
0000
1030
0000
,
1010
0000
0010
1000
0010
0000
0100
0001
,
0100
0100
0001
0001
,
0101
0000
0100
0001
0100
0000
0001
0010
,
0001
0001
0010
0010
,
0011
0020
0032
0203
,
2300
3200
0320
2030
,
3002
0023
0230
2300
,
0000
3000
0000
0000
1000
0000
0001
0000
,
1001
1000
1000
1000
,
1000
1000
1000
1000
,
1001
0001
1000
0001
,
1000
0001
1000
0001
,
1001
0000
0001
0100
0000
0100
0010
0100
,
0000
0100
0001
0000
0001
1000
0100
0000
,
1100
0000
1000
0100
0000
0100
0010
0001
,
0000
0001
0010
0000
0100
1000
0001
0000
,
1001
0000
0001
0100
0001
0100
0001
0100
,
0001
0100
1000
0100
,
0001
0000
1000
0001
1000
0001
1000
0001
,
1000
0100
0001
0100
,
0020
0000
0000
0001
0001
0000
0000
0100
,
0100
0000
0000
1000
1000
0000
0000
0001
,
0032
0000
0000
0000
1000
0000
0000
1003
,
0000
0000
0101
0000
,
1001
0000
1000
0001
0000
0010
0100
0010
,
0001
0000
1000
0010
0000
0100
0001
0100
,
0010
0000
1000
0001
0000
0001
1000
0000
,
0000
1001
0000
0000
1001
0000
0110
0000
,
2001
0000
0000
3100
0020
0000
0000
0031
,
2000
0000
0000
3010
0200
0000
0000
0301
,
2000
0000
0000
0100
0000
0000
0001
0000
,
0000
0010
0000
0000
3002
0000
0100
0000
,
1003
0100
0010
0000
0001
1000
0010
0100
,
0000
0100
0001
0000
0100
0001
1000
0000
,
0001
0010
0100
0000
1000
0001
0100
0010
,
0000
1000
0001
0000
0010
0100
1000
0100
,
0020
0000
0000
0031
2000
0000
0000
3010
,
0200
0000
0000
0301
2000
0000
0000
3100
,
0020
0000
0000
0032
0000
0000
2003
0000
,
0000
3020
0000
0000
0130
0001
1000
0200
,
0010
0010
0010
0310
,
0110
1100
0002
0000
,
0103
0000
0010
1000
0000
1000
0001
0000
,
1001
0000
0001
0010
0000
0010
0002
0000
,
1000
0000
0100
0000
0203
0000
0020
0330
,
0110
0000
0100
0001
0100
0000
0001
0000
,
1000
0000
1001
0000
1001
0000
0001
1000
,
0100
1000
0000
0001
0100
0000
0010
1000
,
0000
0001
0010
0100
1000
0100
0010
0001
,
1000
1001
0002
0000
,
0103
0000
0100
0020
0000
1030
0001
0000
,
1001
0000
1000
0000
0100
0020
0000
0032
,
0000
2003
0000
3020
0000
0130
0010
0100
,
0110
0000
0010
1000
0000
1000
0001
0000
,
1001
0000
0011
0000
1001
0000
1000
0001
,
0100
0010
0000
1000
0001
0000
0010
0001
,
2000
0000
3020
0000
0230
0000
0002
0303
,
0101
0000
0001
0100
0001
0000
0101
0000
,
0001
1000
0000
1000
0001
0000
1000
0100
,
1000
0000
0100
0010
0000
0010
0001
0000
,
0001
0000
1000
0020
0000
0200
0000
0330
,
0110
0000
0100
0001
0000
0001
1000
0000
,
1000
0001
0000
0001
0010
0000
0100
1000
,
0100
0000
0010
0001
0000
0001
1000
0000
,
1000
0010
0000
0010
0100
0001
1000
0100
,
0010
0000
0002
0000
2000
0000
0000
3003
,
0001
0000
0100
0010
0000
1000
0000
0002
,
0000
0000
0013
0000
0100
1000
0000
0001
,
0000
0100
0000
1000
0000
0100
0010
1000
,
0000
0000
0001
0010
0000
0100
1000
0000
,
0001
0000
1000
0010
0000
0100
0001
0000
,
1000
0000
0000
0100
0000
0000
0010
0000
,
0001
0000
0000
1000
0000
0010
0100
0002
,
0003
0000
0000
0000
;

//---------------dance-single - Itsugo15----------------
#NOTES:
     dance-single:
     Itsugo15:
     Beginner:
     2:
     0.100,0.156,0.021,0.125,0.000:
0000
0000
0000
0000
,
0000
0000
0000
0000
,
1000
0000
0000
0000
,
0000
0000
0000
0000
,
1000
0000
0000
0000
,
0000
0000
0000
0000
,
0001
0000
0000
0000
,
0000
0000
0000
0000
,
0001
0000
0000
0000
,
0000
0000
0000
0000
,
0100
0000
0000
0000
,
0010
0000
0000
0000
,
1000
0000
0000
0000
,
0001
0000
0000
0000
,
0010
0000
0000
0000
,
0100
0000
0000
0000
,
1000
0000
0000
0000
,
0001
0000
0000
0000
,
1001
0000
0000
0000
,
1000
0000
0000
0000
,
0010
0000
0000
0000
,
0100
0000
0000
0000
,
0001
0000
0000
0000
,
1000
0000
0000
0000
,
0100
0000
0000
0000
,
0010
0000
0000
0000
,
0002
0000
0000
0000
,
0003
0000
0000
0000
,
0001
0000
0000
0000
,
1000
0000
0000
0000
,
0010
0000
0000
0000
,
0100
0000
0000
0000
,
0001
0000
0000
0000
,
1000
0000
0000
0000
,
0200
0000
0300
0000
,
0020
0000
0030
0000
,
0002
0000
0003
0000
,
2000
0000
3000
0000
,
0010
0000
0000
0000
,
0100
0000
0000
0000
,
0001
0000
0000
0000
0000
0000
0000
1000
,
0000
0000
0000
0000
,
1001
0000
0000
0000
,
1000
0000
0000
0000
,
0100
0000
0000
0000
,
0010
0000
0000
0000
,
0001
0000
0000
0000
,
1000
0000
0000
0000
,
0010
0000
0000
0000
,
0100
0000
0000
0000
,
0001
0000
0000
0000
,
0001
0000
0000
0000
,
1000
0000
0000
0000
,
1000
0000
0000
0000
,
0100
0000
0000
0000
,
0010
0000
0000
0000
,
0001
0000
0000
0000
,
1000
0000
0000
0000
,
1001
0000
0000
0000
,
0001
0000
0000
0000
0000
0000
0002
0003
,
0000
0000
0000
0000
,
1000
0000
0000
0000
0000
0000
2000
3000
,
0000
0000
0000
0000
,
0010
0000
0000
0000
0000
0000
0020
0030
,
0000
0000
0000
0000
,
0100
0000
0000
0000
0000
0000
0200
0300
,
0000
0000
0000
0000
,
0001
0000
0000
0000
,
1000
0000
0000
0000
,
0100
0000
0000
0000
,
0010
0000
0000
0000
,
0001
0000
0000
0000
,
1000
0000
0000
0000
,
0010
0000
0000
0000
,
0200
0000
0000
0000
,
0301
0000
0000
0000
0000
0000
0002
0003
,
0000
0000
0000
0000
,
1000
0000
0000
0000
0000
0000
2000
3000
,
0000
0000
0000
0000
,
0100
0000
0000
0000
0000
0000
0200
0300
,
0000
0000
0000
0000
,
0010
0000
0000
0000
0000
0000
0020
0030
,
0000
0000
0000
0000
,
0002
0000
0000
0000
,
0003
0000
0000
0000
,
2000
0000
0000
0000
,
3000
0000
0000
0000
,
0020
0000
0000
0000
,
0030
0000
0000
0000
,
0200
0000
0000
0000
,
0300
0000
0000
0000
;

//---------------dance-single - Itsugo15----------------
#NOTES:
     dance-single:
     Itsugo15:
     Challenge:
     12:
     0.894,1.000,0.999,0.854,0.146: // measure 1
0000
0000
0000
0000
,  // measure 2
0000
0000
0000
0000
,  // measure 3
1001
0001
0100
0010
0110
0100
0001
1001
,  // measure 4
0100
0010
1001
0100
1001
0001
0010
0100
,  // measure 5
0110
0011
0001
1000
1001
0001
0100
0101
,  // measure 6
0001
1000
1001
0010
1001
1000
0010
0100
,  // measure 7
0110
0101
0001
1000
1001
0001
0010
0011
,  // measure 8
0001
0100
0101
1000
1100
0100
0010
0001
,  // measure 9
0011
1001
1000
0010
1010
1000
0001
1001
,  // measure 10
1000
0100
1100
0001
0101
0100
0010
2000
,  // measure 11
0001
0000
0001
0000
3001
2200
0001
0000
,  // measure 12
0001
0000
0001
3300
2001
0000
0001
0000
,  // measure 13
0001
0000
0001
0000
3001
2200
0001
0000
,  // measure 14
0001
0000
0001
3300
2001
0000
0001
0000
,  // measure 15
0001
0000
0001
0000
3001
2020
0001
0000
,  // measure 16
0001
0000
0001
3030
2001
0000
0001
0000
,  // measure 17
0001
0000
0001
0000
3001
2020
0001
0000
,  // measure 18
0001
0000
0001
3030
2001
0200
0001
3300
,  // measure 19
1001
1000
0001
1000
0011
1000
0001
1000
,  // measure 20
0001
1000
0001
1000
0101
1000
0001
1000
,  // measure 21
0001
1000
0001
1000
0011
1000
0001
1000
,  // measure 22
0001
1000
0001
1000
0101
1000
0001
1000
,  // measure 23
0001
0100
0001
0100
0011
0100
0001
0100
,  // measure 24
0001
0100
0001
0100
1001
0100
0001
0100
,  // measure 25
0001
0100
0001
0100
0011
0100
0001
0100
,  // measure 26
0001
0100
0001
0100
1001
0100
0010
1000
,  // measure 27
2010
0000
3000
M000
0200
0000
0300
0M00
0002
0000
0003
000M
0200
0000
0300
0M00
,  // measure 28
0020
0000
0030
00M0
0002
0000
0003
000M
2000
0000
3000
M000
0020
0000
0030
00M0
,  // measure 29
0200
0000
0300
0M00
0002
0000
0003
000M
0200
0000
0300
0M00
0020
0000
0030
00M0
,  // measure 30
2000
0000
3000
M000
0002
0000
0003
000M
0020
0000
0030
00M0
0200
0000
0300
0M00
,  // measure 31
2000
0000
3001
0000
0100
0000
0020
0000
0030
00M0
1000
0000
0001
0000
0020
0000
,  // measure 32
0030
00M0
0100
0000
2000
0000
3000
M000
0002
0000
0003
000M
0100
0000
0010
0000
,  // measure 33
1000
0000
0001
0000
0010
0000
0200
0000
0300
0M00
1000
0000
0001
0000
0200
0000
,  // measure 34
0300
0M00
0010
0000
2000
0000
3000
M000
0002
0000
0013
0000
0100
0000
1000
0000
,  // measure 35
1100
1MM0
1110
1MMM
,  // measure 36
1MMM
1MMM
1111
0MM1
,  // measure 37
0MM1
0MM1
0111
MMM1
,  // measure 38
MMM1
MMM1
1111
1MMM
,  // measure 39
1001
0000
0000
0000
0001
0000
0100
0010
0002
0000
0000
0000
0013
0000
1000
0001
,  // measure 40
0200
0000
0301
0100
2000
0000
3100
0010
,  // measure 41
2000
0000
0010
0000
0100
0010
3001
1101
,  // measure 42
0000
0000
1011
0110
,  // measure 43
1111
0100
1000
1100
1000
0001
1001
0001
,  // measure 44
0101
0100
0010
0110
0100
0001
0102
1003
,  // measure 45
0011
0010
0001
1001
1000
0010
0110
0100
,  // measure 46
0001
1001
0100
0010
1001
0100
1001
0010
,  // measure 47
1111
0100
0001
0101
0001
1000
1001
1000
,  // measure 48
1100
0100
0010
0110
0100
1000
2100
3001
,  // measure 49
1010
0010
0100
0110
0100
0001
0101
0001
,  // measure 50
1000
0000
1001
0000
1000
0000
0100
0000
0010
0001
0001
1000
0010
0100
0100
0001
,  // measure 51
1111
0000
0102
0000
1000
1003
0000
1101
,  // measure 52
0000
1001
2100
0000
0100
3010
0000
1000
,  // measure 53
1001
0000
0101
0000
0001
1000
1001
0000
,  // measure 54
1000
0001
1001
0000
0001
0011
0000
0001
,  // measure 55
2001
0100
0100
0100
3200
0010
0010
0010
,  // measure 56
0320
0001
0001
0001
0032
1000
1000
1003
,  // measure 57
0020
0000
0000
0000
0031
0000
0021
0000
0000
0030
0010
0000
1020
0000
0000
0000
,  // measure 58
1030
0000
1001
0000
0000
0000
0001
0000
0010
0100
0010
0000
0002
0000
1000
0000
,  // measure 59
0100
0000
0000
0000
0000
0000
0000
1000
0100
0000
0000
0000
0000
0000
0000
1000
0100
0000
0000
0000
0000
0000
0000
1000
0103
0000
0000
0000
0000
0000
0000
0000
,  // measure 60
1001
0001
0100
0010
0110
0100
0010
0110
,  // measure 61
0100
0001
0101
1000
0101
0001
1000
0100
,  // measure 62
1100
1010
1000
0010
1010
1000
0001
1001
,  // measure 63
1000
0100
1100
0001
1100
1000
0001
0100
,  // measure 64
0101
1001
0001
0010
0011
0001
1000
1001
,  // measure 65
0001
0100
0101
0010
0101
0001
1000
0100
,  // measure 66
1100
0110
0010
0001
0011
0010
0100
0110
,  // measure 67
0010
0000
0001
0000
0011
0000
0001
0010
0200
0000
2300
0000
3002
0000
0023
0030
,  // measure 68
0011
0001
0010
0100
0110
0010
0100
0110
,  // measure 69
0010
0001
0011
1000
0011
0001
1000
0010
,  // measure 70
1010
1100
1000
0100
1100
1000
0001
1001
,  // measure 71
1000
0010
1010
0001
1010
1000
0001
0010
,  // measure 72
0011
1001
0001
0100
0101
0001
1000
1001
,  // measure 73
0001
0010
0011
0100
0011
0001
1000
0010
,  // measure 74
1010
0110
0100
0001
0101
0100
0010
0110
,  // measure 75
0100
0000
0001
1000
0100
0000
0100
1000
0001
0000
0001
0100
0010
0000
0010
1000
,  // measure 76
1010
0000
1000
0001
1001
0000
1100
0000
,  // measure 77
0100
0000
0010
0000
0110
0000
0000
0000
0100
0000
1000
0000
1100
0000
0100
1000
,  // measure 78
0001
0000
0100
0010
0110
0000
0101
0000
,  // measure 79
0001
0000
1000
0000
0100
0000
0010
0000
0001
0000
1000
0001
0100
0000
0010
0000
,  // measure 80
0110
0000
0100
0001
0101
0000
1001
0000
,  // measure 81
1000
0000
0100
0000
1100
0000
0000
0000
0100
0000
0010
0000
0110
0000
0010
0001
,  // measure 82
1000
0000
0010
0100
0110
0000
1001
0000
,  // measure 83
1000
0000
0001
0000
0010
0000
0100
0000
1000
0000
0001
0100
0010
0000
1000
0000
,  // measure 84
2010
3000
0020
0030
2000
3000
0020
0030
2000
3000
0020
0030
2000
3000
0020
0030
,  // measure 85
2000
3000
0002
0003
2000
3000
0002
0003
2000
3000
0002
0003
2000
3000
0002
0003
,  // measure 86
2000
3000
0200
0300
2000
3000
0200
0300
2000
3000
0200
0300
2000
3000
0200
0300
,  // measure 87
0020
0030
0200
0300
0020
0030
0200
0300
0020
0030
0200
0300
0020
0030
0200
0300
,  // measure 88
0020
0030
0002
0003
0020
0030
0002
0003
0020
0030
0002
0003
0020
0030
0002
0003
,  // measure 89
2000
3000
0002
0003
2000
3000
0002
0003
2000
3000
0002
0003
2000
3000
0002
0003
,  // measure 90
0200
0300
0002
0003
0200
0300
0002
0003
0200
0300
0002
0003
0200
0300
0002
0003
,  // measure 91
0200
0300
0020
0030
2000
3000
0200
0300
0002
0003
2000
3000
0020
0030
0002
0000
,  // measure 92
0000
0003
0000
0000
;
