#TITLE:デイズ;
#SUBTITLE:メカクシティアクターズ;
#ARTIST:自然の敵P feat. メイリア from GARNiDELiA;
#TITLETRANSLIT:daze;
#SUBTITLETRANSLIT:Mekakucity Actors;
#ARTISTTRANSLIT:Shizen no Teki-P feat. MARiA from GARNiDELiA;
#GENRE:Otaku's Dream 3rd Mix (Pad);
#CREDIT:Huzure & Itsugo15;
#BANNER:Daze-bn.avi;
#BACKGROUND:Daze-bg.jpg;
#LYRICSPATH:Daze.lrc;
#CDTITLE:Collab.png;
#MUSIC:Daze.ogg;
#OFFSET:2.170;
#SAMPLESTART:54.660;
#SAMPLELENGTH:30.000;
#SELECTABLE:YES;
#LISTSORT:;
#BPMS:0.000=198.060,60.000=99.030,76.000=198.060,280.000=49.515;
#STOPS:;
#TICKCOUNT:0.000=6;
#BGCHANGES:5.750=Daze.avi=1.000=1=1=0,
280.500=Daze.avi=0.000=0=1=0,
296.500=Daze.avi=0.000=0=1=0,
99999=-nosongbg-=1.000=0=0=0 // don't automatically add -songbackground-
;
#KEYSOUNDS:;
#ATTACKS:;

//---------------dance-single - daze----------------
#NOTES:
     dance-single:
     daze:
     Edit:
     12:
     1.000,1.000,0.895,0.502,0.388: // measure 1
0000
0000
0000
0000
,  // measure 2
0000
0000
0000
0000
,  // measure 3
0000
0000
0001
0000
0000
0000
0001
0000
0000
0000
0001
0000
0000
0001
1000
0100
,  // measure 4
1100
0000
0000
0000
1000
0000
0001
0000
0100
0000
0001
0100
0001
0100
0000
0000
,  // measure 5
0101
0000
0000
0000
0001
0100
0001
0000
0100
0010
0100
0010
0100
0010
0100
0000
,  // measure 6
0110
0000
0000
0000
0010
0000
1000
0000
0100
0000
0010
0001
0010
0100
1000
0000
,  // measure 7
1100
0000
0101
0000
0110
1MM0
0MM1
0000
,  // measure 8
2002
3003
1000
0010
0100
0001
1000
0100
,  // measure 9
0010
0100
1000
1000
0001
0001
0010
0100
,  // measure 10
0220
0330
0010
0001
1000
1000
0001
0010
,  // measure 11
0100
0000
0010
0000
0001
0000
1000
0000
0010
0000
0100
0000
0010
1000
0001
0010
,  // measure 12
0200
0000
1300
0100
1000
0001
0100
0010
,  // measure 13
1000
0100
0010
0001
0100
0010
1000
0100
,  // measure 14
2200
3300
1000
0100
0001
0100
1000
0001
,  // measure 15
0100
0101
0000
2002
0000
3000
1000
1003
,  // measure 16
1100
0000
1000
0100
1000
0100
1000
0001
0101
0000
0001
0100
0001
0100
0001
1000
,  // measure 17
1010
0000
1000
0010
1000
0010
1000
0001
0011
0000
0001
0010
0001
1000
0001
0100
,  // measure 18
0101
0000
0001
0100
1000
0001
0010
1000
1010
0000
1000
0100
0001
1000
0010
0001
,  // measure 19
0011
0000
0000
0000
0001
0000
0010
0000
1000
0000
0001
0000
0100
0000
1000
0000
1100
0000
0000
0000
0001
0000
0100
0000
1000
0001
1000
0000
0100
0000
0010
0000
,  // measure 20
0110
0000
0010
1000
0001
0010
0100
1000
,  // measure 21
1100
0100
0010
0001
1000
0010
0100
0001
,  // measure 22
0101
0100
0010
1000
0100
0001
0100
0010
,  // measure 23
0110
0010
0001
1000
0010
0100
0001
0100
,  // measure 24
0101
0100
0010
1000
0001
0010
0100
1000
,  // measure 25
1100
0100
0010
0100
1000
0001
0100
0010
,  // measure 26
M11M
0000
1000
0001
1MM1
0000
0010
0100
,  // measure 27
M11M
0000
0000
0000
0010
0000
0011
0000
0000
0000
0001
0010
0001
1000
0010
1000
,  // measure 28
0001
1001
0000
1001
0000
0011
1001
0000
,  // measure 29
1001
0000
0000
0000
0001
0000
1000
0000
0010
0000
0100
0001
1000
0100
1000
0001
,  // measure 30
0100
0101
0000
0001
1000
0010
1000
0100
,  // measure 31
1100
0000
1000
0100
0010
0001
1000
0010
,  // measure 32
0100
0101
0000
0001
1000
0100
1000
0001
,  // measure 33
2002
3003
0100
0010
0220
0330
1000
0001
,  // measure 34
2002
0003
3001
1000
0002
0000
0103
0010
,  // measure 35
2000
0000
0000
0000
0002
0000
3000
0000
0013
0001
0010
0100
1000
0100
0010
0001
,  // measure 36
1000
1001
0000
1100
0000
0101
0000
0000
,  // measure 37
0110
0000
0000
0000
1001
0000
0000
0000
1010
0000
0011
0000
0001
0010
0001
1000
,  // measure 38
0010
1010
0000
1000
0010
0100
0001
1000
,  // measure 39
1001
0000
0000
0000
0001
0000
0010
0000
0100
0000
1100
0000
0000
1000
0000
0000
,  // measure 40
0001
1001
0000
0101
0000
0001
0100
0010
,  // measure 41
2000
0000
0000
3100
1000
0001
0100
0010
,  // measure 42
1000
0000
0010
1000
0010
1000
0010
1000
0001
1000
0001
1000
0001
1000
0001
0020
,  // measure 43
0100
0000
0100
0000
0100
0000
0100
0000
0130
0000
0000
M000
0M00
00M0
110M
0000
,  // measure 44
0000
2002
3000
1000
1003
0001
0100
0010
,  // measure 45
0001
0010
1000
0001
0010
0100
1000
1100
,  // measure 46
0000
0022
0030
0010
0013
0001
0010
1000
,  // measure 47
0001
0100
2000
0000
3002
0000
0003
0100
,  // measure 48
0010
1000
0000
0010
0100
0000
0101
0000
,  // measure 49
0101
0000
0002
0000
2003
0000
3000
1000
,  // measure 50
0100
0010
0000
0001
0010
0000
0011
0000
,  // measure 51
0001
0010
0001
0000
0010
0001
1000
0000
0001
0100
0001
0000
1000
0010
1010
0000
,  // measure 52
0000
2002
0003
0001
3001
1000
0010
0100
,  // measure 53
1000
0100
0001
1000
0100
0010
0001
0011
,  // measure 54
0000
2200
0300
0100
3100
1000
0100
0001
,  // measure 55
1000
0010
0002
0000
2003
0000
3000
0100
,  // measure 56
0010
0000
0002
0000
0000
0000
2003
0000
0020
0000
0000
3030
0000
0000
0010
0000
,  // measure 57
0100
0000
0002
0000
0000
0000
2003
0000
0200
0000
0000
3300
1000
0000
0100
0000
,  // measure 58
0010
0110
0000
0010
0011
0000
0001
1001
,  // measure 59
1000
0000
0000
0000
1100
0000
0100
0000
0010
0001
0010
0100
1000
0001
0100
0010
,  // measure 60
1000
0001
0010
0000
0100
0000
0010
0000
0001
0000
1000
0000
0010
0000
0100
0000
,  // measure 61
0001
0100
1000
0100
0010
1000
0100
0001
,  // measure 62
0100
0010
0001
1000
0100
0010
0100
1000
,  // measure 63
0001
0010
0100
1000
0100
0010
0001
1000
,  // measure 64
0010
0100
0001
0100
1000
0100
0001
0010
,  // measure 65
0100
M110
0000
011M
0000
0010
0010
0010
,  // measure 66
1001
0000
0000
0001
1001
1000
0010
0000
,  // measure 67
1010
0000
0000
0000
1000
0010
1000
0000
0001
0100
0001
0000
0010
0000
0000
0000
,  // measure 68
0011
0000
0000
0000
0001
0000
0010
0000
0100
0000
1000
0000
0100
0010
0001
0000
,  // measure 69
0011
1001
0011
1100
,  // measure 70
0202
0303
0000
0000
2200
3300
0000
0000
1101
0000
0000
0000
1110
0000
0000
0000
,  // measure 71
2200
3300
MM00
0000
0000
0000
0000
0000
;

//---------------dance-single - Huzure----------------
#NOTES:
     dance-single:
     Huzure:
     Challenge:
     12:
     0.976,1.000,0.589,0.568,0.355:
0000
0000
0000
0000
,
0000
0000
0000
0000
,
0000
0000
0000
0000
0000
0000
1000
1000
,
2000
0000
0000
0000
3001
0000
0100
0000
0100
0000
0001
0000
0100
0010
0100
0010
,
0200
0000
0000
0000
0301
0000
1000
0100
1000
0000
0001
0100
0001
0000
0100
0010
,
0200
0000
0000
0000
0301
0000
0011
0000
0110
0000
1000
0000
0001
1000
0001
1000
,
0001
1000
0010
1000
1000
0001
0001
0000
,
2000
0000
3100
0011
1100
1000
0010
0001
,
0010
1000
0010
0110
0101
1000
0001
0100
,
0200
0000
0301
1100
1001
0010
0100
1000
,
0010
0000
0100
0000
0001
0000
0101
0000
0110
0000
0010
0000
1000
0010
1000
0010
,
2000
0001
3001
1100
0110
0001
1000
0100
,
0001
0100
1000
1001
0011
0010
0001
1000
,
2000
0000
0000
0000
3001
0000
1000
0000
1000
0100
0010
0000
0001
0000
0100
0000
,
0001
0000
1010
0000
0000
0000
0202
0000
0000
0303
0000
0000
1000
0000
1000
0000
,
0020
0000
0030
1000
0000
1000
0000
0001
0010
0100
0010
0000
0010
0000
0001
1000
,
0100
0000
0100
0010
0001
0000
1000
0010
0020
0030
0100
0001
0100
1000
0100
0000
,
0000
0000
0010
1000
0000
0010
0000
1000
0100
0001
0100
0000
0010
0000
0001
0010
,
0100
0000
0000
0000
0001
0000
0100
0000
1000
0000
0000
0000
0010
0000
1000
0000
0010
0000
0000
0000
2000
0000
3001
0000
0100
0001
0100
0000
0002
0000
1003
0000
,
0200
0000
0300
0000
0010
0001
0010
0000
0001
0010
0001
0000
1000
0000
1000
0000
,
0001
0010
0100
0010
0001
0000
0100
1000
,
0002
0003
0010
1000
0002
0203
0320
1030
,
0001
0000
0000
0000
0010
0000
0001
0000
1000
0010
1000
0000
0001
0000
0000
0000
,
0202
0303
1000
0100
1000
0001
0000
0100
,
0110
1000
0001
1000
0100
0010
0010
0001
,
1000
0000
0100
0011
1100
0000
0001
1001
,
1100
0000
0000
0000
1000
0000
0001
0010
0001
0010
0001
0000
0100
0001
1000
0000
,
0001
0110
0000
1100
0000
0110
0000
0001
,
0101
0000
0000
0000
0110
0000
0100
0000
1010
0000
1001
0000
0001
0100
0010
0000
,
0100
0200
0000
0310
0010
0100
1000
0100
,
0200
0000
0301
1000
0200
1000
1300
0001
,
1000
0001
1000
0000
0000
0000
1010
0000
0001
0000
0100
0000
0010
0000
1000
0000
,
2000
0000
3100
0001
0100
0010
0001
1000
,
0020
0000
0130
0001
1000
0100
1000
0001
,
0002
0000
0000
0000
1003
0000
0010
0000
1000
0000
0100
0010
0001
0010
0100
0000
,
1000
0000
0011
0000
0001
0000
1100
0000
1000
0000
0110
0000
0001
1000
0001
0000
,
1010
0000
0000
0000
1010
0000
0000
0000
1001
0000
0110
0000
0001
1000
0100
0000
,
0010
0001
2000
0000
0000
0000
3100
0000
1000
0000
0001
0000
0010
0000
0100
0000
,
0002
0000
0000
0000
0103
0000
1000
0000
0000
0000
1100
0000
0000
0011
0000
0000
,
0010
0020
0000
0031
0001
0100
0010
0100
,
0200
0000
0310
0010
1000
0010
0100
1000
,
0100
0000
0001
1000
0100
1000
0100
0000
0010
0001
1000
0001
1000
0000
0010
0100
,
0010
1000
1000
0100
0100
0000
0010
0002
,
0000
0100
0003
0001
1000
0100
1000
0001
,
0100
0020
2000
0030
3001
0000
1000
1100
,
0000
0101
0000
1000
0100
1000
0100
0001
,
0100
0000
2000
0000
0020
0000
3030
0000
0022
0000
0000
0033
0100
0000
1000
0000
,
0100
0010
0001
1000
0010
0001
0010
0100
,
0010
1000
0001
0100
0001
1000
0100
1000
,
0100
0010
0001
0100
0010
0100
0001
1000
,
0001
0000
1000
0000
0100
0010
0001
0000
1000
0100
0010
0000
0001
1000
0010
0000
,
0100
0001
1001
0000
0000
0000
1000
0000
0001
0000
1000
0000
0100
0000
0100
0000
,
1000
0002
0020
0033
1010
0000
0001
1000
,
0100
0200
0310
0100
1000
0001
0100
0001
,
1000
0010
0020
0000
2000
0030
3001
1000
,
0100
0200
0010
0310
0001
0000
1000
0001
,
1000
1010
0010
1000
0001
0100
0001
1000
,
0000
0110
0000
0100
0011
0000
1000
0101
,
0000
0000
0010
0000
1001
0000
0000
0000
1000
0001
0010
0100
1000
0100
0010
0100
,
1000
0001
2000
0000
0000
0000
3001
0000
0100
0000
0001
0000
1000
0000
0100
0000
,
1000
0010
0010
0100
0010
1000
0010
0100
,
0001
0002
0000
0013
0100
1000
0100
0001
,
0200
0000
0000
0000
1300
0000
0001
0000
2000
0000
0000
3000
0010
0000
0100
0000
,
0001
0010
0001
0000
1000
0000
0100
0000
1000
0000
0010
0000
0100
0000
0010
0000
,
1000
0011
0000
0220
0000
0330
1000
1000
,
0002
0000
0013
0001
0010
0100
1000
0000
,
0011
0000
0000
0000
1000
0100
1000
0000
0100
0000
0010
0001
0010
0100
1000
0100
,
2000
0000
3000
0000
0001
0000
0011
0000
0100
0000
1000
0000
0100
0010
0001
0010
,
0100
0100
0100
0100
,
1100
0001
0001
0001
,
2000
3000
0000
0000
0000
0000
0000
0000
;

//---------------dance-single - Huzure----------------
#NOTES:
     dance-single:
     Huzure:
     Hard:
     10:
     0.795,0.957,0.240,0.404,0.136:
0000
0000
0000
0000
,
0000
0000
0000
0000
,
0000
0000
0000
0000
0000
0000
1000
0010
,
2000
0000
3001
0010
0100
0010
0001
0000
,
0020
0000
0130
1000
0001
0100
0001
0000
,
2000
0000
3100
0001
0100
1000
0100
0000
,
0010
0000
0010
0000
0000
1100
0110
0000
,
0002
0000
1003
0010
0100
0010
1000
0100
,
1000
0010
0100
0010
0001
0010
0100
0010
,
2000
0000
3100
0010
0100
0001
0100
1000
,
0100
0010
0100
0010
0001
1000
0001
1000
,
0020
0000
0130
0001
0010
0001
1000
0001
,
0100
0010
0100
1000
0100
0001
0010
0001
,
0200
0000
0310
1000
0100
0010
0001
0100
,
0010
0020
0000
0200
0000
0330
1000
0001
,
0020
0000
0030
0100
0000
0100
0000
1000
0100
0010
0001
0000
1000
0000
0010
1000
,
0100
0000
0100
0010
0001
0000
1000
0001
0010
0000
0001
0100
0001
0100
0001
0000
,
1100
0000
0010
0001
0000
0001
0000
0010
0100
0010
1000
0000
0010
0000
0001
1000
,
0001
0000
1000
0100
0010
0000
0010
0001
1000
0000
0100
1000
0100
1000
0001
0000
,
0110
0000
1000
0100
1000
0100
1000
0001
,
0010
0100
0010
0001
1000
0000
0010
0100
,
0110
0000
0001
1000
1000
0000
0010
1000
,
1010
0000
0001
0001
0020
0000
0130
0000
,
0001
0000
0100
1000
0001
1000
0010
0100
,
0010
1000
0001
0000
0010
0000
0001
1000
,
0100
0000
0010
0001
1100
0000
0001
0100
,
0020
0000
1030
1000
0000
1000
0000
0100
,
0010
0001
0100
1000
0100
0001
0000
1000
,
0110
0000
1100
0000
0001
1000
0000
0010
,
0000
0002
0000
0013
0100
0010
1000
0100
,
2000
0000
3001
0010
0001
1000
0010
0100
,
0001
1000
0000
0100
1000
0001
0100
0001
,
2000
0000
3010
0100
0010
1000
0001
0010
,
0020
0000
0031
1000
0100
0010
0001
0100
,
0200
0000
0301
1000
0010
0010
0000
1000
,
0001
0100
0010
0100
0010
0100
0000
0001
,
1010
0000
0101
0000
1000
1000
0000
0100
,
0000
0200
0000
0310
0001
1000
0010
0100
,
0101
0000
0000
0000
0001
0000
1000
0000
0100
0000
1100
0000
0000
1010
0000
0000
,
0001
0200
0000
0310
1000
0100
1000
0100
,
0010
0000
0010
0001
0010
1000
0010
0100
,
1000
0002
0000
0013
0200
0000
0310
0002
,
0000
1003
0010
0100
0010
0000
1000
0200
,
0000
0320
0000
0031
0100
1000
0100
0010
,
1000
0010
0020
0000
0130
0000
0001
1000
,
0000
0020
0030
0100
0001
1000
0001
0010
,
0100
0000
2000
0000
0020
0000
0000
3030
0002
0000
0000
0000
0003
0000
1000
0000
,
0001
0100
0010
1000
0010
0100
0001
1000
,
0010
0001
1000
0100
0001
0000
1000
0010
,
0100
0100
0010
1000
0001
0010
0100
1000
,
0100
0000
0000
0000
0020
0000
0000
0030
0002
0000
0000
0003
1000
0000
0100
0000
,
1000
0001
0100
0000
0000
0000
0101
0000
0001
0000
0100
0000
0001
0000
1000
0000
,
0100
0010
0001
0000
1000
0000
0001
1000
,
0000
0010
0000
1000
0100
0010
0100
0001
,
0100
1000
0001
0000
0100
0000
0001
0010
,
0001
1000
0000
0100
0010
0000
0001
1000
,
0010
1000
0000
0001
0010
0000
0100
1000
,
1000
0101
0000
0010
1100
0000
0001
0001
,
0000
0000
1000
0000
1001
0000
0000
0000
0001
0010
0100
1000
0100
1000
0100
1000
,
0100
1000
0200
0000
0000
0000
0310
0000
0001
0000
1000
0000
0100
0000
0010
0000
,
0001
0010
0100
0010
0001
1000
0100
1000
,
0010
0020
0000
0130
0001
0100
0010
1000
,
0200
0000
0310
0001
1000
0000
0010
1000
,
0001
0100
0010
1000
0010
0100
0001
0010
,
0100
1000
0000
0002
0000
0003
1000
0010
,
0200
0300
0001
1000
0010
0100
0001
0000
,
1100
0000
0001
1000
0010
0100
0001
0000
,
1100
0000
0010
0001
0010
0100
1000
0000
,
0011
0100
0100
0100
,
1010
0001
0001
0001
,
2000
3000
0000
0000
0000
0000
0000
0000
;

//---------------dance-single - Huzure----------------
#NOTES:
     dance-single:
     Huzure:
     Medium:
     8:
     0.636,0.880,0.065,0.251,0.126:
0000
0000
0000
0000
,
0000
0000
0000
0000
,
0000
0000
0000
0000
,
0000
0000
0000
0000
,
0000
0000
0000
0000
,
0000
0000
0000
0000
,
0001
0000
0001
0000
0000
0010
0001
0000
,
2000
0000
3000
0100
0010
0001
0000
1000
,
0000
0010
0000
0100
0001
1000
0100
0010
,
0200
0000
1300
0001
0010
0001
0000
0100
,
0000
0010
0000
1000
0001
0010
0001
1000
,
0020
0000
0130
0001
0010
0100
0000
1000
,
0000
0001
0000
0100
0001
0010
0001
1000
,
0002
0000
0013
0100
0001
0100
1000
0100
,
0010
0001
0000
0002
0000
0003
1000
0100
,
0200
0000
0300
1000
0000
0100
0000
0100
0010
0000
0001
0100
0000
0100
0000
0001
,
0100
0000
0010
0100
0000
0010
0000
1000
0010
0000
1000
0001
0010
0001
1000
0000
,
0200
0300
0010
0001
0000
0010
0000
0001
0100
0000
0100
0001
0000
1000
0000
0100
,
0010
0000
0010
0001
0000
1000
0000
1000
0100
0000
0010
0001
0010
0100
1000
0000
,
2000
3000
0001
0200
0301
0200
0000
0301
,
1000
0100
0010
0001
0100
0000
0010
0100
,
0010
0000
1000
0100
1000
0000
0001
0100
,
0010
0000
0010
1000
0100
1000
0001
0000
,
0001
0000
1000
0010
0100
0001
0000
0010
,
0100
1000
0100
0000
0100
0000
1000
0100
,
0010
0000
1000
0010
0001
0000
0010
0100
,
0010
0000
0100
1000
0000
1000
0000
0010
,
0100
0001
1000
0001
1000
0001
0000
1000
,
0001
0000
1000
0001
1000
0100
0000
0010
,
0000
0020
0000
0031
1000
0100
1000
0010
,
0100
0000
0001
0010
0100
0010
0001
1000
,
0001
1000
0000
0100
0000
1000
0000
0001
,
0001
0000
0100
0001
0000
1000
0000
0100
,
0010
0000
0100
1000
0000
1000
0000
0010
,
0100
0000
0010
1000
0100
0010
0000
0001
,
0000
1000
0100
1000
0100
1000
0000
0100
,
0010
0000
0001
0100
0001
1000
0000
0010
,
0000
0110
0000
0010
0000
1000
0000
0100
,
0100
0000
0000
0000
0100
0000
1000
0000
0000
0000
0001
0000
0000
0001
0000
0000
,
1000
0200
0000
0310
0000
0001
0100
0010
,
1000
0000
0100
0010
0000
0001
0010
0100
,
1000
0200
0000
0000
0320
0000
0000
0032
,
0000
1003
0010
0100
0001
0000
0000
2000
,
0000
0100
3000
0010
0001
0010
0001
0100
,
0010
0100
0001
0000
1000
0000
0000
0002
,
0000
1000
0003
0010
1000
0001
0100
0001
,
1000
0100
1000
0100
0020
0030
0001
0010
,
0100
1000
0000
0001
1000
0000
0100
0000
,
0100
0000
1000
0000
0100
0000
0010
0001
,
0000
1000
0000
0001
0100
0000
0001
0000
,
1100
0000
0011
0000
1100
0000
0000
0020
,
0000
0001
0030
0010
0100
1000
0001
0010
,
0100
1000
0010
0000
1000
0000
0000
0200
,
0000
1000
0300
0100
0010
0001
1000
0100
,
0010
0100
1000
0000
0002
0000
0003
0100
,
0001
0100
0000
0001
1000
0000
0100
0100
,
1000
0100
0000
0010
0001
0000
1000
0010
,
0100
0001
0000
1000
0100
0000
1000
0010
,
0000
1000
0100
0000
1000
0001
0010
0001
,
0010
0001
0000
1000
0100
1000
0100
1000
,
0000
0001
0000
0100
0010
0100
0001
0100
,
0000
0001
0000
1000
0010
1000
0001
0100
,
0000
0010
0000
1000
0001
0100
0001
1000
,
0000
0100
0000
0010
0000
0001
1000
0100
,
1000
0010
0000
0020
0000
0000
1030
0100
,
1000
0000
0001
0010
0100
1000
0001
0000
,
0100
0000
0010
1000
0001
0010
0100
0000
,
1000
0000
0100
0010
0001
1000
0010
0000
,
1001
0100
0100
0100
,
0110
1000
1000
1000
,
0002
0003
0000
0000
0000
0000
0000
0000
;

//---------------dance-single - Huzure----------------
#NOTES:
     dance-single:
     Huzure:
     Beginner:
     2:
     0.133,0.344,0.044,0.207,0.000:
0000
0000
0000
0000
,
0000
0000
0000
0000
,
0000
0000
0000
0000
,
0000
0000
0000
0000
,
0000
0000
0000
0000
,
0000
0000
0000
0000
,
0000
0000
0000
0000
,
2000
0000
0000
0000
,
0000
0000
0000
3000
,
0200
0000
0000
0000
,
0000
0000
0000
0300
,
0002
0000
0000
0000
,
0000
0000
0000
0003
,
0010
0000
0000
0000
,
0010
0000
0000
0000
,
0001
0000
1000
0000
,
1000
0000
0001
0000
,
0100
0000
1000
0000
,
0010
0000
0001
0000
,
1100
0000
0000
0000
,
0010
0000
0000
0000
,
0010
0000
0000
0000
,
0001
0000
0000
0000
,
2000
3000
0000
0000
,
0100
0000
0000
0000
,
0001
0000
0000
0000
,
1000
0000
0000
0000
,
0000
0020
0000
0000
0000
0000
0000
0000
,
0000
0000
0000
0000
0000
0030
0000
0000
,
0000
0001
0000
0000
0000
0000
0000
0000
,
1000
0000
0000
0000
,
0000
0010
0000
0000
0000
0000
0000
0000
,
1000
0000
0000
0000
,
0110
0000
0000
0000
,
0001
0000
0000
0000
,
0000
2000
0000
0000
0000
0000
0000
0000
,
0000
0000
0000
0000
0000
3000
0000
0000
,
0000
0010
0000
0000
0000
0000
0000
0000
,
0001
0000
0000
0000
,
0000
0010
0000
0000
0000
0000
0000
0000
,
0000
0100
0000
0000
0000
0000
0000
0000
,
0000
0002
0000
0000
0000
0000
0000
0000
,
0000
0003
0000
0000
0000
0000
0000
0000
,
0000
1000
0000
0000
0000
0000
0000
0000
,
0000
0010
0000
0000
0000
0000
0000
0000
,
0000
0100
0000
0000
0000
0000
0000
0000
,
0000
0001
0000
0000
0000
0000
0000
0000
,
0000
1000
0000
0000
0000
0000
0000
0000
,
0000
0100
0000
0000
0000
0000
0000
0000
,
0000
0010
0000
0000
0000
0000
0000
0000
,
0000
0002
0000
0000
0000
0000
0000
0003
,
0000
0001
0000
0000
0000
0000
0000
0000
,
0000
0010
0000
0000
0000
0000
0000
0000
,
0000
0100
0000
0000
0000
0000
0000
0000
,
0000
1000
0000
0000
0000
0000
0000
0000
,
0000
0100
0000
0000
0000
0000
0000
0000
,
0000
0100
0000
0000
0000
0000
0000
0000
,
0000
1000
0000
0000
0000
0000
0000
0000
,
0010
0000
0000
0000
,
0000
0200
0000
0000
0000
0000
0000
0300
,
0000
0002
0000
0000
0000
0000
0000
0003
,
0000
1000
0000
0000
0000
0000
0000
0000
,
0001
0000
0000
0000
,
0010
0000
0000
0000
,
0000
0200
0000
0000
0000
0300
0000
0000
,
2000
3000
0000
0000
,
0002
0003
0000
0000
,
0020
0030
0000
0000
,
0220
0000
0000
0330
,
0022
0000
0000
0033
,
2000
3000
0000
0000
0000
0000
0000
0000
;

//---------------dance-single - Huzure----------------
#NOTES:
     dance-single:
     Huzure:
     Easy:
     6:
     0.508,0.651,0.240,0.317,0.005:
0000
0000
0000
0000
,
0000
0000
0000
0000
,
0000
0000
0000
0000
,
0000
0000
0000
0000
,
0000
0000
0000
0000
,
0000
0000
0000
0000
,
1000
0000
1000
0000
0000
0001
0100
0000
,
0200
0000
0301
0100
0000
0001
0000
1000
,
0000
0100
0000
1000
0000
0001
0000
0100
,
0001
0000
0001
0100
0000
0010
0000
1000
,
0000
0010
0000
0100
0000
0001
0000
1000
,
0100
0000
0100
0010
0000
0001
0000
1000
,
0000
0001
0000
0100
0000
0010
0000
1000
,
0001
0000
0001
0100
0000
0010
0000
0100
,
0001
0200
0000
0002
0000
0303
1000
0100
,
0020
0000
0030
0000
0000
0000
0000
0000
0202
0303
0000
0000
0000
0000
0000
0000
,
2200
3300
0000
0000
0000
0000
0000
0000
0022
0033
0000
0000
0000
0000
1000
0000
,
2000
0000
3000
0000
0000
0000
0000
0000
0220
0330
0000
0000
0000
0000
0000
0000
,
2020
3030
0000
0000
0000
0000
0000
0000
0002
0003
0000
0000
0000
0000
0000
0000
,
2000
0000
3100
0010
0000
0010
0000
0001
,
0000
1000
0100
0000
0100
0000
1000
0100
,
0010
0000
0010
0001
1000
0000
0100
0010
,
0001
0000
1000
0100
1000
0000
0001
0000
,
0002
0003
0010
0001
0000
0010
0000
0100
,
0010
0100
1000
0000
0001
0000
0010
0001
,
0100
0000
0010
1000
0100
0000
1000
0001
,
0020
0000
0130
1000
0000
1000
0000
0001
,
0000
1100
0000
0110
0000
1010
0000
0000
,
1010
0000
0101
0000
1000
0100
0000
0010
,
0000
0001
0000
1000
0100
0000
0010
0000
,
0001
0000
1000
0010
2000
0000
3001
0010
,
0001
0100
0000
0010
0100
0000
0001
1000
,
0002
0000
1003
0100
0000
0100
0000
1000
,
0010
0000
0010
0100
0000
0010
0000
1000
,
0001
0000
0001
1000
0000
0001
0000
0010
,
0000
1100
0000
0011
0000
0101
0000
0000
,
1001
0000
1001
0000
0010
0100
0000
1000
,
0000
0001
0000
1000
0100
0000
0010
0000
,
0002
0000
0000
0000
0003
0000
1000
0000
0000
0000
0001
0000
0000
0010
0000
0000
,
0001
2000
0000
3100
0000
0010
0000
0100
,
0000
1000
0000
0001
0000
0010
0000
0001
,
0000
2000
0000
0000
3002
0000
0000
0023
,
0000
0130
1000
0100
1000
0000
0001
1000
,
0000
0010
0000
0100
0000
0010
0000
1000
,
0000
0001
1000
0000
1000
0000
0000
0100
,
0000
0100
0000
0010
0000
0001
0000
0010
,
0000
0100
0010
0000
0020
0000
0030
0001
,
1000
0100
0000
1000
0010
0000
0100
0000
,
0001
0000
0001
0000
1000
0000
0000
0100
,
1000
0010
0000
0100
0010
0000
1000
0000
,
0001
0000
0001
0000
1000
0000
0000
1100
,
0000
1100
0000
0100
0000
1000
0000
0001
,
0000
1000
0010
0000
0010
0000
0000
0110
,
0000
0101
0000
0001
0000
1000
0000
0001
,
0000
0010
0100
0000
0100
0000
0000
1000
,
0001
1000
0000
0001
0010
0000
0010
0100
,
0000
1000
0000
0100
0010
0000
0010
0001
,
0010
0100
0000
0000
0100
0000
0000
1000
,
0000
0000
0100
0000
0000
0100
0000
0100
,
0000
0010
0000
0001
1000
0010
0000
0100
,
0000
0001
0000
1000
0100
1000
0000
0001
,
0000
0010
0000
0001
0100
0010
0000
0100
,
0000
0001
0000
0010
0100
1000
0000
0010
,
0000
0010
0000
0100
0001
0100
0000
0001
,
0000
1000
0000
2000
0000
3000
0100
0010
,
0001
0000
0000
0000
,
1010
0000
0000
0000
,
0101
0000
0000
0000
,
0011
0001
0001
0001
,
1000
0001
0001
0001
,
0020
0030
0000
0000
0000
0000
0000
0000
;
