#TITLE:crossing field;
#SUBTITLE:ソードアート・オンライン;
#ARTIST:LiSA;
#TITLETRANSLIT:Crossing Field;
#SUBTITLETRANSLIT:Sword Art Online;
#ARTISTTRANSLIT:Lisa;
#GENRE:Anime;
#CREDIT:Huzure, Artiztiko & Itsugo;
#BANNER:Asuna-bn.png;
#BACKGROUND:Asuna-bg.png;
#LYRICSPATH:crossing field.lrc;
#CDTITLE:Triocollab.png;
#MUSIC:crossing field.mp3;
#OFFSET:-1.207;
#SAMPLESTART:46.060;
#SAMPLELENGTH:23.000;
#SELECTABLE:YES;
#LISTSORT:;
#BPMS:0.000=179.000,96.000=89.500,104.000=179.000;
#STOPS:;
#TICKCOUNT:0.000=6;
#BGCHANGES:-2.975=crossing field.avi=1.000=1=0=1,
252.000=Asuna-bg.png=1.000=1=0=0,
99999=-nosongbg-=1.000=0=0=0 // don't automatically add -songbackground-
;
#KEYSOUNDS:;
#ATTACKS:;

//---------------dance-single - Huzure (Pad)----------------
#NOTES:
     dance-single:
     Huzure (Pad):
     Edit:
     11:
     0.787,1.000,0.717,0.266,0.333:
0000
0000
0000
0000
,
0000
0000
0000
0000
,
0000
0000
0000
0000
,
0000
0000
0000
0000
,
1001
0001
0100
0001
,
1000
1000
0010
0000
1000
0000
0001
0000
,
0100
0000
0010
0000
0100
0000
0001
0011
,
0000
1000
1010
0101
0000
0000
0000
0000
,
0110
0001
0010
0100
1000
0100
0010
0100
,
1000
0001
0010
1000
0010
0001
0010
0100
,
1000
0010
0100
0001
0010
0100
1000
0001
,
0100
0010
1000
0100
2000
3000
0001
0000
,
0101
0000
1001
0100
0010
1001
0100
0010
,
1001
0000
0010
0000
0100
0000
1000
0001
0100
0000
0010
0000
1001
0000
0000
0000
,
1000
0000
0001
0000
0100
0000
0010
1000
0001
0000
0010
0000
1000
0000
0010
0000
,
0001
0000
1000
0000
1100
0000
0001
0000
0011
0000
0010
0100
1000
0100
0010
0001
,
0100
0000
0010
0000
1000
0000
0010
0100
0010
0000
1000
0000
0001
0000
0200
0000
,
0000
0000
0320
0000
2030
0000
3100
0010
0001
0000
0100
0000
1000
0000
0100
0010
,
0200
0000
0010
0000
0310
0000
1000
0001
1000
0000
0100
0000
0010
0000
0002
0000
,
0203
0000
0302
0000
2003
0000
3010
0100
0010
0000
1000
0000
0101
0000
0000
0000
,
1010
0000
1001
0000
0100
0010
0000
1001
,
0000
0100
1001
0000
0010
0010
1001
0000
,
0001
0010
0100
0001
0100
1000
0000
1100
,
0100
0000
0010
0000
0011
0000
0000
0000
0001
1000
0000
1000
0010
0100
0001
0010
,
0002
0000
0000
0000
1003
0000
0100
0000
0100
0000
1000
0000
1010
0000
0000
0000
0101
0000
0000
0000
0001
0000
1000
0000
0000
0000
1000
0000
0010
0000
0000
0100
,
0001
0000
0000
0000
1000
0000
0001
0000
0100
0000
0001
0000
1001
0000
0010
0100
1000
0000
0000
0000
0100
0000
0010
0000
0001
0000
0100
0000
1010
0000
0000
0000
,
1001
0000
0100
0010
0001
0010
0100
1000
0010
0100
0001
0010
0100
1000
0100
0010
,
0100
1000
0001
0100
0001
1000
0100
1000
0100
0010
0001
0010
0100
0010
0100
1000
,
0010
0100
0001
0100
0010
1000
0001
0100
0001
1000
0100
0010
0001
1000
0100
1000
,
0010
0100
0001
0010
0200
0000
0300
0000
1100
0000
0000
0011
0000
0000
1100
0000
,
0012
0000
0000
0023
0000
0000
0230
0000
,
0000
1300
1001
0001
0000
0000
0000
0000
,
1001
0010
0100
0001
1000
0010
1000
0001
,
0100
0010
0010
0100
0002
1000
1003
0200
,
0010
0310
0001
0010
1000
0010
0001
0010
,
0100
1000
0001
0010
0100
0001
0100
1000
,
0001
0000
0010
0101
1010
0000
0100
0110
,
0011
0000
1000
0110
1100
0000
0010
1001
,
0102
0000
0013
0010
0000
0110
1100
2000
,
0000
0000
3010
0100
0010
0000
1000
0000
0001
0010
0100
1000
0100
0010
0001
0100
,
0001
1000
0100
1000
0001
0100
0110
0010
,
1001
1000
0100
0010
1001
0001
0100
0020
,
0000
1030
0010
0100
0010
1000
1000
0100
,
0010
0100
0001
0100
1000
0100
0010
0001
,
0101
0000
0100
0110
1010
0000
1000
0011
,
0110
0000
0100
1010
1001
0000
0001
0110
,
0201
0000
0301
0001
0000
0011
0100
1100
,
0000
0000
1000
0000
0010
0000
1000
0000
0001
0000
0010
0100
1000
0001
0100
0010
,
1000
0001
0100
0010
1000
0010
0100
1000
,
0100
0001
0100
0010
1000
0001
0001
0110
,
0000
1000
0001
0011
0000
0100
1000
1010
,
0000
1000
0001
0101
0000
0100
0010
0100
,
0001
0001
1000
0100
1000
0010
0100
0001
,
1000
0000
1000
0000
0010
0000
0100
0000
0010
0000
1000
0001
1000
0000
0010
0000
,
1100
0011
0000
0101
1010
0000
0110
1010
,
0000
0000
0020
0000
0230
0000
0301
0100
0001
0000
0100
0010
1000
0000
0100
1000
,
0002
0000
0103
0010
1000
0001
0100
0002
,
0000
1003
1100
0010
0001
0010
0110
0100
,
1000
0000
0020
0000
0130
0001
1000
0110
,
0000
0000
1001
0000
0110
0000
0001
0000
0100
0000
0010
1000
0010
1000
0002
0000
,
0000
0000
0000
0000
,
0000
0000
0000
0000
,
0000
0000
0000
0000
0000
0003
0000
0000
;

//---------------dance-single - Itsugo----------------
#NOTES:
     dance-single:
     Itsugo:
     Challenge:
     10:
     0.734,1.000,0.604,0.133,0.379: // measure 1
0000
0000
0000
0000
,  // measure 2
0000
0000
0000
0000
,  // measure 3
0000
0000
0000
0000
,  // measure 4
0000
0000
0000
0000
,  // measure 5
2001
0001
0001
0001
,  // measure 6
0001
0001
0001
0001
,  // measure 7
0001
0000
0001
0000
0001
0000
3001
0101
,  // measure 8
0000
0010
1010
0010
0100
0001
1000
0100
,  // measure 9
0020
0001
0001
0001
,  // measure 10
0001
0001
0001
0001
,  // measure 11
0001
0001
0001
0001
,  // measure 12
0001
0000
0000
0000
0000
0000
0000
0000
0000
0000
0000
0000
0000
0000
0000
0000
0000
0000
0000
0000
0000
0000
0000
0000
0000
0000
0000
0000
0000
0000
0000
0000
0000
0000
0000
0000
0000
0000
0000
0000
0000
0000
0000
0000
0000
0000
0000
0000
0001
0000
0000
0000
0000
0000
0000
0000
0000
0000
0000
0000
0000
0000
0000
0000
0000
0000
0000
0000
0000
0000
0000
0000
0000
0000
0000
0000
0000
0000
0000
0000
0000
0000
0000
0000
0000
0000
0000
0000
0000
0000
0000
0000
0000
0000
0000
0000
0001
0000
0000
0000
0000
0000
0000
0000
0000
0000
0000
0000
0000
0000
0000
0000
0000
0000
0000
0000
0000
0000
0000
0000
003M
0000
0000
0000
0000
0000
00M0
0000
0000
0000
0000
0000
0000
0000
0000
0000
0000
0000
0000
0000
0000
0000
0000
0000
0001
0000
0010
0000
0000
0000
0100
0000
0000
0000
0000
0000
0000
0000
0000
0000
0000
0000
0000
0000
0000
0000
0000
0000
0000
0000
0000
0000
0000
0000
0000
0000
0000
0000
0000
0000
0000
0000
0000
0000
0000
0000
0000
0000
0000
0000
0000
0000
,  // measure 13
1100
0000
1001
0001
0100
0010
0110
1000
,  // measure 14
0001
0010
0011
0010
0100
1000
1100
1000
,  // measure 15
0001
0100
0101
0100
0010
1000
1010
0010
,  // measure 16
1000
0000
0001
0000
1001
0000
0001
0000
0010
0100
1000
0100
0010
0001
1000
0100
,  // measure 17
0010
0000
0001
0000
0011
0000
0001
1000
0001
1000
0001
1000
0001
0000
0100
0000
,  // measure 18
0010
0000
1000
0000
1010
0000
0010
1000
0010
0000
0100
0000
0001
0000
0100
0001
,  // measure 19
1000
0000
0100
0000
1100
0000
1000
0100
1000
0001
1000
0010
0100
0000
0001
0000
,  // measure 20
1000
0000
0100
0000
1100
0000
0100
0010
0001
0000
0001
0000
1000
0000
1000
0000
,  // measure 21
1001
0000
1010
0000
0010
0100
0000
M1M1
,  // measure 22
0000
0001
1000
0000
1000
0100
11MM
0000
,  // measure 23
0110
0000
0011
0000
0001
0100
0000
M1M1
,  // measure 24
0000
0000
0000
0100
0000
0000
0010
0000
0000
0000
0000
0000
1000
0010
1000
0010
0000
0000
0100
0000
0000
0000
0000
0000
,  // measure 25
0102
0000
0000
0000
0100
0000
0100
0000
0000
0000
1000
0000
1000
0000
0000
0003
2001
0000
0000
0000
0100
0000
0100
0000
0000
0000
0010
0000
0010
0000
0000
3000
,  // measure 26
1020
0000
0000
0000
1000
0000
1000
0000
0000
0000
0100
0000
0100
0000
0000
0030
0210
0000
0000
0000
0010
0000
0010
0000
0000
0000
0001
0000
0001
0000
0000
0300
,  // measure 27
0001
1000
0010
0100
0001
1000
0100
0010
0001
1000
0010
0100
0001
0100
0010
1000
,  // measure 28
0100
1000
0010
0100
0001
0010
0001
0100
0010
1000
0100
0010
0001
0010
0100
1000
,  // measure 29
0001
0100
0010
0100
0001
1000
0100
0010
0100
1000
0100
0010
0001
1000
0010
0100
,  // measure 30
0001
0100
0010
1000
0001
0000
0000
0000
1001
0000
0000
0110
0000
0000
1001
0000
,  // measure 31
0220
0000
0000
0000
,  // measure 32
0000
0000
0000
M00M
1331
M00M
0000
0000
0000
0000
0000
0000
0000
0000
0000
0000
,  // measure 33
1001
0001
0010
0100
0010
1000
0010
0100
,  // measure 34
1000
0001
0100
1000
0001
0010
1000
0001
,  // measure 35
0100
0010
0001
0010
1000
0001
0010
0100
,  // measure 36
0001
0100
1000
0001
0010
0100
1000
0001
,  // measure 37
1001
0000
0000
0000
1000
0000
0001
0100
0001
0000
0010
0000
0100
0000
1000
0100
,  // measure 38
1000
0000
0010
0000
0100
0000
0001
1000
0100
0000
0010
0000
0001
0000
1000
0001
,  // measure 39
1001
0000
0001
0101
0000
1010
0000
1001
,  // measure 40
0000
0000
1000
0000
0001
0000
0010
0000
0100
0000
1000
0100
0010
0001
0010
0100
,  // measure 41
4000
0000
0001
0000
0100
0000
3001
0010
,  // measure 42
0001
1000
0010
0001
1000
0100
0001
1000
,  // measure 43
0010
0100
1000
0100
0001
1000
0100
0010
,  // measure 44
1000
0010
0001
1000
0100
0010
0001
1000
,  // measure 45
1001
0000
1000
0010
1010
0000
0001
0010
,  // measure 46
0011
0000
1000
0100
1100
0000
1000
0001
,  // measure 47
1001
0000
0001
0101
0000
1010
0000
1001
,  // measure 48
0000
0000
0001
0000
1000
0000
0100
0000
0010
0000
0001
0010
0100
1000
0100
0010
,  // measure 49
0001
1000
0001
0010
0001
1000
0001
0010
,  // measure 50
0100
1000
0100
0010
0100
1000
0001
1001
,  // measure 51
0000
0100
0010
0110
0000
1000
0001
1001
,  // measure 52
0000
0010
0100
0110
0000
0010
0001
1000
,  // measure 53
0010
1000
0100
0010
0001
1000
0010
0100
,  // measure 54
0001
0000
1000
0000
0100
0000
0010
0000
0001
0010
0100
1000
0200
0000
0000
0300
,  // measure 55
1100
1001
0000
0011
0110
0000
1100
2002
,  // measure 56
0000
0000
3003
0000
1001
0000
1000
0001
0100
0000
0001
1000
0100
0000
1000
0001
,  // measure 57
1001
0000
0001
0100
0010
0001
0010
0100
,  // measure 58
0001
0100
0010
0100
0001
0010
0100
0001
,  // measure 59
0100
1000
0100
0010
0100
1000
0010
1010
,  // measure 60
0000
0000
0101
0000
0001
0000
1000
0100
0010
0001
0100
0001
0010
0100
2000
0000
,  // measure 61
0000
0000
0000
0000
,  // measure 62
0000
0000
0000
0000
,  // measure 63
0000
0000
0000
0000
0000
3000
0000
0000
;

//---------------dance-single - Artiztiko----------------
#NOTES:
     dance-single:
     Artiztiko:
     Hard:
     9:
     0.676,1.000,0.399,0.266,0.266:
0000
0000
0000
0000
,
0000
0000
0000
0000
,
0000
0000
0000
0000
,
0000
0000
0000
0000
0000
0000
0000
0000
0000
0000
0000
0000
0000
0000
1000
0001
,
1000
0001
0001
1000
1000
0010
1000
0010
,
1000
0001
0100
0001
1000
0010
0100
0001
,
1000
0100
0010
0001
1000
0010
0010
0010
,
0000
0000
0000
0000
1001
0000
0000
0000
1001
0000
0000
0000
0020
0030
0000
0000
0000
0000
0000
0000
1000
0000
0000
0000
0001
0000
0000
0000
0000
0000
0000
0000
,
0001
1000
0100
1000
0100
1000
0100
1000
,
0100
1000
0100
1000
0100
0010
0001
0010
,
0001
0010
0001
0010
0001
0010
0001
0010
,
0100
1000
0100
0000
0110
0000
0011
0000
,
0001
0001
0110
0100
0000
0010
1010
0000
,
1000
0001
0011
0010
0000
0100
1100
0000
,
0010
0001
0101
0000
0010
1000
1010
0000
,
0010
1000
0010
0000
0110
0000
0000
0000
0010
0000
1000
0000
1000
0001
1000
0001
,
0100
0000
0010
0000
1000
0000
0100
0010
0100
0000
0010
0000
0001
0000
0200
0300
,
0000
0000
0010
0000
2000
3000
0000
0000
0100
0000
0010
0000
0011
0000
0000
0000
,
0001
0000
0100
0000
0110
0000
0010
1000
0020
0030
0100
0000
0000
0000
0010
0000
,
0000
1001
1001
1010
,
0010
0000
1000
0000
0100
0000
0010
0000
0000
0000
0001
0000
0100
0000
0020
0030
,
0000
1000
1000
0100
0010
0000
0001
0000
,
1000
0001
0101
0000
0010
1000
0000
0010
,
0000
0000
1000
0000
0000
0000
0100
0000
0010
0000
0001
0010
0010
0000
0001
0000
,
0010
0000
0000
0100
0000
0000
1000
0000
0100
0010
0001
0010
0000
0001
0001
0000
,
1000
0010
1000
0010
0000
0100
0100
0000
0010
1000
0001
0010
0000
0010
0010
0000
,
0100
1000
0001
1000
0001
0100
0010
1000
0100
0001
0100
1000
0010
0100
0001
1000
,
0010
1000
0001
0010
0001
1000
0010
0100
0010
0100
0010
1000
0100
1000
0100
0010
,
0001
0100
1000
0100
0001
1000
0010
0100
0010
1000
0001
0010
0100
1000
0100
0010
,
0001
0000
0000
0000
1000
0000
0000
0000
0010
0000
0000
0000
0000
0000
0000
0000
2002
3003
0000
0000
0000
0000
2002
3003
0000
0000
0000
0000
2002
3003
0000
0000
,
1001
0000
0000
0001
0100
0000
0020
0030
,
2000
0000
0000
0000
3000
0000
0000
0000
0100
0010
0000
0000
0000
0000
0000
0000
0000
0000
0000
0000
0000
0000
0000
0000
0000
0000
0000
0000
0000
0000
0000
0000
,
0011
0000
1001
0000
0001
0100
0010
0000
,
1000
0000
0100
0000
0001
0000
0001
0000
0000
0000
0100
0000
1000
0000
0010
0100
,
0010
0010
1000
0000
0100
0010
0001
0010
,
0000
0001
1000
0010
0100
0010
1000
0100
,
0020
0030
0001
0010
0200
0300
1000
0010
,
0200
0000
0300
0000
0001
0000
1000
0000
0020
0000
0030
0000
1000
0000
0001
1000
,
0001
0100
0010
1000
0000
1001
0000
1100
,
0000
0000
0100
0000
0010
0000
0000
0000
0001
0000
1000
0000
0010
1000
0001
0010
,
0100
1000
0100
0001
0100
1000
0010
0001
,
0010
1000
0001
0100
0010
1000
0001
0100
,
0010
1000
0100
0010
0001
0100
1000
0100
,
0001
1000
0010
0100
0001
1000
0010
0100
,
0020
0030
1000
0001
0020
0030
0100
1000
,
0200
0300
0010
0001
0020
0030
0001
0100
,
0020
0030
1000
0001
0000
1001
0000
1010
,
0000
0000
0010
0000
1000
0000
0000
0000
0110
0000
0000
0000
0010
0000
0001
1000
,
0001
0000
0001
0100
0000
0000
0010
0000
,
1000
0000
1010
0000
0010
1000
0000
0200
,
0300
0010
0001
0200
0300
0010
1000
0200
,
0300
0000
0010
0000
0001
0100
0010
0000
,
1010
0000
0010
1000
0000
0100
0010
0000
,
0011
0000
0001
0100
0000
0010
1000
0000
,
0110
0110
0000
0011
0011
0000
1001
1001
,
0000
0000
1000
0000
0010
0000
0010
1000
0001
0000
0000
1000
0000
0000
0010
1000
,
0010
0000
1010
0010
1000
0100
0001
0100
,
0000
1000
0010
0100
0000
0010
1000
0100
,
0000
0010
0001
0000
0101
0000
0001
0100
,
0000
0000
0010
0000
1000
0000
0100
0000
0000
0000
0010
0001
0010
0000
0002
0000
,
0000
0000
0000
0000
,
0000
0000
0000
0000
,
0000
0000
0000
0000
0000
0003
0000
0000
;

//---------------dance-single - Itsugo----------------
#NOTES:
     dance-single:
     Itsugo:
     Medium:
     7:
     0.496,0.590,0.277,0.051,0.005:
0000
0000
0000
0000
,
0000
0000
0000
0000
,
0000
0000
0000
0000
,
0000
0000
0000
0000
,
1000
1000
1000
1000
,
0001
0001
1000
0001
,
1000
0000
0001
0000
1000
0000
0001
1000
,
0000
0010
0000
0100
0000
0001
0100
0000
,
0101
0001
0100
0001
,
0100
0001
0100
0001
,
1000
0001
1000
0001
,
1000
0100
1000
0010
,
1010
0101
0001
1001
,
1000
1100
0010
0011
,
0001
0001
1000
1000
,
0010
0010
0100
0001
,
0100
0010
1000
0001
,
1000
0010
0100
0001
,
1000
0100
0010
0001
,
0010
0100
1000
1100
,
0001
0000
0101
0000
0000
0100
0000
0001
,
0000
1001
0000
1000
,
0100
0000
1100
0000
0000
0000
0000
1001
,
0000
0001
1000
0010
,
1010
0000
1000
0000
,
0001
0000
0010
0000
,
0100
1000
0100
1000
0100
1000
0100
1000
,
0100
0010
0100
0010
0100
0010
0100
0010
,
0100
1000
0100
0010
0100
1000
0001
0100
,
0010
0000
1000
0000
0002
0000
0000
0000
1000
0000
0000
1000
0000
0000
1000
0000
,
2000
0000
0000
0000
,
0000
3003
1001
0000
0000
0000
0000
0000
,
1001
1000
0010
0100
0001
1000
0100
0010
,
0100
1000
0001
0010
0100
0010
0001
1000
,
0010
0100
0001
0100
0010
1000
0001
0010
,
0100
1000
0001
0100
0010
1000
0001
0010
,
0011
0000
0001
0100
0010
0000
1000
0100
,
0010
0000
0100
1000
0001
0000
1000
0010
,
1010
0000
1000
0001
0000
1001
0000
1001
,
0000
0001
0010
0000
0100
1000
0001
0000
,
1001
0001
0100
0010
1000
0001
0010
0100
,
0010
0001
1000
0100
0010
0100
1000
0001
,
0100
0010
1000
0010
0100
0001
1000
0100
,
0010
0001
1000
0010
0100
0001
1000
0100
,
1100
0000
1000
0010
0100
0000
0001
0010
,
0100
0000
0010
0001
1000
0000
0001
0100
,
0101
0000
0100
0010
0000
0110
0000
0110
,
0000
0010
1000
0000
0001
0100
0010
1000
,
0010
0100
0010
1000
0010
0100
0001
1000
,
0100
0010
0001
0010
0100
1000
0001
1001
,
0000
0001
0100
0101
0000
1000
0010
1010
,
0000
0001
0010
0011
0000
0001
1000
0000
,
0001
0100
0001
0010
0100
1000
0100
0010
,
0001
1000
0010
0100
0001
0100
0010
1000
,
0001
0001
0000
1000
1000
0000
0100
0100
,
0000
0010
0001
0000
2000
3000
0020
0030
,
0100
0001
1000
0001
0100
0001
1000
0001
,
0100
0010
0100
0001
0100
0010
0100
0001
,
1000
0001
1000
0100
0010
0001
0100
0010
,
1000
0010
0100
0001
1000
0100
0010
0002
,
0000
0000
0000
0000
,
0000
0000
0000
0000
,
0000
0000
0000
0000
,
0000
0000
0000
0000
,
0003
0000
0000
0000
;

//---------------dance-single - Itsugo----------------
#NOTES:
     dance-single:
     Itsugo:
     Easy:
     4:
     0.167,0.285,0.072,0.092,0.000:
0000
0000
0000
0000
,
0000
0000
0000
0000
,
0000
0000
0000
0000
,
0000
0000
0000
0000
,
1000
0000
1000
0000
,
0010
0000
0010
0000
,
0100
0000
0000
0000
0100
0000
0000
0002
,
0000
0000
0000
0000
,
1003
0000
0000
0000
,
1000
0000
0000
0000
,
0001
0000
0000
0000
,
0001
0000
0000
0000
,
1001
0000
1000
0000
,
0100
0000
1000
0000
,
0010
0000
0100
0000
,
0001
0000
0100
0000
,
0010
0000
0000
0000
,
0010
0000
0000
0000
,
0100
0000
0000
0000
,
0100
0000
0000
0000
,
0110
0000
0010
0000
,
1000
0000
0100
0000
,
0010
0000
0001
0000
,
0100
0000
0010
0000
,
0100
0000
0000
0000
,
0110
0000
0000
0000
,
1000
0000
0100
0000
,
0010
0000
0001
0000
,
0100
0000
0010
0000
,
1000
0000
0001
0000
,
2002
0000
0000
0000
,
3003
0000
0000
0000
,
1000
0000
1000
0000
,
0010
0000
0001
0000
,
0010
0000
1000
0000
,
0100
0000
0010
0000
,
0001
0000
0001
0000
,
1000
0000
1000
0000
,
0010
0000
0100
0000
,
0001
0000
0100
0000
,
0020
0000
1030
0000
,
0100
0000
0001
0000
,
0100
0000
1000
0000
,
0100
0000
0010
0000
,
0001
0000
0100
0000
,
0010
0000
1000
0000
,
0010
0000
0100
0000
,
0002
0000
0103
0000
,
0001
0000
0001
0000
,
1000
0000
1000
0000
,
0100
0000
0010
0000
,
0100
0000
1000
0000
,
0010
0000
0010
0000
,
0100
0000
0100
0000
,
0110
0000
0110
0000
,
0220
0000
0330
0000
,
1000
0000
0100
0000
,
0010
0000
0001
0000
,
0100
0000
0010
0000
,
1000
0000
0000
0000
0002
0000
0000
0200
,
0000
0000
0000
0000
,
0000
0000
0000
0303
;

//---------------dance-single - Itsugo----------------
#NOTES:
     dance-single:
     Itsugo:
     Beginner:
     1:
     0.078,0.125,0.020,0.010,0.000:
0000
0000
0000
0000
,
0000
0000
0000
0000
,
0000
0000
0000
0000
,
0000
0000
0000
0000
,
1000
0000
0000
0000
,
0000
0000
0000
0000
,
1000
0000
0000
0000
,
0000
0000
0000
0000
,
1001
0000
0000
0000
,
0000
0000
0000
0000
,
0001
0000
0000
0000
,
0000
0000
0000
0000
,
0100
0000
0000
0000
,
0010
0000
0000
0000
,
1000
0000
0000
0000
,
0100
0000
0000
0000
,
0010
0000
0000
0000
,
0000
0000
0000
0000
,
0010
0000
0000
0000
,
0000
0000
0000
0000
,
0001
0000
0000
0000
,
1000
0000
0000
0000
,
0010
0000
0000
0000
,
0100
0000
0000
0000
,
0100
0000
0000
0000
,
0001
0000
0000
0000
,
1000
0000
0000
0000
,
1000
0000
0000
0000
,
0100
0000
0000
0000
,
0010
0000
0000
0000
,
0001
0000
0000
0000
,
0000
0000
0000
0000
,
0011
0000
0000
0000
,
0001
0000
0000
0000
,
1000
0000
0000
0000
,
0010
0000
0000
0000
,
0100
0000
0000
0000
,
0001
0000
0000
0000
,
0100
0000
0000
0000
,
0100
0000
0000
0000
,
0001
0000
0000
0000
,
1000
0000
0000
0000
,
0100
0000
0000
0000
,
0010
0000
0000
0000
,
0001
0000
0000
0000
,
0001
0000
0000
0000
,
1000
0000
0000
0000
,
1000
0000
0000
0000
,
0010
0000
0000
0000
,
0100
0000
0000
0000
,
0001
0000
0000
0000
,
0001
0000
0000
0000
,
0100
0000
0000
0000
,
0010
0000
0000
0000
,
1000
0000
0000
0000
,
1000
0000
0000
0000
,
0100
0000
0000
0000
,
0010
0000
0000
0000
,
0001
0000
0000
0000
,
1000
0000
0000
0000
0000
0000
0000
0002
,
0000
0000
0000
0000
,
0003
0000
0000
0000
;
