#TITLE:Zoetrope;
#SUBTITLE:AMNESIA;
#ARTIST:やなぎなぎ;
#TITLETRANSLIT:Zoetrope;
#SUBTITLETRANSLIT:Amnesia;
#ARTISTTRANSLIT:Yanagi Nagi;
#GENRE:Otaku's Dream 3rd Mix (Pad);
#CREDIT:Aikyoku & Itsugo;
#BANNER:Zoetrope banner.png;
#BACKGROUND:Zoetrope BG1.jpg;
#LYRICSPATH:Zoetrope.lrc;
#CDTITLE:Collab.png;
#MUSIC:Zoetrope.mp3;
#OFFSET:0.080;
#SAMPLESTART:61.727;
#SAMPLELENGTH:17.800;
#SELECTABLE:YES;
#LISTSORT:;
#BPMS:0.000=92.000,37.500=94.000,40.000=184.000;
#STOPS:;
#TICKCOUNT:0.000=6;
#BGCHANGES:0.500=Zoetrope.avi=1.000=1=0=0,
235.000=Zoetrope.avi=0.000=0=1=0,
99999=-nosongbg-=1.000=0=0=0 // don't automatically add -songbackground-
;
#KEYSOUNDS:;
#ATTACKS:;

//---------------dance-single - Aikyoku----------------
#NOTES:
     dance-single:
     Aikyoku:
     Easy:
     3:
     0.251,0.293,0.000,0.078,0.000:
0000
0000
0000
0000
,
0000
0000
0000
0000
,
0000
0000
0000
0000
,
0000
0000
0000
0000
,
0000
0000
0000
0000
,
0000
0000
0000
0000
,
0000
0000
0000
0000
,
0000
0000
0000
0000
,
0000
0000
0000
0000
,
0000
0000
0000
0000
,
0100
0000
0000
0000
0100
0000
0000
1000
,
0000
0100
0000
0000
0010
0000
0000
0000
,
0100
0000
0000
0000
1000
0000
0000
0100
,
0000
0010
0000
0000
0001
0000
0010
0000
,
0100
0000
0000
0000
0010
0000
0000
0010
,
0000
0100
0000
0000
1000
0000
0000
0000
,
1000
0000
0000
0000
0010
0000
0000
0100
,
0000
0010
0000
0000
1000
0000
0010
0000
,
1000
0000
0000
0000
0010
0000
0000
0100
,
0000
0001
0001
0010
,
0000
0000
0100
0000
1000
0000
0000
0010
,
0000
1000
1000
0100
,
0000
0000
0010
0000
0001
0000
0000
0001
,
0000
0100
0010
0100
,
0010
1000
1000
0001
,
2000
0000
3200
0000
,
1300
1000
0100
1000
,
0010
1000
0001
1000
,
0010
0100
0001
0001
,
0010
0100
0010
0001
,
1000
0010
0100
0001
,
1000
0010
1000
0100
,
0010
0000
0000
0001
0000
0000
0001
0000
,
2000
0000
3002
0000
,
0203
0000
0001
0000
,
0001
0000
0001
0000
,
0301
0000
0000
0010
0000
0000
0010
0000
,
0000
0100
0000
0000
0010
0000
0100
0000
,
1000
0100
0010
0001
,
0010
0100
0100
1000
,
0010
1000
0001
0010
,
0010
0001
1000
0100
,
0010
0001
0010
0100
,
1000
0010
1000
1000
,
0200
0000
1300
0010
,
1000
0000
0000
0010
0000
0100
0000
0000
,
0001
0010
0100
1000
,
0010
0100
0001
0100
,
0010
1000
0010
0100
,
0001
0100
0000
0010
,
1000
0000
0100
0000
0000
0010
0000
0000
,
0100
0000
0000
1000
0000
0000
0100
0000
,
1000
0000
0000
0010
0000
0100
0000
0001
,
0000
0100
0000
0010
0000
1000
0000
0000
,
0100
0000
0000
0000
,
1000
0000
0000
0000
,
1000
0000
0000
1000
0000
0000
0000
0000
,
0001
0000
0000
0001
0000
0100
0000
0200
,
0000
0000
0300
0000
;

//---------------dance-single - Aikyoku----------------
#NOTES:
     dance-single:
     Aikyoku:
     Medium:
     6:
     0.380,0.391,0.000,0.100,0.017:
0000
0000
0000
0000
,
0000
0000
0000
0000
,
0000
0000
0000
0000
,
0000
0010
0000
0000
0000
0000
0000
0000
,
2000
0000
3000
0000
,
0010
0000
0000
0000
0010
0000
0000
0000
0000
0000
0000
0000
,
0000
0000
0000
1000
0000
0000
0000
0000
0001
0000
0000
0000
0000
0000
0000
0000
,
0000
0000
1000
0000
0000
0010
0000
0000
,
0000
0000
0000
0000
0000
0000
0000
0200
0000
0000
0000
0000
0000
0000
0000
0000
0000
0000
0000
0000
0000
0000
0000
0000
0000
0000
0000
0000
0000
0000
0000
0000
,
0000
0000
0000
0000
,
0310
0000
0000
0000
0010
0000
0000
0100
,
0000
0010
0000
0000
1000
0000
1000
0000
,
0100
0000
0010
0000
0010
0000
0000
0001
,
0000
0100
0000
0000
0001
0000
0010
0000
,
0001
0000
0000
0000
1000
0000
0000
0100
,
0000
0100
0000
0000
0010
0000
0100
0000
,
1000
0000
0001
0000
0001
0000
0000
1000
,
0000
1000
0000
0000
0010
0000
0100
0000
,
0001
0000
0100
0001
0100
0001
1000
0100
,
0000
0100
1000
0000
0100
0000
0010
0000
,
0001
0000
1000
0000
0010
0010
1000
0001
,
0000
0100
0010
0000
0010
0000
1000
0000
,
0001
0000
1000
1000
0100
0010
0100
0010
,
0000
0010
0100
0000
1000
0000
0001
0000
,
0010
0100
1000
0100
,
0200
1000
0302
1000
,
1003
0000
1000
0100
1000
0100
0010
0100
,
0010
0010
0100
1000
,
0001
0000
0010
0100
0010
0001
0100
0001
,
0100
0001
1000
0010
,
0100
0000
0001
0000
0100
0000
0100
0010
,
0000
1000
0000
0010
0000
0100
0000
0100
,
0001
0000
0000
1000
0000
0000
0100
0000
,
0200
1000
2300
0001
,
3002
0000
0010
0000
,
0100
0000
1000
0000
,
1003
0100
1000
0100
0000
0000
0010
0001
,
0010
0001
0000
0000
0010
0000
0100
0000
,
0010
0100
0010
0100
0010
0000
0100
1000
,
0000
0001
0000
1000
0000
0010
0000
0010
,
1000
0000
0010
0000
1000
0000
0100
0010
,
0001
0000
0010
0100
0000
0100
0000
1000
,
0010
0000
0100
0000
0001
0000
0001
0100
,
0001
0000
1000
0100
0000
0100
0010
0001
,
0020
0000
0001
0000
0031
0000
0001
0010
,
0100
0000
0100
0010
0000
0001
0000
0000
,
1000
0001
0010
0100
1000
0000
1000
0010
,
0000
1000
0000
0010
0000
0100
0000
0100
,
0001
0000
0001
0000
1000
0000
0001
1000
,
0001
0000
1000
0010
0000
0100
0000
0100
,
0010
0000
0010
1000
0000
0001
0000
0010
,
0001
0000
0001
0010
0000
0010
0100
1000
,
0100
0000
0100
0010
0000
0100
0000
1000
,
0000
0100
0010
0001
0000
0001
0000
1000
,
0100
0010
0000
0000
0000
0000
0010
0001
,
0010
0100
0000
0000
0000
0000
1000
0001
,
0001
1000
0000
0100
0000
1000
1000
0100
,
1000
0001
0000
0001
0000
0001
0100
0020
,
0000
0000
0030
0000
;

//---------------dance-single - Aikyoku----------------
#NOTES:
     dance-single:
     Aikyoku:
     Hard:
     9:
     0.570,0.652,0.212,0.033,0.134:
0000
0000
0000
0000
,
0000
0000
0000
0000
,
0000
0000
0000
0000
0000
0000
0000
0000
0000
0000
0000
0000
0000
0000
0000
0000
0000
0000
0000
0000
0000
0100
0000
0000
0000
0000
0000
0000
0100
0000
0000
0000
0000
0000
0000
0000
0000
0000
0000
0000
0000
0000
0000
0000
0000
0000
0000
0000
,
0000
0000
0000
0000
0000
0000
0010
0000
0000
0000
0000
0000
0000
0000
0000
0000
0000
0000
0000
0000
0100
0000
0000
0000
0000
0000
0000
0010
0000
0000
0000
0000
0000
0100
0000
0000
0000
0000
0000
0000
0000
0000
0000
0000
1000
0000
0000
0000
,
2000
0000
0000
0000
0000
0000
0000
0000
0000
0000
0000
0000
0000
0000
0000
0000
0000
0000
0000
0000
0000
0000
0000
0000
3000
0000
0000
0000
0000
0000
0000
0000
0100
0000
0000
0000
0000
0000
0000
0010
0000
0000
0000
0000
0000
0000
0000
0000
,
0100
0000
0000
0000
0000
0000
0000
0000
0010
0000
0000
0000
0001
0000
0000
0100
0000
0000
0000
0000
0000
0000
0010
0000
,
0000
0000
0000
1000
0000
0000
0000
0000
0000
1000
0000
0000
0000
0000
0000
0000
0001
0000
0000
0000
0100
0000
0000
0000
0001
0000
0000
0000
0000
0000
0001
0000
0000
0000
0000
0000
0010
0000
0000
0000
0000
0000
0100
0000
0000
0000
0000
0000
,
0100
0000
1000
0000
0000
0001
0100
0000
,
0000
0000
0000
0000
0000
0000
0000
0000
0000
0000
0000
0000
0010
0000
0000
0000
0000
0000
0000
0000
0000
0000
0000
0000
0000
0000
0000
0000
0000
0000
0000
0000
0000
0000
0000
0000
0000
0000
0000
0000
0000
0000
0100
0000
0000
0000
0000
0000
0000
0000
0000
0000
0000
0000
0000
0000
0000
0000
0000
0000
0000
0000
0000
0000
0000
0000
0000
0000
0000
0000
0000
0000
0000
0000
0000
0000
0000
0000
0000
0000
0200
0000
0000
0000
0000
0000
0000
0000
0000
0000
0000
0000
0000
0000
0000
0000
0000
0000
0000
0000
0000
0000
0000
0000
0000
0000
0000
0000
0000
0000
0000
0000
0000
0000
0000
0000
0000
0000
0000
0000
0000
0000
0000
0000
0000
0000
0000
0000
0000
0000
0000
0000
0000
0000
0000
0000
0000
0000
0000
0000
0000
0000
0000
0000
0000
0000
0000
0000
0000
0000
0000
0000
0000
0000
0000
0000
0000
0000
0000
0000
0300
0000
0000
0000
0000
0000
0000
0000
0000
0000
0000
0000
0000
0000
0000
0000
0000
0000
0000
0000
0001
0000
0000
0000
0000
0000
0000
0000
0000
0000
0000
0000
,
1000
0000
1000
0100
0000
0100
1000
0000
0000
0000
0000
0000
0000
0000
0000
0000
,
1000
0000
0100
0000
1100
0000
0100
1000
,
0000
0001
1000
0010
1000
0100
0010
0010
,
0001
0000
0010
0000
0011
0000
0001
0001
,
0000
0100
0010
0100
0001
0100
0010
0010
,
1000
0000
1000
0000
1001
0000
0001
1000
,
0000
1000
0010
1000
0010
0100
0010
0100
,
0010
0000
1000
0000
1010
0000
0000
0100
,
0000
0101
0000
0001
0001
0000
0010
0100
,
0010
0000
0100
1000
0100
0100
0010
0110
,
0000
0010
0001
0000
1000
0001
1000
1000
,
0010
0000
1000
0000
0010
1000
0010
0100
,
0000
0100
0001
0000
0100
0001
0100
0001
,
0101
0000
0001
0001
1000
0010
1000
0100
,
0000
0100
0010
0000
0010
0001
0010
0100
,
1000
0000
0100
0000
1100
0000
1000
0100
,
1000
0001
0100
0000
0100
0010
1000
0010
,
1000
0000
0001
0100
0001
0100
0001
0100
,
0001
0100
0001
0100
0001
0100
0001
0100
,
0010
1000
0010
1000
0010
1000
0010
1000
,
0010
1000
0010
1000
0100
1000
0100
0010
,
0001
0000
1000
0000
0010
0000
0010
0100
,
0000
0001
0100
0001
0010
0100
1000
0100
,
1100
0000
0000
1100
0000
0000
0100
0000
,
0110
0000
0010
0000
0001
1000
0001
1000
,
0100
0000
0010
0010
0100
0000
1000
1000
,
0100
0010
0010
0001
0010
0100
1000
0100
,
0010
0010
0001
1000
0000
0000
0100
0100
,
1000
0001
0000
0000
0010
0001
0010
0000
,
0011
0001
0001
0010
0100
0000
0100
1000
,
0000
1000
0001
0100
0001
1000
0100
0000
,
1100
0000
0100
0000
1000
0100
1000
0100
,
0010
0000
0000
0000
0010
0000
0100
0000
0000
0000
0100
0000
1000
0000
0100
1000
,
0100
0000
1000
0000
0001
0000
0001
0010
,
0100
0000
1000
0010
0000
0100
0010
0000
,
0110
0000
0100
0000
0001
0000
1000
0100
,
0010
0000
0000
0000
0001
0000
1000
0000
0010
1000
0010
1000
0000
0000
0000
0000
,
0001
0100
0001
0010
0100
0000
1000
0100
,
0000
0100
1000
0001
0000
0100
0010
1000
,
0010
0000
1000
0000
0100
0010
0001
0010
,
0100
0000
0000
0000
0100
0000
0010
0000
0000
0000
0010
0000
0001
0000
0010
0001
,
0010
0000
0001
1000
0000
1000
0010
0100
,
0001
0010
0100
1000
0000
0001
0010
0001
,
0011
0000
0010
0010
0000
0001
0001
1000
,
0000
0001
0100
0001
0100
0010
1000
0010
,
1010
0010
1000
0001
0100
0100
0001
0100
,
0101
0001
0100
0100
0001
0100
0010
0100
,
0110
0100
0000
0100
0000
0001
0010
0001
,
0011
0010
0000
0010
0000
0010
0100
0020
,
0000
0000
0030
0000
;

//---------------dance-single - Aikyoku----------------
#NOTES:
     dance-single:
     Aikyoku:
     Beginner:
     1:
     0.148,0.228,0.000,0.056,0.000:
0000
0000
0000
0000
,
0000
0000
0000
0000
,
0000
0000
0000
0000
,
0000
0000
0000
0000
,
0000
0000
0000
0000
,
0000
0000
0000
0000
,
0000
0000
0000
0000
,
0000
0000
0000
0000
,
0000
0000
0000
0000
,
0000
0000
0000
0000
,
0100
0000
0010
0000
,
0000
0100
0000
0000
1000
0000
0000
0000
,
0000
0000
0010
0000
,
0000
0010
0000
0000
0100
0000
0000
0000
,
0010
0000
0100
0000
,
0000
0001
0000
0000
0000
0000
0000
0000
,
0001
0000
0100
0000
,
0000
0010
0000
0000
1000
0000
0000
0000
,
0100
0000
0000
0000
0010
0000
0000
0001
,
0000
0000
0000
0010
,
0100
0000
0000
0000
1000
0000
0000
1000
,
0000
0000
0010
1000
,
0000
0000
0000
0000
0001
0000
0000
0001
,
0000
0000
0010
0001
,
0001
0000
1000
0000
,
0020
0000
2030
0000
,
3001
0000
0001
0000
,
0010
0000
0010
0000
,
0100
0000
0100
0000
,
1000
0000
1000
0000
,
0001
0000
1000
0000
,
0010
0000
0100
0000
,
0010
0000
0000
0010
0000
0000
0000
0000
,
1000
0000
0100
0000
,
0200
0000
0000
0000
,
0000
0000
0000
0000
,
1300
0000
0000
0010
,
0000
0000
0100
0000
,
0010
0000
1000
0000
,
0001
0000
0010
0000
,
0100
0000
1000
0000
,
0100
0000
0010
0000
,
0001
0000
0010
0000
,
0001
0000
1000
0000
,
0020
0000
0030
0000
,
1000
0000
0000
0010
0000
0000
0000
0000
,
1000
0000
0001
0000
,
0100
0000
0010
0000
,
1000
0000
0010
0000
,
0100
0000
0010
0000
,
1000
0000
0000
0000
0000
0001
0000
0000
,
1000
0000
0000
0010
0000
0000
0000
0000
,
0010
0000
0000
0000
0000
0100
0000
0001
,
0000
0000
0000
0010
0000
0000
0000
0000
,
0100
0000
0000
0000
,
1000
0000
0000
0000
,
0010
0000
0000
0000
,
1000
0000
0000
0000
0000
0010
0000
0020
,
0000
0000
0030
0000
;

//---------------dance-single - Itsugo----------------
#NOTES:
     dance-single:
     Itsugo:
     Challenge:
     10:
     0.721,0.939,0.746,0.212,0.579: // measure 1
0000
0000
0000
0000
0000
0000
0000
0000
0000
0000
0000
0000
0000
0000
0000
0000
0000
1000
0000
0000
0000
0000
0000
0000
0000
0020
0000
0000
0000
0000
0000
0000
0000
0000
0130
0000
0000
0000
0000
0000
0000
0001
0000
0000
0000
0000
0000
0000
0000
0000
0000
0000
1000
0000
0000
0000
0000
0000
0000
0000
0000
0100
0000
0000
,  // measure 2
0000
0000
0000
0000
0000
0000
0010
0000
0000
0000
0000
0000
0000
0000
0000
0001
0000
0000
0000
0000
0000
0000
0000
0000
0000
1000
0000
0000
0000
0000
0000
0000
0000
0000
0020
0000
0000
0000
0000
0000
0000
0000
0000
0000
0000
0000
0000
0200
0000
0000
0000
0000
0000
0000
0000
0000
0000
0000
0000
0000
0000
0000
0000
0000
,  // measure 3
0000
0000
0000
0000
0000
0000
0000
0000
0000
0000
0000
0000
0000
0000
0000
0000
0330
0000
0000
0000
0000
0000
0000
0000
0000
0000
0000
0000
0000
0000
1001
0000
0000
0000
0000
0000
0000
0000
1001
0000
0000
0000
0000
0000
0000
0000
0000
0001
0000
0000
0000
0000
0020
0000
0000
0000
0000
0000
0000
0000
0000
0000
0000
0000
,  // measure 4
0030
0100
0000
0000
0000
0000
0000
0000
0000
0000
1000
0000
0000
0000
0000
0000
0000
0000
0000
0000
0001
0000
0000
0000
0000
0000
0000
0000
0000
0000
0100
0000
0000
0000
0000
0000
0000
0000
0000
0010
0000
0000
0000
0000
0000
0000
0000
2000
0000
0000
3000
0000
0000
0000
0000
0000
0000
0000
0002
0000
0000
0000
0000
0000
,  // measure 5
0000
0020
0000
0000
0000
0000
0000
0000
0000
0000
0000
0000
0000
0000
0000
0000
0000
0000
0000
0000
0000
0000
0000
0000
0000
0000
0000
0000
0000
0000
0000
0000
0033
0000
0000
0000
0000
0000
0000
0000
0000
0000
0000
0000
1100
0000
0000
0000
0000
0000
0000
0000
1100
0000
0000
0000
0000
0000
0000
0000
0000
0000
1000
0000
,  // measure 6
0000
0000
0000
0000
0001
0000
0000
0000
0000
0000
0000
0000
0000
0000
0100
0000
0000
0000
0000
0000
0000
0000
0000
0020
0000
0000
0000
0030
0000
0000
0000
0000
0000
0000
1000
0000
0000
0000
0000
0000
0000
0000
0001
0000
0000
0000
0000
0000
0000
0000
0000
0010
0000
0000
0000
0000
0000
0000
0000
0000
0100
0000
0000
0000
,  // measure 7
0000
0000
0000
0000
0000
1000
0000
0000
0000
0000
0000
0000
0000
0000
0001
0000
0000
0000
0000
0000
0000
0000
0000
2000
0000
0000
0000
0000
0000
0020
0000
0000
0000
0000
0000
0000
0000
0000
0000
0000
0000
0000
0000
0000
0000
0000
0000
0000
3030
0000
0000
0000
0000
0000
0000
0000
0000
0000
0000
0000
0101
0000
0000
0000
,  // measure 8
0000
0000
0000
0000
0101
0000
0000
0000
0000
0000
0000
0000
0000
0000
0001
0000
0000
0000
0000
1000
0000
0000
0000
0000
0000
0000
0000
0000
0000
0000
0100
0000
0000
0000
0000
0000
1000
0000
0000
0000
0000
0000
0100
0000
0000
0000
0000
0000
0000
0000
0010
0000
0000
0000
0000
0000
0000
0000
0000
0001
0000
0000
0000
0000
,  // measure 9
0000
0000
1000
0000
0000
0000
0000
0020
0000
0000
0000
0000
0000
0000
0200
0000
0000
0000
0000
0000
0000
0000
0000
0000
0000
0000
0000
0000
0000
0000
0000
0000
,  // measure 10
0000
0000
0000
0000
0000
0000
0000
0000
0000
0000
0000
0000
0000
0000
0000
0000
0000
0000
0000
0000
0000
0000
0000
0000
M330
MM00
0MM0
M0MM
0M0M
00M0
000M
0000
M000
MM00
0MM0
M0MM
0M0M
00M0
000M
0000
M000
MM00
0MM0
M0MM
0M0M
00M0
000M
0000
M000
MM00
0MM0
M0MM
0M0M
00M0
000M
0000
M000
MM00
0MM0
M0MM
0M0M
00M0
000M
0000
,  // measure 11
1001
0000
0001
0000
0101
0000
0100
0010
,  // measure 12
0000
0010
1000
0001
0010
0100
0010
0001
,  // measure 13
0011
0000
1001
0000
1000
0000
0100
1000
,  // measure 14
0000
0001
0100
0010
1000
0100
0010
0010
,  // measure 15
0110
0000
1001
0000
0100
0010
0000
0010
,  // measure 16
0000
1000
0001
0010
0100
0100
1000
0001
,  // measure 17
1001
0000
0101
0000
0100
0010
0000
1000
,  // measure 18
0000
0001
0010
0100
1000
1000
0001
0001
,  // measure 19
1001
0000
0001
0100
1000
0100
0001
1000
,  // measure 20
0000
0100
0010
0000
0001
1000
0010
0000
,  // measure 21
1010
0000
0011
0001
0001
0010
0100
1000
,  // measure 22
0000
1000
0010
0100
0110
0000
1001
0000
,  // measure 23
0110
0000
0100
0100
1000
0001
0100
0010
,  // measure 24
0000
1000
0001
0000
0010
0000
0100
0000
,  // measure 25
0110
0000
0010
0000
0011
0000
0001
1000
,  // measure 26
0000
1000
0001
0000
0100
1000
0100
0001
,  // measure 27
0200
0010
1000
0001
,  // measure 28
1000
0010
0301
1000
,  // measure 29
2001
0100
0010
0100
,  // measure 30
0001
0000
0010
0000
3100
0000
1000
0001
,  // measure 31
1001
0100
0110
1000
,  // measure 32
1010
0001
1001
0010
,  // measure 33
0011
0000
0010
1000
0000
0010
0001
0000
,  // measure 34
0100
0000
1000
0000
0100
0000
0001
0000
0100
0000
0010
0100
0010
0100
0010
0100
,  // measure 35
0010
1000
0010
0100
0001
0010
0100
1000
,  // measure 36
0100
0010
0001
0100
0010
1000
0100
0010
,  // measure 37
0001
0000
0001
0000
0001
0000
0001
0000
0000
M0M0
0M0M
0000
1000
0000
1000
0000
,  // measure 38
1000
0000
2000
0000
0000
0000
0000
0000
3001
0100
0001
0000
1000
0000
0010
0000
,  // measure 39
1010
1000
0001
0010
0011
0001
1000
1100
,  // measure 40
0000
0000
1001
0000
0001
0000
0100
0000
0000
0000
0110
0000
1000
0000
0001
0010
,  // measure 41
0100
1000
1100
0000
0100
0010
0110
0000
,  // measure 42
0010
0000
0001
0000
0011
0000
0000
0000
0001
0000
1000
0000
0100
0000
1000
0010
,  // measure 43
0100
0000
0101
0000
0010
1000
1010
0000
,  // measure 44
0001
0010
0011
0000
0110
0100
1000
0001
,  // measure 45
0101
1000
1100
0001
0101
1000
1100
0100
,  // measure 46
0110
0000
0010
0000
0001
1000
0010
1000
0001
0010
0100
1000
0100
0010
0001
0100
,  // measure 47
0101
0001
1000
0100
1100
1000
0001
0011
,  // measure 48
0000
0000
1001
0000
0000
0000
1010
0000
0000
0000
0110
0000
0001
0000
1000
0100
,  // measure 49
0010
0001
0011
0000
0010
0100
1000
0001
,  // measure 50
1001
0000
0000
0000
0101
0000
0001
0000
1000
0000
0001
0000
0010
0000
0001
0100
,  // measure 51
0010
0000
1010
0000
1000
0001
0000
0010
,  // measure 52
0000
0100
0000
1000
0000
0001
0100
0010
,  // measure 53
0110
0000
1000
1010
0000
0101
0000
0011
,  // measure 54
0001
0010
0001
0000
1000
0010
1000
0000
0001
0010
0100
1000
0100
0010
0001
0100
,  // measure 55
0020
0130
0010
0100
0110
0010
0110
0100
,  // measure 56
0002
0103
0001
0100
0101
1000
1100
0100
,  // measure 57
0010
0001
1000
0000
0000
0000
0010
0100
0001
0000
0000
0000
1000
0100
0010
0000
,  // measure 58
0110
0000
0000
0000
0100
1000
0001
0000
0100
0000
0110
0000
1010
0000
2002
0000
,  // measure 59
0000
3003
0000
0000
0000
0000
0000
0000
;
