#TITLE:ZONE ALONE;
#SUBTITLE:境界線上のホライゾン II;
#ARTIST:茅原実里;
#TITLETRANSLIT:Zone Alone;
#SUBTITLETRANSLIT:Kyoukai Senjou no Horizon II;
#ARTISTTRANSLIT:Chihara Minori;
#GENRE:Otaku's Dream 3rd Mix (Pad);
#CREDIT:Itsugo15;
#BANNER:ZONE ALONE-bn.jpg;
#BACKGROUND:ZONE ALONE-bg.jpg;
#LYRICSPATH:ZONE ALONElrc;
#CDTITLE:Itsugo15 SimifileS.png;
#MUSIC:ZONE ALONE.mp3;
#OFFSET:0.672;
#SAMPLESTART:64.382;
#SAMPLELENGTH:25.000;
#SELECTABLE:YES;
#LISTSORT:;
#BPMS:0.000=173.000;
#STOPS:;
#TICKCOUNT:0.000=6;
#BGCHANGES:2.000=ZONE ALONE.avi=1.000=1=1=0,
260.000=ZONE ALONE.avi=0.000=0=1=0,
99999=-nosongbg-=1.000=0=0=0 // don't automatically add -songbackground-
;
#KEYSOUNDS:;
#ATTACKS:;

//---------------dance-single - Itsugo----------------
#NOTES:
     dance-single:
     Itsugo:
     Beginner:
     2:
     0.129,0.173,0.108,0.022,0.000:
0000
0000
0000
0000
,
0000
0000
0000
0000
,
0000
0000
0000
0000
,
0000
0000
0000
0000
,
0000
0000
0000
0000
,
1001
0000
0000
0000
,
0000
0000
0000
0000
,
0110
0000
0000
0000
,
0000
0000
0000
0000
,
1001
0000
0000
0000
,
1000
0000
0000
0000
,
0010
0000
0000
0000
,
0000
0010
0000
0000
0000
0000
0000
0000
,
0100
0000
0000
0000
,
0000
0100
0000
0000
0000
0000
0000
0000
,
0000
0001
0000
0000
0000
0000
0000
0000
,
0000
0001
0000
0000
0000
0000
0000
0000
,
0000
1000
0000
0000
0000
0000
0000
0000
,
0000
1000
0000
0000
0000
0000
0000
0000
,
0000
0100
0000
0000
0000
0000
0000
0000
,
0000
0100
0000
0000
0000
0000
0000
0000
,
0000
0010
0000
0000
0000
0000
0000
0000
,
0010
0000
0001
0000
,
1000
0000
0000
0000
,
0000
0010
0000
0000
0000
0000
0000
0000
,
0000
0100
0000
0000
0000
0000
0000
0000
,
0000
0001
0000
0000
0000
0000
0000
0000
,
0000
1000
0000
0000
0000
0000
0000
0000
,
0000
0100
0000
0000
0000
0000
0000
0000
,
0000
0010
0000
0000
0000
0000
0000
0000
,
0000
0001
0000
0000
0000
1000
0000
0000
,
0000
1001
0000
0000
0000
0001
0000
0000
,
0000
0000
0000
0000
0000
1000
0000
0000
,
0000
0010
0000
0000
0000
0100
0000
0000
,
0000
0001
0000
0000
0000
1000
0000
0000
,
0000
0100
0000
0000
0000
0000
0000
0000
,
0000
0100
0000
0000
0000
0000
0000
0000
,
0000
1000
0000
0000
0000
0000
0000
0000
,
0000
1000
0000
0000
0000
0000
0000
0000
,
0000
1001
0000
0000
0000
0000
0000
0000
,
0000
0000
0000
0000
,
0000
0101
0000
0000
0000
0000
0000
0000
,
0000
0000
0000
0000
,
0000
0110
0000
0000
0000
0000
0000
0000
,
0000
0000
0000
0000
,
1010
0000
0000
0000
,
0000
2000
0000
3000
0000
0000
0000
0000
,
1001
0000
0000
0000
0000
0001
0000
0000
,
0000
0010
0000
0000
0000
0000
0000
0000
,
0000
0100
0000
0000
0000
1000
0000
0000
,
0000
0010
0000
0000
0000
0000
0000
0000
,
1000
0000
0000
0000
0000
0001
0000
0000
,
0010
0000
0000
0000
0000
0001
0000
0000
,
1000
0000
0000
0000
0000
0010
0000
0000
,
0000
0100
0000
0000
0000
0001
0000
0000
,
0101
0000
0000
0000
0000
0100
0000
0000
,
0000
0001
0000
0000
0000
1000
0000
0000
,
0100
0000
0000
0000
0000
0010
0000
0000
,
0000
0001
0000
0000
0000
1000
0000
0000
,
0010
0000
0000
0000
,
0000
1000
0000
0000
0000
0000
0000
0000
,
0001
0000
0000
0000
0000
0010
0000
0000
,
0100
0000
1000
0000
,
0002
0000
0000
0000
,
1003
0000
0000
0000
;

//---------------dance-single - Itsugo----------------
#NOTES:
     dance-single:
     Itsugo:
     Challenge:
     11:
     0.826,0.869,0.970,1.000,0.119: // measure 1
0000
0000
0000
0000
,  // measure 2
0000
0000
0000
0000
,  // measure 3
0000
0000
0000
0000
,  // measure 4
0000
0000
0000
0000
,  // measure 5
0000
0000
0000
0000
0000
0000
1000
1000
,  // measure 6
2200
0000
0000
0000
,  // measure 7
3300
0202
0000
0303
0220
0330
2002
3003
,  // measure 8
0220
0000
0000
0000
0000
0000
0000
0330
,  // measure 9
0000
0000
0000
0010
0100
0000
0000
0000
0000
0000
0000
0000
0010
0000
0000
0000
0002
0000
0000
0000
0000
0000
0000
0000
2000
0000
0000
0000
3003
0000
0000
0000
,  // measure 10
1001
0000
0001
2000
0000
0020
3000
0130
,  // measure 11
0101
0000
0001
0020
0000
0200
0030
1300
,  // measure 12
2200
0000
3300
0220
0000
0330
0022
0000
,  // measure 13
0033
0202
0000
0303
0110
0000
1001
0000
,  // measure 14
0220
0000
0330
2200
0000
3300
0022
0000
,  // measure 15
0033
0000
2020
0000
0000
0000
3030
0000
0202
0000
0000
0003
0301
0000
0001
0000
,  // measure 16
0001
0004
1000
1000
1000
1000
1000
1000
,  // measure 17
1000
1000
1000
1000
1000
1000
1000
1000
,  // measure 18
1000
4003
0001
0001
0001
0001
0001
0001
,  // measure 19
0001
0001
0001
0001
0001
0001
0001
0001
,  // measure 20
0001
3004
0010
1000
0100
1000
0010
1000
,  // measure 21
0100
4003
0100
0001
0010
0001
0100
0001
,  // measure 22
0010
3001
0040
0100
1000
0100
0001
0130
,  // measure 23
0110
0011
1100
1010
,  // measure 24
0101
0000
0100
0110
0010
1000
0100
1100
,  // measure 25
1000
0001
0100
0101
0001
0010
0100
0110
,  // measure 26
0010
0001
0001
0100
0100
1000
1000
0100
,  // measure 27
0100
0010
0010
1000
0001
0010
0100
1000
,  // measure 28
0100
0020
0000
0001
0000
0130
0000
0100
,  // measure 29
1000
0010
0100
0110
0000
0100
0001
0011
,  // measure 30
0000
0100
1000
1010
0000
1001
0000
1001
,  // measure 31
0001
0010
0100
1000
0100
0110
0110
0011
,  // measure 32
0001
0010
0100
1000
0001
0100
0010
1000
0010
0100
0002
0000
0000
0000
0000
0000
,  // measure 33
0000
0003
0202
0000
0000
0303
1000
0000
2200
0000
0000
0000
0000
3300
0022
0000
,  // measure 34
0000
0000
0000
0000
0000
0033
2002
0000
0000
0000
0000
3003
0110
0000
0000
0000
,  // measure 35
2002
0000
0000
3003
1000
0000
0010
0000
1010
0000
0000
0000
0101
0000
0000
0000
,  // measure 36
0001
1000
0010
1000
0001
0010
0001
0100
,  // measure 37
0010
1000
0100
0010
0001
0010
0100
1000
,  // measure 38
0001
0001
0100
0010
1000
0100
0010
0001
,  // measure 39
0010
0000
0200
0000
0000
0000
1000
0000
1300
0001
0200
0000
0010
0000
0010
0000
,  // measure 40
0310
2002
3003
0001
0202
0303
1000
2020
,  // measure 41
3030
0001
0022
0033
1000
1100
0000
0011
,  // measure 42
0000
2020
3030
0001
0202
0303
0001
0022
,  // measure 43
0033
1000
2200
3300
1000
1010
0000
0101
,  // measure 44
0000
2002
3003
0001
2200
3300
1000
0202
,  // measure 45
0303
0001
2020
3030
1000
0011
0000
1001
,  // measure 46
4004
0000
0000
0000
,  // measure 47
3003
0000
1001
0000
0110
0000
0000
M00M
0MM0
0MM0
M00M
0MM0
0MM0
M00M
0MM0
M00M
,  // measure 48
1001
0000
0001
1000
0010
0100
0001
1000
,  // measure 49
0100
1100
0000
1000
0101
0000
0110
0000
,  // measure 50
1010
0000
1000
0100
0010
0001
0010
0100
,  // measure 51
1000
1100
0000
0100
0011
0000
1010
0000
,  // measure 52
1100
0000
0000
0000
0100
0000
1000
0000
0001
0000
0010
0100
1000
0100
0010
0000
,  // measure 53
0110
0000
0000
0000
0010
0000
0001
0000
0100
0000
0010
1000
0010
0100
0001
0000
,  // measure 54
0101
0000
0001
1000
0010
0100
0001
1000
,  // measure 55
0100
0000
0010
0000
0100
0000
1000
0000
0001
0000
0100
0010
1000
0100
1000
0001
,  // measure 56
1001
0000
1000
0001
0100
0010
1000
0001
,  // measure 57
0010
0011
0000
0001
1010
0000
0110
0000
,  // measure 58
0101
0000
0001
0100
1000
0100
0010
1000
,  // measure 59
0001
0000
0010
0000
0100
0000
1000
0000
0100
0000
0010
0001
0010
0001
0010
0001
,  // measure 60
0200
0000
0000
0000
,  // measure 61
0300
2020
0000
3030
2002
3003
0022
0033
,  // measure 62
0110
0000
0100
1000
0001
0100
0010
1000
,  // measure 63
2020
3030
1000
0001
2002
3003
0001
0010
,  // measure 64
0022
0000
0000
0000
0000
0033
0011
1001
,  // measure 65
0222
0000
0000
0000
0000
0000
0000
0333
0000
0000
0000
0000
0000
0000
0000
0000
;

//---------------dance-single - Itsugo----------------
#NOTES:
     dance-single:
     Itsugo:
     Easy:
     5:
     0.228,0.242,0.022,0.086,0.000:
0000
0000
0000
0000
,
0000
0000
0000
0000
,
0000
0000
0000
0000
,
0000
0000
0000
0000
,
0000
0000
0000
0000
,
2002
0000
0000
3003
,
0000
0001
0000
0000
1000
0000
0010
0000
,
2000
0000
0000
0000
,
0000
3100
0000
0000
0010
0000
0000
0000
,
0001
0000
0000
0000
,
1000
0000
0000
0000
,
0010
0000
0000
0100
0000
0000
0001
0000
,
0000
1000
0000
0000
0001
0000
0010
0000
,
0100
0000
0000
1000
0000
0000
0001
0000
,
0000
0100
0000
0000
0020
0000
0000
0000
,
0000
1030
0000
0000
0000
1000
0000
0000
,
0000
0100
0000
0000
0000
0100
0000
0000
,
0000
0010
0000
0000
0000
0010
0000
0000
,
0000
0001
0000
0000
0000
0001
0000
0000
,
0000
0200
0000
0000
0000
0310
0000
0000
,
0000
1000
0000
0000
0000
0100
0000
0000
,
0000
0010
0000
0000
0000
0100
0000
0000
,
1000
0000
0001
0000
,
1001
0000
0000
0001
0000
0000
0000
0100
,
0000
0000
0000
0010
0000
0000
0000
1000
,
0000
0000
0000
0100
0000
0000
0000
0010
,
0000
0000
0000
0100
0000
0000
0000
1000
,
0000
0000
0000
0001
0000
0000
0000
0100
,
0000
0000
0000
0010
0000
0000
0000
1000
,
0000
0000
0000
0001
0000
0000
0000
0010
,
0000
0000
0000
0100
0000
0000
0000
1000
,
0000
0002
0000
0000
0000
1003
0000
0000
,
0000
0010
0000
0000
1000
0000
0000
1000
,
0000
0000
0000
0100
0000
0000
0010
0000
,
0001
0000
0000
0100
0000
0000
0000
0010
,
0000
1000
0000
0000
0000
0001
0000
0000
,
0000
0010
0000
0000
0000
0100
0000
0000
,
0000
1000
0000
0000
0000
0100
0000
0000
,
0000
0010
0000
0000
0000
0001
0000
0100
,
0000
0010
0000
0000
1000
0000
0000
0001
,
0000
0000
0001
0000
0000
0010
0000
0100
,
0000
1000
0000
0000
1000
0000
0000
0010
,
0000
0000
0100
0000
0000
0001
0000
0010
,
0000
0001
0000
0000
0100
0000
0000
0010
,
0000
0000
1000
0000
0000
0100
0000
0010
,
0002
0000
0000
0000
,
0000
1000
1003
0000
0000
0000
0000
0000
,
1000
0000
0000
0010
0000
0000
0000
0100
,
0000
0000
0000
0001
0000
0000
1000
0000
,
0100
0000
0000
0010
0000
0000
0000
0001
,
0000
0000
0000
0100
0000
0000
0010
0000
,
1000
0000
0000
1000
0000
0100
0000
0000
,
0010
0000
0000
0010
0000
0001
0000
0000
,
0100
0000
0000
0010
0000
1000
0000
0010
,
0000
1000
0000
0000
0000
0001
0000
0000
,
0010
0000
0000
0100
0000
0000
0000
1000
,
0000
0000
0000
0001
0000
0000
0000
0100
,
0000
0000
0000
0010
0000
0000
0000
1000
,
0000
0000
0000
0100
0000
0010
0000
0001
,
1000
0000
0000
0000
,
0000
1000
0000
0000
0010
0000
0100
0000
,
0001
0000
0000
0010
0000
0000
0000
0100
,
0000
0000
0000
1000
0000
0000
0000
0010
,
0200
0000
0000
0000
0000
0300
0100
0001
,
1000
0000
0000
0000
;

//---------------dance-single - Itsugo----------------
#NOTES:
     dance-single:
     Itsugo:
     Hard:
     8:
     0.565,0.624,0.442,0.194,0.022:
0000
0000
0000
0000
,
0000
0000
0000
0000
,
0000
0000
0000
0000
,
0000
0000
0000
0000
,
0000
0000
0000
0000
0000
0000
1000
1000
,
0020
0000
0000
0000
,
0030
0110
0000
0000
1010
0000
0101
0000
,
2002
0000
0000
0000
,
3003
1001
0000
0001
0010
0000
0100
0000
,
1100
0000
0000
1000
0000
0010
0000
0100
,
0101
0000
0000
1001
0000
1000
0000
0100
,
1100
0000
0000
1001
0000
0000
0101
0000
,
0000
0110
0000
0000
0010
0000
1000
0000
,
1010
0000
0000
1001
0000
0000
0011
0000
,
0000
1001
0000
0000
2000
0000
3100
0010
,
0001
1000
0000
0010
0000
0100
0000
0001
,
0000
0010
0000
0100
0000
1000
0000
0001
,
0000
0100
0000
0010
0000
1000
0000
0010
,
0000
0100
0000
0001
0000
0010
0100
1000
,
0001
0100
0000
0010
0000
0100
0000
0001
,
0010
0100
0000
0100
1000
0010
0000
0100
,
0001
0000
1000
0100
0000
1000
0001
0000
,
1001
0001
1000
0010
,
1010
0000
0001
1000
0100
0010
0001
0100
,
0010
1000
0100
0010
0100
1000
0010
0100
,
0001
0020
0000
0230
0000
2300
0000
3001
,
0100
0020
0000
1030
0001
0020
0000
0130
,
1000
0002
0000
0100
0000
0103
0000
0010
,
1000
0001
0010
0200
0000
1300
0100
0020
,
0000
0031
0100
0010
0000
1000
0001
0010
,
0100
1000
0001
0100
0010
1010
0010
0100
,
0010
1000
0010
0100
0001
2000
0000
0000
,
0000
3100
0000
1000
0001
0000
0001
1000
,
0000
0010
0100
0001
0000
0001
0010
0000
,
0020
0000
0130
1000
0001
0000
0010
0000
,
0100
1000
0000
0001
0000
0100
0000
0010
,
0000
1000
0100
0010
0000
0100
1000
0010
,
0000
0100
0000
0001
0000
0010
0000
0100
,
0000
1000
0001
0100
0010
1000
0010
0100
,
0001
1000
0000
0100
0010
0000
0010
0001
,
0000
0001
0100
0000
0100
0010
0000
0110
,
0000
0110
0000
0100
0001
0000
1000
0100
,
0000
0100
0010
0000
0010
0001
0000
1100
,
0000
1001
0000
1000
0010
0000
0010
0100
,
0000
0100
0001
0000
0001
1000
0000
1000
,
0200
0000
0000
0000
,
0000
1000
1300
0000
0000
0000
0000
0000
,
1001
0000
0001
0010
0100
1000
0001
0100
,
0010
1000
0000
1000
0100
0000
1100
0000
,
1100
0000
0100
0010
0001
0100
0010
1000
,
0001
0010
0000
0010
0100
0000
0110
0000
,
0110
0000
0000
0000
0010
0000
0001
0000
0100
0000
0010
0000
1000
0001
0010
0000
,
0011
0000
0000
0000
0001
0000
1000
0000
0100
0000
0010
0000
0001
1000
0010
0000
,
1010
0000
1000
0100
0010
0001
1000
1001
,
0000
0000
0001
0000
0100
0000
0001
0000
1000
0000
0001
0010
0100
1000
0100
0000
,
1100
0000
1000
0100
0010
0001
0100
0010
,
1000
1010
0000
1000
1001
0000
0011
0000
,
1100
0000
1000
0001
0010
0100
1000
0001
,
0100
0001
0100
0010
1000
0100
0010
0001
,
2000
0000
0000
3100
0000
1000
0000
0001
,
0010
0011
0000
0001
1000
0000
1010
0000
,
1001
0000
0001
0010
0100
1000
0001
0100
,
0101
0000
1000
0100
1100
0000
1000
0010
,
0200
0000
0000
0000
0000
0000
0001
0001
,
0302
0003
0000
0000
;

//---------------dance-single - Itsugo----------------
#NOTES:
     dance-single:
     Itsugo:
     Medium:
     7:
     0.505,0.483,0.572,0.280,0.000:
0000
0000
0000
0000
,
0000
0000
0000
0000
,
0000
0000
0000
0000
,
0000
0000
0000
0000
,
0000
0000
0000
0000
0000
0000
1000
1000
,
2002
0000
0000
0000
0000
0000
0000
3003
,
0000
0101
0000
0000
1010
0000
1001
0000
,
0220
0000
0000
0000
0000
0330
0000
0000
,
0010
0100
0000
1000
0001
0000
1001
0000
,
0101
0000
0001
0100
0000
0010
0000
1000
,
1010
0000
1000
0100
0000
0010
0000
0001
,
0011
0000
0000
0011
0000
0000
0011
0000
,
0000
0011
0000
0000
1001
0000
0101
0000
,
1010
0000
0000
1010
0000
0000
1010
0000
,
0000
1010
0000
0000
1001
0000
0001
1000
,
0001
1000
0000
0100
0000
0010
0000
1000
,
0000
0010
0000
0001
0000
0100
0000
1000
,
0000
0100
0000
0001
0000
0100
0000
0010
,
0000
1000
0000
1000
0000
0001
0000
0001
,
0000
0020
0000
0100
0000
1000
0000
0031
,
0000
2000
0000
0001
0000
0010
0000
0100
,
0000
3010
0000
0200
0000
0001
0000
0310
,
1000
1010
0101
1001
,
0011
0000
0001
0000
1000
0010
0100
0000
,
0001
1000
0100
0000
0010
0001
1000
0000
,
0010
0200
0000
0302
0000
2003
0000
3200
,
0000
0310
0000
0100
1000
0000
0001
0100
,
0010
2000
0000
0010
0000
3001
0000
1000
,
0000
0100
0000
0001
0000
0100
0000
0010
,
0000
0001
0000
1000
0000
0010
0000
0100
,
0000
1000
0000
0100
0000
0002
0000
2003
,
0000
3200
0000
0320
0000
0032
0000
0010
,
0000
1003
0000
1000
0000
0002
0000
0203
,
0000
0320
0000
2030
0000
3002
0000
0010
,
0000
1003
0000
0100
0000
1100
0000
0101
,
0000
1001
0000
0001
0000
0001
0000
0001
,
0000
1000
0000
1000
0000
1000
0000
1000
,
0000
0010
0000
0010
0000
0010
0000
0010
,
0000
0100
0000
0100
0000
0100
0000
0100
,
0000
0110
0000
0000
1010
0000
0000
1001
,
0000
0000
0011
0000
0000
0110
0000
0110
,
0000
0011
0000
0000
0101
0000
0000
1010
,
0000
0000
1001
0000
0000
1001
0000
0110
,
0000
1001
0000
0000
0101
0000
0000
1010
,
0000
0000
0011
0000
0000
1100
0000
0001
,
2000
0000
0000
0000
,
0000
3001
1001
0000
0000
0000
0000
0000
,
1001
0000
1000
0010
0100
0000
0001
0010
,
0100
0000
0010
0001
1000
0000
0010
0000
,
1010
0000
1000
0100
0010
0000
0001
0100
,
0010
0000
1000
0001
0010
0000
0100
0000
,
0110
0000
0010
0001
0010
0100
0010
0001
,
1000
0000
1000
0010
0100
0010
1000
0001
,
0100
0000
0001
1000
0100
0000
1000
0001
,
0010
0000
0100
1000
0010
0200
0000
0300
,
0110
0000
0100
0001
0010
0000
0100
1000
,
0010
0000
1000
0001
0010
0000
0100
0000
,
0110
0000
0010
0001
0100
0000
0010
1000
,
0100
0000
0010
0001
0010
0100
2000
0000
,
3001
0000
0000
0000
,
0000
1001
0000
0000
0101
0000
1010
0000
,
1001
0000
0001
0010
0000
0100
1000
0001
,
0100
0000
0100
0010
1000
0000
1000
0001
,
0020
0000
0000
0000
0000
0000
0001
0031
,
1000
0000
0000
0000
;
